#TITLE:Summer Beats;
#SUBTITLE:;
#ARTIST:Randall Jones;
#TITLETRANSLIT:;
#SUBTITLETRANSLIT:;
#ARTISTTRANSLIT:;
#GENRE:;
#CREDIT:;
#MUSIC:Summer Beats.mp3;
#BANNER:;
#BACKGROUND:;
#CDTITLE:;
#SAMPLESTART:53.842;
#SAMPLELENGTH:15.360;
#SELECTABLE:YES;
#OFFSET:1.838;
#BPMS:0.000=125.000;
#STOPS:;
#BGCHANGES:;
#FGCHANGES:;

//--------------- dance-single - aboutblank ----------------
#NOTES:
     dance-single:
     aboutblank:
     Beginner:
     4:
     0,0,0,0,0:
0000
0000
0000
0000
,
0000
0000
0000
0000
,
0000
0000
0000
0000
,
0000
0000
0000
0000
,
0000
0000
0000
0000
,
1000
0100
1000
0000
,
0001
0100
0001
0000
,
1000
0010
1000
0000
,
0001
0010
0100
1000
,
0001
0000
0001
0000
,
0001
0100
1000
0000
,
1000
0000
1000
0000
,
1000
0010
0001
0000
,
0001
0000
0101
0000
,
0001
0100
1000
0000
,
0100
0000
0110
0000
,
0100
0010
1000
0000
,
0001
0000
1001
0000
,
1000
0100
0010
0000
,
0001
0000
1001
0000
,
0001
1000
0010
0100
,
0001
0000
0001
0000
,
1000
0100
0001
0100
,
1000
0000
0010
0000
,
0001
0010
1000
0010
,
0001
0000
0010
0000
,
0100
0001
0010
0001
,
0100
0000
0010
0000
,
1000
0100
0010
0001
,
1000
0000
1000
0001
,
1000
0000
1000
0010
,
0100
0000
0100
0001
,
0100
0000
0100
0001
,
0010
0000
0010
0100
,
0010
0000
0010
0001
,
1000
0000
1000
0001
,
0010
0100
1000
0010
,
0100
0100
0100
0100
,
0001
0001
0001
0001
,
0010
0010
0010
0010
,
0100
0100
1000
1000
,
0010
0010
0100
0001
,
1000
1000
0100
0010
,
0001
0100
1000
0100
,
0001
0010
1000
0010
,
0001
1000
1100
0000
,
1000
0100
0001
0000
,
0100
0010
0011
0000
,
0010
0001
0100
0000
,
0001
0100
0110
0000
,
0010
1000
0001
0000
,
1000
0100
0101
0000
,
0001
0010
1000
0100
;

//--------------- dance-single - aboutblank ----------------
#NOTES:
     dance-single:
     aboutblank:
     Easy:
     7:
     0,0,0,0,0:
0000
0000
0000
0000
,
0000
0000
0000
0000
,
0000
0000
0000
0000
,
0000
0000
0000
0000
,
0000
0000
0000
0000
,
2000
0000
3010
0000
0100
0010
0100
0000
,
0002
0000
0103
0000
0001
1000
0001
0000
,
2000
0000
3010
0000
1000
0010
1000
0000
,
0020
0130
0002
1003
,
0001
0000
0010
0000
0100
0010
0100
0000
,
1000
0010
0100
0001
,
1000
0000
0100
0000
0010
0100
0010
0000
,
0001
1000
0001
1000
,
0100
0000
0010
0000
0001
0100
0001
0000
,
1000
0010
0001
0010
,
1000
0000
0100
0000
0010
0100
0010
0000
,
0001
0100
1000
0100
,
0001
0000
1000
0000
0100
1000
0100
0000
,
0010
0010
0001
0001
,
1000
0000
0010
0000
0100
0001
0100
0000
,
1000
0100
0010
1000
,
0100
0100
0010
0010
,
0001
0000
0001
0000
1000
0001
1000
0000
,
0001
0001
0010
0010
,
0100
0000
0100
0000
1000
0010
1000
0000
,
0001
0001
1000
1000
,
0100
0000
0100
0000
0010
0100
0010
0000
,
0001
0001
0100
0100
,
0010
0000
0010
0000
1000
0100
0010
0000
,
1002
0000
0103
0000
0100
0001
0100
0000
,
0010
0000
1010
0000
0010
1000
0001
0000
,
1000
0000
1100
0000
0100
0010
0001
0000
,
1000
0000
1010
0000
0010
0100
0001
0000
,
1000
0000
0100
0000
0010
0001
0100
0000
,
1000
0000
0100
0000
0001
0010
0100
0000
,
0010
0000
0001
0000
1000
0001
0100
0000
,
0010
0100
0010
0000
0100
0010
0100
0000
,
1001
0001
0001
0001
,
1000
1000
1000
1000
,
0100
0100
0100
0100
,
0010
0010
0010
0010
,
0001
0100
0001
0000
1000
0010
1000
0000
,
0001
0100
0001
0000
1000
0010
1000
0000
,
0001
0010
0001
0000
1000
0100
1000
0000
,
0001
0100
0010
0000
1000
0100
0010
0000
,
1001
0000
0100
0000
0001
0010
0100
0000
,
0011
0000
1000
0000
0010
1000
0100
0000
,
0010
0000
0001
0000
0100
0001
1000
0000
,
1100
0000
0010
0000
0001
1000
0100
0000
,
0010
0000
0110
0000
0100
1000
0010
0000
,
0100
0000
1010
0000
1000
0010
0100
0001
,
0010
0000
0011
0000
0001
1000
0100
0000
,
0010
0000
1001
0000
1000
0100
0001
0000
;

//--------------- dance-single - aboutblank ----------------
#NOTES:
     dance-single:
     aboutblank:
     Medium:
     11:
     0,0,0,0,0:
0000
0000
0000
0000
,
0000
0000
0000
0000
,
0000
0000
0000
0000
,
0000
0000
0000
0000
,
0000
0000
0000
0000
,
1000
0000
1000
0000
0100
0010
0100
0000
,
0001
0000
0001
0000
1000
0010
1000
0010
,
0001
0000
0001
0000
0001
1000
0001
0000
,
0100
0010
0100
0000
0010
1000
0010
0000
,
0100
0000
0000
0100
0000
0000
0000
0000
0001
0000
1000
0000
0100
0000
0000
0000
,
0010
0000
0000
0010
0000
0000
1001
0000
0000
0000
0000
0000
0001
0000
0000
0000
,
0100
0000
0000
0100
0000
0000
0000
0000
0001
0000
0010
0000
0100
0000
0000
0000
,
0010
0000
0000
0010
0000
0000
1001
0000
0000
0000
0001
0000
1000
0000
0000
0000
,
0100
0000
0000
0100
0000
0000
0000
0000
1000
0000
0100
0000
0010
0000
0000
0000
,
0100
0000
0000
1000
0000
0000
1001
0000
0000
0000
0001
0000
0100
0000
0000
0000
,
0010
0000
0000
0010
0000
0000
0000
0000
1000
0000
0010
0000
0100
0000
0000
0000
,
1000
0000
0000
1000
0000
0000
0110
0000
0000
0000
0001
0000
0010
0000
0000
0000
,
0100
0000
0000
0010
0000
0000
0000
0000
0001
0000
0100
0000
0010
0000
0000
0000
,
1000
0000
0000
0001
0000
0000
1001
0000
0000
0000
0001
0000
0100
0000
0000
0000
,
0010
0000
0000
1000
0000
0000
0000
0000
0100
0000
0010
0000
0100
0000
0000
0000
,
0010
0000
0000
0001
1000
0000
0200
0000
0000
0000
0010
0000
0310
0000
0001
0000
,
1000
0010
0100
0000
1000
0100
0001
0000
,
0010
0000
0000
0100
0010
0000
0001
0000
0000
0000
0100
0000
0001
0000
0000
0000
,
0100
0010
1000
0000
0001
1000
0100
0000
,
0010
0000
0000
0010
0001
0000
1000
0000
0000
0000
0001
0000
0100
0000
0000
0000
,
0001
0000
0000
0001
0010
0000
0000
0000
0100
0000
0010
0000
0010
0000
0000
0000
,
0100
0000
0000
0100
1000
0000
0000
0000
0001
0000
1000
0000
1000
0000
0000
0000
,
0100
0000
0000
0100
0010
0000
0000
0000
0001
0000
0000
0001
0010
0000
0000
0000
,
0100
0000
0000
0100
1000
0000
0000
0000
0001
0000
1000
0000
0001
0000
1000
0000
,
0100
0000
0000
0100
0000
0000
0100
0000
0010
0000
0000
0010
0000
0000
0010
0000
,
0001
0000
0000
0001
0000
0000
0001
0000
1000
0100
0000
1000
0100
0000
1000
0000
,
0010
0000
0000
0010
0000
0000
0010
0000
0100
0000
0000
0100
0000
0000
0100
0000
,
0001
0000
0000
0001
0000
0000
0001
0000
0010
0001
0000
0010
0001
0000
1000
0000
,
0001
0000
0000
0001
0000
0000
1000
0000
0100
0000
0000
0100
0000
0000
0010
0000
,
0001
0000
0000
0100
0000
0000
0100
0000
0010
1000
0000
0010
1000
0000
0001
0000
,
1000
0000
0000
0100
0000
0000
0010
0000
0100
0000
0000
1000
0000
0000
0001
0000
,
0100
0000
0000
1000
0000
0000
0100
0000
0001
0000
0010
0000
0100
0000
1000
0000
,
0001
0001
0001
0001
,
1000
1000
1000
1000
,
0010
0010
0010
0010
,
0100
0100
0100
0100
,
0001
0100
1000
0000
1000
0100
0001
0000
,
0001
0010
1000
0000
1000
0010
0001
0000
,
0001
0100
0010
0000
1000
0100
0010
0000
,
0001
0100
0010
0000
1000
0100
0010
0000
,
0001
1000
0010
0000
0100
0100
0001
0000
,
0010
0000
0000
0110
0000
0000
1100
0000
0000
0000
0100
0000
0010
0000
0000
0000
,
0001
1000
0100
0000
0001
0100
0100
0000
,
0010
0000
0000
0011
0000
0000
0101
0000
0000
0000
0001
0000
1000
0000
0000
0000
,
1000
0000
0100
0000
0010
0000
0001
0000
0100
0010
0000
0100
0010
0000
0000
0000
,
1000
0000
0000
1001
0000
0000
0001
0000
0100
0001
0000
0100
0001
0000
1000
0000
,
0010
0000
0100
0000
0001
0000
1000
0000
0001
0010
0000
0001
0010
0000
0000
0000
,
0001
0000
0000
1100
0000
0000
0100
0000
0010
0001
0000
0010
0001
0000
1000
0000
;

//--------------- dance-single - aboutblank ----------------
#NOTES:
     dance-single:
     aboutblank:
     Hard:
     14:
     0,0,0,0,0:
0000
0000
0000
0000
,
0000
0000
0000
0000
,
0000
0000
0000
0000
,
0000
0000
0000
0000
,
0000
0000
0000
0000
,
1000
0000
0010
0000
1010
0000
0000
0000
1000
0001
0000
1000
0100
0000
0010
0000
,
0002
0000
0000
0000
0100
0000
0103
0000
0001
1000
0001
1000
0100
1000
0100
1000
,
0020
0000
0100
0000
0130
0000
0000
0000
0010
1000
0000
0010
0100
0000
0001
0000
,
2000
0000
0000
0000
3100
0000
0100
0000
0010
0000
0001
1000
0001
0000
0100
0000
,
0001
0000
0010
0100
0010
0000
0001
0000
1000
0000
0010
0000
1010
0000
0000
0000
,
0101
0000
0000
1000
0100
0000
0110
0000
0000
0000
0001
0000
1000
0010
1000
0000
,
0001
0000
0010
0100
0010
0000
0100
0000
1000
0000
0001
0000
1001
0000
0000
0000
,
0101
0000
0000
0010
1000
0000
0011
0000
0000
0000
1000
0000
0001
0100
0001
0000
,
1000
0000
0010
0100
0001
0000
1000
0000
0100
0010
0100
0010
0001
0000
0000
0000
,
1001
0000
0000
0001
1000
0000
0110
0000
0000
0000
0001
0000
0010
0001
0010
0000
,
0100
0000
1000
0010
0100
0000
0001
0000
1000
0100
1000
0100
1000
0000
0000
0000
,
0101
0000
0000
0001
1000
0000
1010
0000
0000
0000
0001
0000
0100
0010
0100
0000
,
0001
0000
1000
0100
1000
0000
0001
0000
0010
0100
0010
0100
1000
0000
0000
0000
,
0011
0000
0000
0100
1000
0000
1001
0000
0000
0000
0001
0000
0100
0010
1000
0000
,
0001
0000
0010
0001
1000
0000
0010
0000
0100
0001
0100
0001
0100
0000
0000
0000
,
2020
0000
3030
0202
0000
0303
2200
0000
3300
0000
0001
0000
1000
0000
0100
0000
,
0010
0000
0010
0001
0100
0000
1000
0000
0100
0010
0100
0010
1000
0000
0100
0000
,
0100
0000
0010
0001
1000
0000
0001
0000
0010
0100
0010
0100
1000
0000
0010
0000
,
1000
0000
1000
0100
0010
0000
0001
0000
0100
0010
0100
0010
1000
0000
0001
0000
,
0010
0000
0010
0001
1000
0000
0001
0000
1000
0100
1000
0100
0010
0001
0010
0001
,
1000
0000
0001
1000
0100
0000
1000
0000
0001
0010
0100
1000
0001
0000
1000
0000
,
0100
0000
0001
0100
0010
0000
0001
0000
1000
0010
0100
0010
1000
0000
0001
0000
,
0100
0000
0001
0010
0100
0000
0010
0000
0001
1000
0001
0100
0001
0000
1000
0000
,
0010
0000
0100
0010
1000
0000
0001
0000
0100
0000
0001
0100
0010
0000
1000
0000
,
0001
0000
0010
0100
0010
0000
0001
0000
1000
0000
0010
0100
0010
0000
1000
0000
,
0001
0000
0010
0100
0010
0000
0001
0000
1000
0010
0000
0100
0010
0000
0001
0000
,
1000
0000
0100
0010
0100
0000
0001
0000
1000
0000
0010
0100
0010
0000
0001
0000
,
0010
0000
1000
0010
1000
0000
0001
0000
0100
0000
1000
0100
1000
0000
0100
0000
,
0001
0000
1000
0100
1000
0000
0001
0000
1000
0000
0010
0100
0010
0000
1000
0000
,
0001
0000
0010
0001
0010
0000
0100
0000
0010
0001
0000
0010
0100
0000
1000
0000
,
0001
0000
0100
0001
0100
0000
0010
0000
1000
0000
0010
1000
0010
0000
0100
0000
,
0001
1000
0001
0000
0100
0001
0100
0000
0010
1000
0010
1000
0001
0100
0001
0100
,
0001
1000
0001
1000
,
0001
1000
0001
1000
,
0010
0100
0010
0100
,
0002
0000
0000
0000
1003
0000
0010
0100
0001
0000
1000
0000
0100
0001
0100
1000
,
0100
0000
0010
0001
1000
0000
0010
0000
1000
0000
0100
1000
0000
0100
1000
0000
,
0001
0000
0010
0001
0000
0010
0001
0000
1000
0000
0100
1000
0000
0100
1000
0000
,
0010
0000
0100
0010
0000
0100
0010
0000
1000
0000
0001
1000
0000
0001
1000
0000
,
0100
0000
0010
0100
0000
0000
0010
0100
1000
0000
0100
0010
0000
0001
0010
0000
,
0100
0000
0010
0001
1000
0000
0010
0000
0100
0001
0100
0010
1000
0000
0001
0000
,
1000
0000
0100
0010
0100
0000
0001
0000
0100
0000
0010
0001
0010
0000
0001
0000
,
1000
0000
0001
0100
0010
0000
1000
0000
0100
0010
0100
1000
0100
0000
0010
0000
,
0001
0000
1000
0010
0100
0000
0001
0000
0010
0001
1000
0000
0001
0000
0100
0000
,
0010
0000
1000
0010
0100
0000
1000
0000
0100
0000
0001
0100
0001
0000
0001
0000
,
0010
0000
0100
0010
0001
0000
1000
0000
0100
0001
0100
1000
0100
0000
0010
0000
,
0010
0000
0001
0010
0100
0000
1000
0000
0100
0010
0001
1000
0010
0000
0010
0000
,
0100
0000
0001
0100
0010
0000
1000
0000
0001
0010
0100
1000
0001
0100
0010
1000
,
0001
0000
0000
0000
;
