#TITLE:Such A Feeling;
#SUBTITLE:;
#ARTIST:U1;
#TITLETRANSLIT:;
#SUBTITLETRANSLIT:;
#ARTISTTRANSLIT:;
#GENRE:;
#CREDIT:;
#MUSIC:Such A Feeling.ogg;
#BANNER:Such A Feeling.png;
#BACKGROUND:Such A Feeling-bg.png;
#CDTITLE:./CDTITLES/Dance Dance Revolution HOTTEST PARTY.png;
#SAMPLESTART:9.120;
#SAMPLELENGTH:15.000;
#SELECTABLE:YES;
#OFFSET:0.000;
#BPMS:0.000=120.000;
#STOPS:;
#BGCHANGES:;
#FGCHANGES:;

//--------------- dance-single - about-blank ----------------
#NOTES:
     dance-single:
     about-blank:
     Beginner:
     1:
     0,0,0,0,0:
0000
0000
0000
0000
,
0000
0000
0000
0000
,
0000
0000
0000
0000
,
0000
0000
0000
0000
,
0000
0000
0000
0000
,
1000
0000
0000
0000
,
0001
0000
0000
0000
,
0010
0000
0000
0000
,
0000
0000
0000
0000
,
0001
0000
0000
0000
,
1000
0000
0000
0000
,
0010
0000
0000
0000
,
0000
0000
0000
0000
,
0100
0000
0000
0000
,
0100
0000
0000
0000
,
0010
0000
0000
0000
,
0010
0000
0000
0000
,
1000
0000
0000
0000
,
0001
0000
0000
0000
,
1000
0000
0000
0000
,
0001
0000
0000
0000
,
0100
0000
0000
0000
,
0000
0000
0000
0000
,
0100
0000
0000
0000
,
0000
0000
0000
0000
,
0010
0000
0000
0000
,
0000
0000
0000
0000
,
0010
0000
0000
0000
,
0000
0000
0000
0000
,
1000
0000
0000
0000
,
0100
0000
0000
0000
,
0001
0000
0000
0000
,
0000
0000
0000
0000
,
0001
0000
0000
0000
,
0010
0000
0000
0000
,
1000
0000
0000
0000
,
0000
0000
0000
0000
,
0001
0000
0000
0000
,
1000
0000
0000
0000
,
0100
0000
0000
0000
,
0000
0000
0000
0000
,
1000
0000
0000
0000
,
0001
0000
0000
0000
,
0100
0000
0000
0000
;

//--------------- dance-single - about-blank ----------------
#NOTES:
     dance-single:
     about-blank:
     Easy:
     2:
     0,0,0,0,0:
0000
0000
0000
0000
,
0000
0000
0000
0000
,
0000
0000
0000
0000
,
0000
0000
0000
0000
,
0000
0000
0000
0000
,
0001
0000
0001
0000
,
0010
0000
0010
0000
,
0200
0000
0000
0000
,
0300
0000
0000
0000
,
1000
0000
1000
0000
,
0100
0000
0100
0000
,
0020
0000
0000
0000
,
0030
0000
0000
0000
,
0001
0000
0100
0000
,
1000
0000
0000
0000
,
1000
0000
0100
0000
,
0001
0000
0000
0000
,
2000
0000
3000
0000
,
1000
1000
0000
0000
,
0002
0000
0000
0003
,
0001
0001
0000
0000
,
0010
0000
0100
0000
,
1000
0000
0010
0000
,
1001
0000
0001
0000
,
0100
0000
0010
0000
,
1000
0000
0001
0000
,
0010
0000
0100
0000
,
1001
0000
0001
0000
,
1000
0000
0010
0000
,
0100
0000
0100
0000
,
0010
0000
0010
0000
,
1000
0000
2000
0000
,
0000
0000
0000
3000
,
0001
0000
0001
0000
,
0010
0000
0010
0000
,
0100
0000
0200
0000
,
0000
0000
0300
0000
,
1000
0000
0001
0000
,
1000
0000
1000
0000
,
0001
0000
1000
0000
,
0001
0000
0001
0000
,
0100
0000
0010
0000
,
1000
0000
1000
0000
,
0001
0000
0020
0000
,
0000
0000
0000
0030
,
1001
0000
0000
0000
;

//--------------- dance-single - about-blank ----------------
#NOTES:
     dance-single:
     about-blank:
     Medium:
     8:
     0,0,0,0,0:
0000
0000
0000
0000
,
0000
0000
0000
0000
,
0000
0000
0000
0000
,
0000
0000
0000
0000
,
1000
0010
0100
0001
0010
0001
0100
0010
,
2000
0000
3001
1000
,
0100
0010
0001
1000
,
0002
0000
0103
0001
,
0010
0000
0010
0000
1000
0001
1000
0000
,
0200
0000
0310
0001
,
1000
0010
0100
0001
,
0020
0000
0100
0130
,
1000
0000
1000
0000
0001
0100
0001
0000
,
0010
0010
0001
0001
,
0100
0000
0000
0110
0000
0000
0000
0000
,
1000
1000
0100
0100
,
0010
0000
0000
1001
0000
0000
0001
0000
,
0100
1000
0100
0001
,
1000
0100
0001
0100
,
0010
0001
0100
0001
,
0010
0100
0100
1000
,
0001
0100
0010
0010
,
1000
0100
0010
0010
,
1001
0001
1000
1000
,
0010
1000
0001
0001
,
0110
1000
0100
0100
,
0010
0000
0001
0000
1000
1000
0001
0000
,
0011
0001
0100
0010
,
2000
0000
0002
3003
,
2000
0100
0010
3001
,
1000
0001
0100
0010
,
1000
0000
0001
0000
0010
0100
0010
0000
,
0001
0000
1000
0000
0010
0100
0010
0000
,
0002
0000
0010
0013
,
1000
0100
0010
0001
,
1000
0000
0001
0000
0010
0001
0010
0000
,
0001
0000
1000
0000
0010
1000
0010
0000
,
0101
1000
0001
1000
,
0100
0110
0011
1010
,
0100
0000
0001
0000
0010
0001
0010
0000
,
0100
0000
1000
0000
0010
1000
0010
0000
,
0200
1000
0010
0301
,
0011
1100
1010
0101
,
1000
0000
0001
0000
0100
0010
0100
0000
,
0001
0010
0100
0000
1000
0010
0100
0001
,
2002
0000
0000
0000
,
3003
0000
0000
0000
;

//--------------- dance-single - about-blank ----------------
#NOTES:
     dance-single:
     about-blank:
     Hard:
     11:
     0,0,0,0,0:
0000
0000
0000
0000
,
0000
0000
0000
0000
,
0000
0000
0000
0000
,
0000
0000
0000
0000
,
1000
0000
0001
0010
0001
0000
0010
0100
0010
0000
0100
1000
0001
0000
0100
0000
,
2000
0000
3100
0002
0000
0000
1003
0100
,
0010
0000
0000
0010
0001
0000
0000
0001
0100
0000
0000
0100
1000
0000
0000
1000
,
0020
0000
0000
1000
0000
0000
0031
0000
0000
0000
0000
0000
1001
0000
0000
0000
,
0001
0000
0000
0100
0001
0000
0000
1000
0000
0010
0100
0000
0001
0000
0001
0000
,
2000
0000
3010
0002
0000
0000
0013
0100
,
0001
0000
0000
0001
0010
0000
0000
0010
1000
0000
0000
1000
0100
0000
0000
0100
,
0002
0000
0000
1000
0000
0000
0103
0000
0000
0000
1000
0000
0001
0000
0000
0000
,
0010
0001
0000
0100
0001
0000
0000
1000
0001
0000
1000
0100
1000
0000
0001
0010
,
0001
0001
0100
1000
0100
0001
0100
1000
,
0100
0000
0000
0010
0000
0000
2000
0000
0000
0000
0000
0000
3001
0000
0000
0000
,
1000
0001
0100
0001
1000
0001
0100
0001
,
0010
0000
0000
0100
0000
0000
2000
0000
0000
0000
0000
0000
3001
0000
0000
0010
,
0100
1000
0010
0100
0001
0010
0001
1000
,
0001
0000
0100
0000
0001
0000
0000
1000
0000
0000
0001
0000
1000
0000
0010
0000
,
0200
0000
0000
0000
1000
0000
0000
0001
0000
0000
0301
0000
1000
0000
0000
0000
,
0200
0000
0000
0000
0001
0000
0000
1000
0000
0000
1000
0000
0310
0000
0001
0000
,
1000
0000
0000
1000
0100
0000
0000
0000
0001
0000
0000
0001
0100
0000
0000
0000
,
0010
0000
0000
0001
1000
0000
0000
0000
0010
0000
1000
0000
0010
0000
0100
0001
,
0000
0000
0000
0001
0010
0000
0000
0000
1000
0000
0000
0000
1010
0000
0000
0000
,
0100
0000
0000
0100
0010
0000
0000
0000
0001
0000
1000
0000
0001
0000
0100
0010
,
0100
0000
0000
0100
0001
0000
0000
0000
0010
0000
0000
0010
1000
0000
0000
0000
,
0100
0000
0000
0100
0001
0000
0000
0000
0010
0000
0010
0000
0001
0000
1000
0001
,
0000
0000
0000
0001
0010
0000
0000
0000
1000
0000
0000
1000
0010
0000
0000
0000
,
2002
0000
0000
0000
3003
0000
0000
0000
1000
0001
1000
0000
0100
0000
0010
0000
,
0002
0000
0013
2000
0000
3010
0001
1000
,
0001
0000
0000
0001
0010
0000
0000
0010
0100
0000
0000
0100
1000
0000
0000
1000
,
0020
0000
0000
0001
0000
0000
1030
0000
0000
0000
0100
0000
0010
0000
0000
0000
,
0001
0000
1000
0100
1000
0100
1000
0000
1000
0010
1000
0010
1000
0000
0001
0000
,
2000
0000
3010
0002
0000
0013
1000
0001
,
1000
0000
0000
1000
0010
0000
0000
0010
0100
0000
0000
0100
0001
0000
0000
0001
,
1000
0000
0000
0100
0000
0000
0020
0000
0000
0000
1000
0000
0031
0000
0000
0000
,
1000
0000
0001
0010
0001
0010
0001
0000
0010
0100
0010
0100
0010
0000
0100
0000
,
1000
0010
0100
0001
0010
0100
0010
0000
,
0001
1000
0001
0100
0001
0010
0001
1000
,
0001
0000
0000
0001
0010
0000
0200
0000
0001
0000
1000
0000
1300
0000
0000
0000
,
1000
0000
0010
0100
0010
0000
1000
0000
0001
0010
0001
0000
1000
0000
0001
0000
,
0010
0100
1000
0001
0100
0010
1000
0001
,
0100
1000
0100
0001
0010
1000
0010
0001
,
1000
0000
0000
1000
0001
0000
0020
0000
0100
0000
0001
0000
0031
0000
0000
0000
,
1000
0000
0001
0100
0001
0000
1000
0010
1000
0000
0001
1000
0001
1000
0001
0000
,
1001
0000
0000
0000
;
