#TITLE:Still Shine...;
#SUBTITLE:;
#ARTIST:kors k feat. Suzuyo Miyamoto;
#TITLETRANSLIT:;
#SUBTITLETRANSLIT:;
#ARTISTTRANSLIT:;
#GENRE:;
#CREDIT:;
#MUSIC:07. Still Shine....ogg;
#BANNER:;
#BACKGROUND:;
#CDTITLE:;
#SAMPLESTART:73.300;
#SAMPLELENGTH:11.824;
#SELECTABLE:YES;
#OFFSET:1.347;
#BPMS:0.000=170.000;
#STOPS:;
#BGCHANGES:;
#FGCHANGES:;

//--------------- dance-single - aboutblank ----------------
#NOTES:
     dance-single:
     aboutblank:
     Beginner:
     3:
     0,0,0,0,0:
0000
0000
0000
0000
,
0000
0000
0000
0000
,
0000
0000
0000
0000
,
0000
0000
0000
0000
,
0000
0000
0000
0000
,
1000
0000
0000
0000
,
1000
0000
0000
0000
,
0010
0000
0000
0000
,
0100
0000
0000
0000
,
0001
0000
0000
0000
,
0001
0000
0000
0000
,
0100
0000
0000
0000
,
0010
0000
0010
0000
,
1000
0000
0000
0000
,
0001
0000
0000
0000
,
0100
0000
0000
0000
,
0100
0000
0000
0000
,
0010
0000
0000
0000
,
0010
0000
0000
0000
,
1000
0000
0000
0000
,
0100
0000
0000
0000
,
0010
0000
0010
0000
,
0001
0000
0000
0000
,
0100
0000
0100
0000
,
1000
0000
0000
0000
,
0010
0000
0010
0000
,
0001
0000
0000
0000
,
0100
0000
0100
0000
,
1000
0000
0000
0000
,
1000
0000
0000
0000
,
1000
0000
0000
0000
,
0001
0000
0000
0000
,
0001
0000
0000
0000
,
0100
0000
0000
0000
,
0100
0000
0000
0000
,
0010
0000
0000
0000
,
0010
0000
0000
0000
,
1000
0000
0100
0000
,
0010
0000
0000
0000
,
0001
0000
0100
0000
,
0010
0000
0000
0000
,
1000
0000
1000
0000
,
0100
0000
0100
0000
,
0001
0000
0000
0000
,
0010
0000
0000
0000
,
1000
0000
1000
0000
,
1000
0000
0000
0000
,
0001
0000
0001
0000
,
1000
0000
0000
0000
,
0010
0000
0010
0000
,
0100
0000
0100
0000
,
0001
1000
0001
0000
,
1001
0000
0000
0000
,
1000
0000
1000
0000
,
0100
0000
0100
0000
,
0010
0000
0000
0000
,
0001
0000
0000
0000
,
0100
0000
0100
0000
,
0010
0000
0010
0000
,
1000
0000
0000
0000
,
1001
0000
0000
0000
,
0001
0000
0001
0000
,
0010
0000
0010
0000
,
0100
0000
0000
0000
,
1000
0000
0000
0000
,
0010
0000
0010
0000
,
1000
0000
1000
0000
,
0001
0000
0000
0000
,
0100
0000
0000
0000
,
0001
0000
0001
0000
,
0010
0000
0010
0000
,
0100
0000
0000
0000
,
1001
0000
0000
0000
,
1000
0000
1000
0000
,
0100
0000
0100
0000
,
0001
0000
0001
0000
,
0010
0000
0010
0000
,
1000
0000
1000
0000
,
0100
0000
0100
0000
,
0001
0000
0001
0000
,
0010
0000
0010
0000
,
1001
0000
0000
0000
;

//--------------- dance-single - aboutblank ----------------
#NOTES:
     dance-single:
     aboutblank:
     Easy:
     6:
     0,0,0,0,0:
0000
0000
0000
0000
,
0000
0000
0000
0000
,
0000
0000
0000
0000
,
0000
0000
0000
0000
,
0000
0000
0000
0000
,
1000
0000
1000
0000
,
0001
0000
0001
0000
,
1000
0000
0101
0000
,
1100
0000
0001
1000
,
0100
0000
0100
0000
,
0010
0000
0010
0000
,
0001
0100
0010
0000
,
0110
0000
1010
0000
,
0001
0000
0001
0000
,
0010
0000
0010
0100
,
1000
0001
1000
0000
,
0100
0010
0100
0000
,
1000
0000
0010
0000
,
0100
0000
0001
0000
,
0020
0000
0030
0000
,
0110
0000
0001
1000
,
0001
0000
0100
0000
,
0001
0100
0001
0000
,
1000
0010
1000
0000
,
0001
0010
0001
0000
,
1000
0000
0100
0000
,
0010
0001
1000
0000
,
0010
1000
0001
0000
,
1001
0000
0110
0000
,
2000
0000
0000
3000
,
1000
0000
0000
0000
,
0002
0000
0000
0003
,
0001
0000
0000
0000
,
0200
0000
0000
0300
,
0020
0000
0000
0030
,
1000
0001
0010
0000
,
0110
0000
1001
0000
,
2000
0000
3020
0000
,
0130
0000
0000
0001
0000
0000
1000
0000
,
0002
0000
0000
0000
0023
0000
0000
0030
,
0100
0000
0000
1000
0000
0000
0001
0000
,
2000
0000
3200
0000
,
0320
0000
0032
0000
,
0103
0010
1000
0000
,
2002
0000
0000
3003
,
1000
0100
0010
0001
,
1000
0100
0010
0000
,
0001
0100
0010
0000
,
0110
0000
1001
0000
,
1000
0001
0100
0000
,
0001
1000
0100
0000
,
0010
0000
0100
0000
0010
0000
0000
1001
,
0000
0000
0000
0000
,
1000
0001
0100
0001
,
1000
0001
0100
0001
,
1000
0000
0100
0010
,
0001
0000
0001
0010
,
0100
0010
0001
0000
,
1000
0010
0100
0000
,
0001
1000
0100
0100
,
0010
0000
0001
0000
,
1000
0010
0100
0000
,
0001
0100
0010
0000
,
1000
0100
0010
0001
,
1000
0001
0100
0000
,
0001
0000
1000
0000
,
0100
0000
0010
0000
,
0110
0000
0000
0000
,
1001
0000
0000
0000
,
1000
0001
1000
0000
,
0001
1000
0001
0000
,
0110
0000
0000
0000
,
1001
0000
0000
0000
,
1000
0000
0100
0000
,
0010
0100
1000
0000
,
0001
0000
0100
0000
,
0010
0100
0001
0000
,
1000
0010
0100
0000
,
0010
0100
0001
0000
,
1000
0001
0100
0010
,
1000
0001
1000
0000
,
1001
0000
0000
0000
;

//--------------- dance-single - aboutblank ----------------
#NOTES:
     dance-single:
     aboutblank:
     Medium:
     10:
     0,0,0,0,0:
0000
0000
0000
0000
,
0000
0000
0000
0000
,
0000
0000
0000
0000
,
0000
1000
0000
1000
,
0010
0000
0100
0000
0001
1000
0001
0000
,
1000
0100
0001
0100
,
1000
0010
0001
0010
,
1000
0000
0010
0100
0000
0001
0000
0010
,
0000
0010
0000
0100
0010
0000
0001
0000
,
1000
0010
0001
1000
,
0100
0001
0010
0100
,
0110
0000
1001
0000
1000
0001
1000
0001
,
0200
0010
0020
0330
,
0001
0100
1000
0100
,
0001
0010
1000
0010
,
0001
0000
1000
0010
0000
0100
0000
0001
,
0000
0001
0000
1000
0010
0000
0100
0000
,
0001
0010
0100
0010
,
0001
0100
0010
0100
,
1002
0100
0103
0010
,
2001
0100
3100
0010
,
0001
0100
1000
0100
,
0010
1000
0100
1000
,
0001
1000
0100
0010
,
0001
0000
0100
0000
0010
0100
0010
0000
,
1000
0010
0100
0001
,
1000
0001
0100
0010
,
1000
0010
0100
1000
,
0100
0000
0010
0000
1000
0001
1000
0000
,
0201
0000
0010
0000
,
0010
0000
0310
0000
,
1200
0000
0010
0000
,
0010
0000
0310
0000
,
0021
0000
0130
0000
,
1020
0000
0130
0000
,
1002
0000
0000
0000
0103
0000
0000
0001
,
1000
0000
0000
0100
2000
0000
3001
0000
,
1000
1000
0100
0100
,
0010
0000
0010
0000
0001
1000
0001
0000
,
0100
0100
0010
0010
,
1000
0010
1000
0000
0001
0100
0001
0000
,
1000
1000
0100
0100
,
0001
0001
0010
0010
,
1000
0010
0001
0100
,
2000
0000
0000
0001
0002
0000
3003
0000
,
1000
0100
0010
0000
0100
0010
0001
0000
,
1000
0001
0100
0100
,
0001
0100
0010
0000
0100
0010
0000
1001
,
0000
1010
0000
0101
0000
0001
1000
0000
,
0100
0000
0010
0000
0001
1000
0001
0000
,
0100
0000
0010
0000
1000
0001
1000
0000
,
0100
0010
0100
0010
0100
0010
0100
0010
,
0000
0110
0000
0110
0000
0000
0001
0000
,
1000
0000
0010
0000
0001
0000
0010
0100
,
0010
0000
1000
0000
0100
0000
0010
0100
,
0010
0001
1000
0001
,
0010
0000
0010
0000
0100
1000
0100
0000
,
1000
0000
0010
0000
0100
0000
0001
0100
,
0001
0000
1000
0000
0100
0000
0010
0001
,
1000
0010
1000
0010
0100
0001
0100
0001
,
2000
0000
3002
0000
,
0103
0000
0010
0000
1000
0000
0010
1000
,
0010
0000
0100
0000
0001
0000
1000
0001
,
1000
0100
0001
1000
,
0010
0000
0001
0000
0100
0010
0100
0000
,
0001
0010
0100
1000
,
0001
0100
0010
1000
,
0002
0000
0103
0000
0001
1000
0000
2002
,
0000
0000
3003
0000
0001
1000
0001
1000
,
0001
0100
0010
1000
,
0001
0010
0100
0010
,
0002
0000
1003
0000
0010
1000
0010
1000
,
0020
0000
0130
0000
0001
0010
0001
0010
,
0001
1000
0010
0001
,
1000
0000
0100
0000
0010
0000
0100
0010
,
0100
0001
0010
0100
,
0010
0000
0001
0000
1000
0010
1000
0000
,
0001
1000
0100
0010
,
0001
0000
0100
0000
0001
0010
0001
0000
,
1000
0000
0010
0000
0100
0010
0100
0000
,
0001
0000
1000
0000
0100
0010
0100
0010
,
0100
0000
0000
0000
;

//--------------- dance-single - aboutblank ----------------
#NOTES:
     dance-single:
     aboutblank:
     Hard:
     13:
     0,0,0,0,0:
0000
0000
0000
0000
,
0000
0000
0000
0000
,
0000
0000
0000
0000
,
0000
0000
2000
3000
0000
0000
2000
3000
,
0001
0000
0000
0000
2000
0000
3100
0000
0010
0001
0010
0001
1000
0000
0001
0000
,
0200
0000
1300
0001
0020
0000
1030
0100
,
0002
0000
1003
0010
0100
1000
0100
0010
,
0001
0000
0100
0101
0000
1010
0000
0002
,
0000
0000
1003
0000
0010
0000
0100
0000
0000
0001
1000
0000
0100
0000
0100
0000
,
0020
0000
0031
0100
0000
1100
0000
0101
,
0000
0001
1000
0000
0100
0010
0100
0000
,
0010
0000
0001
0000
1000
0000
0001
0000
0100
0001
0100
0000
0010
1000
0010
0000
,
0200
0000
0301
0010
0200
0000
1300
0010
,
0002
0000
1003
0100
0002
0000
0013
0001
,
0200
0000
0310
1000
0100
0100
0010
0001
,
1000
0000
0001
0011
0000
1100
0000
2000
,
0000
0000
3001
0000
1000
0000
0100
0000
0000
0010
0100
0000
0010
0000
0001
0000
,
1000
0001
0100
0001
1000
0001
0010
0001
,
1000
0010
0100
0010
1000
0010
0100
0001
,
2000
0000
0000
0000
3100
1000
0100
0100
,
0020
0000
0000
0000
0031
0000
0000
0000
1000
0100
1000
0000
0001
0010
0001
0000
,
1000
0100
0010
0000
0100
1000
0001
0000
,
0010
0001
0100
0000
1000
0100
0001
0000
,
1000
0100
0010
0000
0001
1000
0010
0000
,
0100
0000
0001
0000
1000
0000
0000
0000
0100
0010
0100
0000
0010
0000
0001
0000
,
1000
0001
0100
0000
0010
1000
0010
0000
,
0100
0001
1000
0000
1000
0100
0010
0000
,
0001
0100
1000
0000
0001
0010
1000
0000
,
0100
0000
0010
0000
0001
0000
1000
0000
0010
0100
0010
0000
1000
0010
1000
0000
,
0200
0000
0000
0310
0002
0000
0000
1003
,
0020
0000
0100
0130
0000
0000
0110
0000
,
0002
0000
0000
1003
0200
0000
0000
0310
,
0002
0000
1000
1003
0000
0000
1001
0000
,
2000
0000
0100
3001
0000
0000
0110
0000
,
0002
0000
0010
1003
0000
0000
0110
0000
,
0002
0000
1003
0200
0000
0320
0000
0031
,
0200
0000
0000
0310
2000
0000
3001
0000
,
2000
0000
0000
3100
0002
0000
0000
0103
,
2000
0000
3010
0100
0000
0000
0110
0000
,
0002
0000
0000
0013
2000
0000
0000
3010
,
0002
0000
0000
0103
0010
0000
0110
0000
,
2000
0000
0000
3100
0002
0000
0000
0013
,
2000
0000
0000
0000
3002
0000
0103
0010
,
1000
0100
1000
0100
0010
0000
0001
1000
,
0020
0000
0000
0100
0000
0000
0130
0001
0100
0000
0010
0000
1000
0000
0001
0000
,
0010
0100
0010
0001
0100
0010
0100
0001
,
0000
0101
0000
1100
0000
0000
0001
1000
,
0100
0010
0001
0100
0010
1000
0010
0200
,
0000
0301
1000
0020
0000
0130
0001
0000
,
1000
0001
1000
0100
1000
0001
1000
0100
,
0010
0001
1000
0001
0010
0001
1000
0001
,
0200
0000
0000
0000
0010
0000
0000
0000
0310
1000
0001
0000
0100
0000
0110
0000
,
0000
1001
0000
0110
0000
0001
1000
0100
,
0010
0010
0001
1000
0010
0010
0100
0001
,
0010
0010
0100
1000
0010
0001
0010
1000
,
0200
0000
0310
0001
0000
0101
0000
1100
,
0000
0000
0001
0000
1000
0000
0100
0000
0010
0001
0010
0000
0100
0010
0100
0000
,
1000
1000
0100
1000
0010
1000
0001
1000
,
0100
0010
0001
0100
0010
0100
0001
1000
,
0020
0000
0000
0000
0130
0000
0001
0000
1000
0100
1000
0100
0010
0001
0010
0001
,
2000
0000
3001
0010
2000
0000
3010
0100
,
1000
1000
0001
0010
1000
1000
0001
0100
,
1000
1000
0100
0010
1000
0010
0001
0100
,
0010
0000
1000
0001
0000
0011
0000
1100
,
0000
0000
0001
0000
1000
0000
0100
0000
0010
0100
0010
0000
0001
1000
0001
0000
,
0010
0001
1000
0001
0100
0001
1000
0001
,
0100
0010
1000
0001
0010
0100
1000
0001
,
0020
0000
0130
0000
1000
0001
1000
0100
,
2000
0000
0000
0000
3001
0000
0000
0000
1000
0010
1000
0010
0100
0001
0100
0001
,
2000
0000
3001
0100
0010
0100
1000
0100
,
0001
0010
0100
0010
1000
0010
0100
0010
,
0002
0000
1003
0000
0001
0100
0010
1000
,
0002
0000
0000
0000
0013
0000
0000
0000
0001
1000
0001
1000
0010
0100
0010
0100
,
0001
1000
0100
0000
0001
0100
1000
0000
,
0010
0100
1000
0000
0100
0001
0010
0000
,
0100
0010
0001
0000
1000
0010
0001
0000
,
0010
0000
1000
0000
0001
0000
0100
0000
0001
0010
0001
0000
1000
0100
1000
0000
,
0010
0100
1000
0000
0100
0001
0010
0000
,
0100
0010
0001
0000
1000
0010
0100
0000
,
0001
1000
0100
0000
0001
0100
1000
0000
,
0010
0000
0100
0000
0001
0000
1000
0000
0100
0010
0100
0010
0100
0010
0100
0010
,
0100
0000
0000
0000
;
