#TITLE:Step 2 da riddim;
#SUBTITLE:;
#ARTIST:Studio Bongo Mango feat. NO+CHIN & MAYUKI;
#TITLETRANSLIT:;
#SUBTITLETRANSLIT:;
#ARTISTTRANSLIT:;
#GENRE:;
#CREDIT:;
#MUSIC:Step 2 da riddim.mp3;
#BANNER:;
#BACKGROUND:;
#CDTITLE:;
#SAMPLESTART:52.814;
#SAMPLELENGTH:10.549;
#SELECTABLE:YES;
#OFFSET:-0.067;
#BPMS:0.000=91.000;
#STOPS:;
#BGCHANGES:;
#FGCHANGES:;

//--------------- dance-single - eataninja ----------------
#NOTES:
     dance-single:
     eataninja:
     Beginner:
     2:
     0,0,0,0,0:
0000
0000
0000
0000
,
0000
0000
0000
0000
,
0000
0000
0000
0000
,
0000
0000
0000
0000
,
1000
1000
1000
0000
,
0001
0001
0100
0000
,
0001
0001
0001
0000
,
1000
1000
0100
0000
,
0000
1000
0000
0010
,
0000
1000
0000
1000
,
0000
0001
0000
0010
,
0000
0001
1001
0000
,
0001
0001
0001
0000
,
1000
1000
0100
0000
,
1000
1000
1000
0000
,
0001
0001
0100
0000
,
0000
0010
0000
0100
,
0000
0001
0000
0001
,
0000
0010
0000
0100
,
0000
1000
0000
1000
,
0010
0000
0010
0000
,
0100
0010
0100
0000
,
0001
0000
1001
0000
,
1000
1000
0100
0000
,
0010
0000
0010
0000
,
0100
0010
0100
0000
,
1000
0000
1001
0000
,
0001
0001
0100
0000
,
0000
0010
0010
0000
,
0000
0100
0100
0000
,
0000
0001
0001
0000
,
0000
1000
1000
0000
,
0001
0000
0001
0000
,
1000
0100
1000
0000
,
0010
0000
0110
0000
,
0001
1000
0001
0000
,
1000
0000
1000
0000
,
0001
0100
0001
0000
,
0010
0000
0110
0000
,
1000
0001
1000
0001
;

//--------------- dance-single - eataninja ----------------
#NOTES:
     dance-single:
     eataninja:
     Easy:
     5:
     0,0,0,0,0:
0000
0000
0000
0000
,
0000
0000
0000
0000
,
0000
0000
0000
0000
,
0000
0000
0000
0000
,
1000
0010
0100
0100
,
0001
0000
1000
0000
0001
0001
0001
0000
,
1000
0100
0010
0010
,
0001
1000
0010
0101
,
1000
0001
1000
0000
0100
0000
0110
0000
,
0001
1000
0001
0000
0100
0010
0100
0000
,
0001
0000
1001
0000
0010
0010
0010
0000
,
0100
0000
1000
0000
0001
0100
0001
0000
,
1000
0010
0001
1000
,
0001
0000
0010
0000
1000
1000
1000
0000
,
0001
0010
1000
0001
,
1000
0010
0001
1100
,
0001
0000
1000
0010
0100
0000
0100
0000
,
0001
0000
1000
0100
0010
0000
0010
0000
,
0001
0000
1000
0010
1000
0000
0001
0000
,
1000
0000
1000
0000
0001
0010
0100
0000
,
1100
1100
1001
1001
,
0010
0100
0001
0000
,
0010
0010
0010
0000
0100
1000
0001
0000
,
0100
0010
1001
0000
,
1010
1010
1001
1001
,
0010
0100
1000
0000
,
0010
0010
0010
0000
0100
0001
1000
0000
,
0100
0010
0001
1001
,
0110
0000
0000
0000
1000
0010
0100
0000
,
0001
0000
1000
0100
,
0110
0000
0000
0000
0001
0010
0100
0000
,
1000
0000
0000
0000
0001
0001
0001
0000
,
0101
1100
0101
1100
,
0010
1000
0100
0000
1001
0000
0000
0000
,
1000
0100
1000
0000
0001
0100
0001
0000
,
0010
0100
1001
0000
,
1100
0101
1100
0101
,
0010
0001
0100
0000
1001
0000
0000
0000
,
0010
0100
0010
0000
1000
1000
0001
0000
,
0010
1000
0100
0101
;

//--------------- dance-single - eataninja ----------------
#NOTES:
     dance-single:
     eataninja:
     Medium:
     9:
     0,0,0,0,0:
0000
0000
0000
0000
,
0000
0000
0000
0000
,
1000
0000
0000
0100
0000
0000
0001
0000
1000
0000
0000
0010
0000
0000
0000
0000
,
0100
0000
0000
1000
0000
0000
0010
0000
0100
0000
0000
0000
0101
0000
0000
0000
,
1000
0001
1000
1000
0100
0010
0001
0000
,
1000
0010
1000
0001
0100
0100
1000
0000
,
1000
0100
0001
1000
0100
0100
0010
0000
,
0100
0010
0100
1000
0001
0000
0101
0000
,
0010
0100
1000
1000
0010
0001
0010
1000
,
0100
0010
0001
0001
1000
0010
0001
0001
,
0010
0100
0001
0001
1000
0100
0010
0001
,
1000
0010
1000
0001
0010
0010
0100
0100
,
1000
0000
0000
0100
0000
0000
0001
0000
1000
0000
0000
0010
0000
0000
0000
0000
,
0001
0000
0000
0100
0000
0000
1000
0000
0100
0000
0100
0000
0001
0000
0000
0000
,
0001
0000
0000
0100
0000
0000
1000
0000
0001
0000
0000
0010
0000
0000
0000
0000
,
1000
0000
0000
0100
0000
0000
0001
0000
0101
0000
0000
0000
1100
0000
0000
0000
,
0001
0001
1000
0010
0001
0010
1000
0001
,
0100
0100
0010
1000
0100
0010
0001
1000
,
0100
0100
0010
0001
0100
1000
0100
0001
,
1000
1000
0010
0100
0001
0010
0100
0000
,
1000
0100
1000
0100
0000
0000
0001
0100
0001
0100
0000
0000
,
1000
0001
1000
0001
0100
0010
0100
0000
0000
0000
0000
0000
,
0001
0100
1000
0100
0001
0010
0100
0001
,
0100
0100
1000
1000
0001
0000
0000
0000
,
1000
0010
1000
0010
0000
0000
0001
0010
0001
0010
0000
0000
,
1000
0001
1000
0001
0010
0100
1000
0000
0000
0000
0000
0000
,
0001
0001
0100
1000
0100
0010
0001
0010
,
1000
1000
0001
0010
0100
0000
1100
0000
,
0101
0000
0000
0000
0000
0000
1000
1000
1000
1000
0000
0000
,
0010
0100
0001
0000
0010
0100
1000
0000
,
1100
0000
0000
0000
0000
0000
0001
0001
0001
0001
0000
0000
,
1000
0010
0001
0010
0100
0100
0100
0000
,
0001
0100
1000
0100
0001
0000
1000
0100
0001
0100
1000
0000
,
0001
0100
0001
1000
0100
0010
0001
0000
0000
0000
0000
0000
,
1000
0010
0100
0100
1000
0100
0001
0010
,
0100
0100
0001
0100
1000
0000
0000
0000
,
1000
0010
0001
0010
1000
0000
0001
0010
1000
0010
0001
0000
,
1000
0010
1000
0001
0010
0100
1000
0000
0000
0000
0000
0000
,
0001
0100
1000
0001
1000
1000
0100
0001
,
1000
0000
1000
0000
0100
0000
0010
0000
0001
0000
0100
0000
0010
0000
0000
1000
0000
0000
1001
0000
0000
0000
0000
0000
;

//--------------- dance-single - eataninja ----------------
#NOTES:
     dance-single:
     eataninja:
     Hard:
     14:
     0,0,0,0,0:
0000
0000
0000
0000
,
0000
0000
0000
0000
,
0101
0000
0000
0110
0000
0000
1010
0000
1001
0000
0000
0110
0000
0000
0000
0000
,
1100
0000
0000
0000
0000
0000
0110
0000
0000
0000
0000
0000
0011
0000
0000
0000
1000
0000
0010
0100
0010
0000
0100
0000
0001
0000
0000
0000
1000
0100
1000
0100
,
1000
0000
0000
0001
1000
0010
1000
0000
0001
0010
0000
0010
0100
0000
0001
0000
,
0100
0000
0000
0000
0000
0000
0000
0000
0000
0100
0000
0000
0010
0000
0000
0001
0000
0000
1000
0000
0000
0000
0000
0000
0001
0000
0000
0000
1000
0000
0000
0000
1000
0000
0000
0000
0100
0000
0000
0000
0000
0000
0000
0000
0000
0000
0000
0000
,
1000
0000
0000
1000
0001
0100
0001
0000
1000
0100
0000
0100
0010
0000
1000
0000
,
0010
0000
0000
0000
0000
0000
0010
0000
0100
0000
1000
0000
0001
0000
0000
0000
1000
0000
0100
0010
0100
0000
0010
0000
0001
0000
0000
0000
1000
0010
1000
0010
,
1000
0000
0000
0000
0001
0000
0100
0000
0010
0000
0000
0000
1000
0000
0000
0000
0001
0000
0010
0000
0100
0000
1000
0000
0001
0000
0000
0000
1000
0010
1000
0010
,
1000
0000
0000
0000
0001
0000
1000
0000
0001
0000
0100
0000
1000
0000
0000
0000
0100
0000
0100
0000
0010
0000
0000
0000
0100
0000
0000
0000
0001
1000
0001
1000
,
0001
0000
0000
0000
0010
0000
0001
0000
0100
0000
0000
0000
0010
0000
0000
0000
1000
0000
0100
0000
0001
0000
0100
0000
0010
0000
0000
0000
0001
0010
0001
0010
,
0001
0000
0100
1000
0100
0001
1000
0000
0001
0001
1000
1000
0100
0000
0000
0000
,
0110
0000
0000
1100
0000
0000
1010
0000
0110
0000
0000
0101
0000
0000
0000
0000
,
0110
0000
0000
0000
0000
0000
0000
0000
0000
1001
0000
0000
0000
0000
0000
0000
0000
0000
0011
0000
0000
0000
0000
0000
0100
0000
0000
0000
0001
0000
0000
0000
0001
0000
0000
0000
1000
0000
0000
0000
0000
0000
0000
0000
0000
0000
0000
0000
,
1010
0000
0000
0110
0000
0000
0101
0000
0011
0000
0000
0110
0000
0000
0000
0000
,
1100
0000
0000
0000
0000
0000
1001
0000
0000
0000
0000
0000
0101
0000
0000
0000
0010
0100
0010
0000
0100
0000
0001
0000
1000
0000
0000
0000
0001
0100
0001
0100
,
0001
0000
0010
0000
0100
0000
0100
0000
1000
0000
0010
0000
0100
0000
0001
0000
0010
0000
0100
0000
0000
0000
0100
0000
1000
0000
0000
0000
0001
1000
0001
1000
,
0001
0000
0010
0000
0010
0000
0001
0000
0100
0000
0000
0000
0001
0000
0010
0000
1000
0000
0010
0000
0100
0000
1000
0000
0001
0000
0000
0000
1000
0010
1000
0010
,
1000
0000
0000
0000
0010
0000
0100
0000
0010
0000
0000
0000
0001
0000
0000
0000
0010
0000
1000
0000
0000
0000
0100
0000
0010
0000
0000
0000
0001
0010
0001
0010
,
0001
0010
1000
0000
1000
0010
0001
0000
1000
1000
0000
0001
0100
0000
0000
0000
,
0001
0100
0001
0100
1000
0000
1000
0100
1000
0100
0001
0000
,
1000
0100
0010
0001
0100
0010
0100
0100
0100
1001
0000
0000
,
0001
0000
0000
0000
0100
0000
0000
0000
0010
0000
0000
0000
1000
0000
0000
0000
0000
0000
1000
0000
0000
1000
0000
0000
0001
0000
0000
0000
0010
0000
0000
0000
0100
0000
0000
0000
0000
0000
0000
0101
0000
0000
0000
0000
0000
0100
0000
0000
,
1000
0000
0000
0000
0001
0000
0000
0000
1000
0000
0000
0000
0010
0000
0000
0000
0100
0000
0000
0000
0001
0000
0000
0000
0010
0000
0000
0100
0000
0000
0000
0000
0000
0100
0000
0000
1000
0000
0000
0000
0000
0000
0000
0000
0000
0000
0000
0000
,
1100
1001
1010
0001
0100
0000
0001
0010
1000
0010
0001
0000
,
1000
0100
1000
0010
0100
0001
1000
0010
0010
1001
0000
0000
,
0001
0000
0010
0100
1000
0000
0010
0100
0001
0001
0000
0100
0000
1100
0000
0100
,
0001
0000
0000
0000
1000
0000
0000
0000
0001
0000
0000
0000
0010
0000
0000
0000
0100
0000
0000
0000
1000
0000
0000
0000
0001
0000
0000
0000
0000
0000
0000
0000
0000
0100
0000
0000
0110
0000
0000
0000
0000
0000
1001
0000
0000
0000
0000
0000
,
1000
0000
0000
0100
0000
0000
0010
0000
0000
0001
0000
0000
1000
0000
0000
0010
0000
0000
1000
0000
0000
0010
0000
0000
0100
0000
0000
0000
0100
0000
0000
0000
0100
0000
0000
0000
0100
0000
0000
0000
0000
0000
0000
0000
0000
0000
0000
0000
,
0001
0000
1000
0100
1000
0000
0010
0000
0100
0000
0000
0000
0010
0000
0000
0000
1000
0000
0001
0100
0001
0000
0010
0000
0100
0000
0000
0000
0000
0000
0000
0000
,
1100
0000
1001
0000
1100
0000
1001
0000
0000
0010
0000
0000
0101
0000
0101
0000
0101
0000
0101
0000
0000
0000
0000
0000
,
1000
0000
0001
0100
0001
0000
1000
0000
0010
0000
0000
0000
0100
0000
0000
0000
0001
1000
0001
1000
0001
0000
0100
0000
0100
0000
0000
0000
0000
0000
0000
0000
,
0001
1000
0001
0100
0010
0100
0001
1000
0001
0010
0100
0010
,
0001
0100
1000
0100
0001
0010
0100
0000
0000
0000
0000
0000
,
1100
0000
0000
0000
0000
0000
0000
0000
1001
0000
0000
0000
0000
0000
0000
0000
0100
0000
0000
0000
0000
0000
0000
0000
0001
0000
0000
0000
0000
0000
0000
0000
0000
0000
0000
0000
1000
0000
0000
0000
0000
0000
0100
0000
0000
0000
0000
0000
0010
0000
0000
0000
0000
0000
0001
0000
0000
1000
0000
0000
0001
0000
0000
0000
0000
0000
0100
0000
0000
0000
0000
0000
0000
0000
0000
0000
0000
0000
0110
0000
0000
0000
0000
0000
0000
0000
0000
0000
0000
0000
1000
0000
0000
0000
0000
0000
,
0001
0000
0000
0000
0000
0000
0000
0000
0100
0000
0000
0000
0000
0000
0000
0000
1000
0000
0000
0000
0000
0000
0000
0000
0100
0000
0000
0000
0000
0000
0000
0000
0001
0000
0000
0000
0000
0000
0000
0000
0010
0000
0000
0000
0000
0000
0000
0000
0100
0000
0000
0000
0000
0000
1000
0000
0000
0000
0000
0000
0000
0000
0000
0000
0000
0000
1000
0000
0000
0000
0000
0000
0010
0000
0000
0000
0000
0000
0000
0000
0000
0000
0000
0000
1000
0000
0000
0010
0000
0000
1000
0000
0000
0010
0000
0000
,
1000
0001
0001
0100
1000
0100
0001
1000
1000
0100
0001
0100
,
1000
0010
0010
0100
0001
0010
0100
0000
0000
0000
0000
0000
,
1000
0000
0001
0100
1000
0000
0100
0001
1000
1000
0000
1100
0000
0011
0000
1000
,
0001
0000
0000
0000
0100
0000
0000
0000
0100
0000
0000
0000
1000
0000
0000
0000
0100
0000
0000
0000
0001
0000
0000
0000
1000
0000
0000
0001
0000
0000
0000
0000
0000
1100
0000
0000
1100
0000
0000
0000
0000
0000
0000
0000
0000
0000
0000
0000
;
