#TITLE:Spin Around;
#SUBTITLE:;
#ARTIST:nc ft. Yasushi Asada;
#TITLETRANSLIT:;
#SUBTITLETRANSLIT:;
#ARTISTTRANSLIT:;
#GENRE:;
#CREDIT:;
#MUSIC:Spin Around.mp3;
#BANNER:;
#BACKGROUND:;
#CDTITLE:;
#SAMPLESTART:51.858;
#SAMPLELENGTH:10.105;
#SELECTABLE:YES;
#OFFSET:-0.069;
#BPMS:0.000=190.000;
#STOPS:;
#BGCHANGES:;
#FGCHANGES:;

//--------------- dance-single - MEGAtive ----------------
#NOTES:
     dance-single:
     MEGAtive:
     Beginner:
     3:
     0,0,0,0,0:
0000
0000
0000
0000
,
0000
0000
0000
0000
,
0000
0000
0000
0000
,
0000
0000
0000
0000
,
0000
0000
0000
0000
,
1000
0000
0000
0000
,
0010
0000
0000
0000
,
0100
0000
0000
0000
,
0002
0000
0000
0000
,
0013
0000
0000
0000
,
0100
0000
0000
0000
,
0010
0000
0000
0000
,
0002
0000
0000
0003
,
0100
0000
0000
0000
,
0010
0000
0000
0000
,
2000
0000
0000
0000
,
3000
1001
0000
0001
,
1000
0000
0000
0000
0000
0000
0000
1001
,
0000
0000
0000
0000
,
0110
0000
0000
0000
0000
0000
0000
0110
,
0000
0000
0000
0000
,
1001
0000
0000
0000
0000
0000
0000
1001
,
0000
0000
0000
0000
,
0110
0000
0000
0000
0000
0000
0000
0110
,
0000
0000
2000
0000
,
3001
0000
0000
0000
0000
0000
0000
0100
,
0000
0000
0010
0000
,
1000
0000
0000
0000
0000
0000
0000
0100
,
0000
0000
0010
0000
,
0001
0000
0000
0000
0000
0000
0000
0100
,
0000
0000
0010
0000
,
2000
0000
0000
0000
,
3001
0000
0000
0000
,
1000
0000
0100
0000
,
1000
0000
0000
0000
,
0001
0000
0100
0000
,
0001
0000
0000
0000
,
1000
0000
0010
0000
,
1000
0000
0000
0000
,
0001
0000
0010
0000
,
0002
0000
0000
0000
,
0103
0010
0100
0000
,
0001
0000
1000
0000
,
0100
0010
0100
0000
,
2000
0000
0000
0000
,
3001
1000
0001
0000
,
0100
0000
0010
0000
,
1000
0001
1000
0000
,
0002
0000
0000
0000
,
0013
0100
0010
0000
,
0001
0000
1000
0000
,
0010
0100
0010
0000
,
2000
0000
0000
0000
,
3001
1000
0001
0000
,
0010
0000
0100
0000
,
2000
0000
0000
0000
,
3020
0000
0030
0000
,
0010
0000
0100
0000
,
0010
0000
0000
0000
,
1000
0000
0001
0000
,
1000
0000
0000
0000
,
0001
0000
0010
0000
,
0100
0000
1000
0000
,
0001
0000
0100
0000
,
0020
0000
0230
0000
,
0301
0000
1000
0000
,
0100
0000
0000
0000
,
0010
0000
0001
0000
,
1000
0000
0000
0000
,
0010
0000
0100
0000
,
0001
0000
0000
0000
,
2000
0000
0000
0000
,
3000
1001
0000
2002
,
3003
0000
0000
0000
;

//--------------- dance-single - MEGAtive ----------------
#NOTES:
     dance-single:
     MEGAtive:
     Easy:
     7:
     0,0,0,0,0:
0000
0000
0000
0000
,
0000
0000
0000
0000
,
0000
0000
0000
0000
,
0000
0000
0000
0000
,
0000
0000
0000
0000
,
0001
0000
0000
0001
0000
0000
0001
0000
,
0000
0001
0000
0000
0001
0000
1000
0000
,
0100
0000
0000
0100
0000
0000
0100
0000
,
1000
0020
0130
0002
,
1003
0000
0000
1000
0000
0000
1000
0000
,
0000
1000
0000
0000
1000
0000
0001
0000
,
0100
0000
0000
0100
0000
0000
0100
0000
,
0010
0100
0001
1000
,
0001
0000
0000
0001
0000
0000
0001
0000
,
0000
0001
0000
0000
0001
0000
1000
0000
,
0020
0000
0100
0000
,
1030
0200
0310
0002
,
1003
0000
0010
0000
1000
0000
0000
1001
,
0000
0000
0001
0010
,
0001
0000
1000
0000
0010
0000
0000
0110
,
0000
0000
0100
0001
,
1000
0000
0100
0000
1000
0000
0000
1001
,
0000
0000
0001
0100
,
0001
0000
1000
0000
0100
0000
0000
0110
,
0000
0000
0100
1000
,
0001
0000
0000
0001
0000
0000
0001
0000
,
0000
0001
0000
0000
1000
0000
0010
0000
,
1000
0000
0000
1000
0000
0000
1000
0000
,
0000
1000
0000
0000
0001
0000
0010
0000
,
0001
0000
0000
0001
0000
0000
0001
0000
,
0000
0001
0000
0000
1000
0000
0010
0000
,
0100
0000
0010
0100
,
0002
0000
0000
0000
,
1003
0100
1000
0000
,
0001
0100
0001
0000
,
1000
0100
0010
0000
,
0001
0100
0010
0000
,
1000
0010
1000
0000
,
0001
0010
0001
0000
,
1000
0010
0100
0000
,
0010
0200
0301
0020
,
0031
0100
0010
0000
,
1000
0100
0010
0000
,
0001
0010
0100
0010
,
0002
0000
1000
0000
,
1003
0010
0100
0000
,
0001
0010
0100
0000
,
1000
0100
0010
0100
,
1000
0010
0200
0000
,
0301
0010
0100
0000
,
1000
0010
0100
0000
,
0001
0100
0010
0100
,
0002
0000
1000
0000
,
1003
0100
0010
0000
,
0001
0100
0010
0000
,
2000
0000
0000
0001
,
3002
0000
0013
0000
,
0002
0000
2003
0000
,
3010
0100
0010
0000
,
2000
0000
3002
0000
,
0013
0100
0010
0001
,
2000
0000
0000
0000
,
3010
0100
0001
0000
,
1000
0100
0010
0000
,
0100
2000
3010
0200
,
0301
0000
1000
0000
,
0100
0010
0100
0000
,
1000
0000
0001
0000
,
0100
0010
0100
0000
,
0001
1000
0001
0000
,
0010
0100
0010
0000
,
1002
0000
0000
1000
0000
0000
1003
0000
,
0001
0200
0310
2000
,
3000
0000
0000
0000
;

//--------------- dance-single - MEGAtive ----------------
#NOTES:
     dance-single:
     MEGAtive:
     Medium:
     11:
     0,0,0,0,0:
0000
0000
0000
0000
,
0000
0000
0000
0000
,
0000
0000
0000
0000
,
0000
0000
0000
0000
,
0000
0000
0000
0000
,
0001
0000
0010
0100
0000
0010
0001
0000
,
0010
0100
0000
0010
0001
0000
1000
0000
,
0001
0000
0100
0010
0000
0100
0001
0000
,
1000
2100
3001
0102
,
1003
0000
0010
0100
0000
0010
1000
0000
,
0010
0100
0000
0010
1000
0000
0001
0000
,
1000
0000
0100
0010
0000
0100
1000
0000
,
0001
0000
0001
0000
1000
0100
0020
0000
,
0031
0000
0010
0100
0000
0010
0001
0000
,
0010
0100
0000
0010
0001
0000
1000
0000
,
0020
0000
0100
0000
1030
0001
1000
0000
,
0100
2100
3001
0102
,
2003
0000
0000
3020
0000
0230
0000
0302
,
0000
0000
1003
0200
0000
0310
0000
0010
,
0200
0000
0000
2300
0000
3020
0000
0230
,
0000
0301
0000
0001
0200
0000
0320
0000
,
2030
0000
0000
3200
0000
0320
0000
0032
,
0000
0000
1003
0020
0000
0130
0000
0100
,
0002
0000
0000
0023
0000
0230
0000
2300
,
0000
3001
0100
0000
0101
0000
0001
0000
,
2000
0000
3100
0020
0000
0032
0000
2003
,
0000
0000
3100
0010
,
0200
0000
1300
0020
0000
0230
0000
0302
,
0000
2003
0000
3001
0200
0000
0010
0000
,
0302
0000
0103
0020
0000
2030
0000
3002
,
0000
0000
0013
0100
,
1000
0000
0000
0001
0000
0000
0100
0000
0020
0000
0000
0000
2030
0000
0000
0000
,
3002
0000
0000
0000
,
1003
0000
0100
0000
0010
0100
1000
0000
,
0001
0000
0100
0000
0010
0100
0001
0000
,
1000
0000
0100
0000
0010
0001
0100
0000
,
0010
0000
0100
0000
0001
1000
0100
0000
,
1000
0000
0010
0000
0100
0010
1000
0000
,
0001
0000
0010
0000
0100
0010
0001
0000
,
1000
0000
0010
0000
0100
0001
0010
0000
,
0100
2100
3001
0102
,
1003
0000
2000
0000
3010
0100
0010
0000
,
2000
3002
0203
0000
,
0310
0000
1000
0000
0100
0010
0100
0000
,
2000
0010
3002
1000
,
0103
0000
0002
0000
0013
0100
0010
0000
,
0002
2003
3200
0000
,
0310
0000
0001
0000
0100
0010
0100
0000
,
0002
0000
0010
0000
1003
0010
0100
0000
,
0010
0000
2000
0000
3100
0010
0100
0000
,
2000
3002
0023
0000
,
0130
0000
1000
0000
0010
0100
0010
0000
,
2000
0100
3002
1000
,
0013
0000
0002
0000
0103
0010
0100
0000
,
0002
2003
3020
0230
,
0301
0010
0000
0100
1000
0000
0010
0100
,
0002
0000
1003
0000
,
1000
0000
0010
0000
0100
0001
1000
0000
,
0100
0000
0010
0000
0100
1000
0001
0000
,
0100
0000
0010
0000
0100
0001
1000
0000
,
0100
0000
0010
0000
0100
1000
0001
1000
,
0010
0000
0100
0000
0001
1000
0100
0000
,
0020
0032
0203
2300
,
3200
0302
0023
0230
,
1300
2100
3001
0102
,
1003
0000
0100
0010
0100
0000
1000
0000
,
0001
0000
0100
0010
0100
0000
0001
0000
,
1000
0000
0100
0010
0100
0000
1000
0000
,
0001
0000
0100
0010
0100
0000
0001
0000
,
1000
0000
0100
0000
0010
0100
0010
0000
,
0001
0000
0100
0000
0010
0100
0010
0000
,
1010
0000
0000
1001
0000
0000
0011
0000
,
0001
0102
1003
2100
,
3000
0000
0000
0000
;

//--------------- dance-single - MEGAtive ----------------
#NOTES:
     dance-single:
     MEGAtive:
     Hard:
     15:
     0,0,0,0,0:
0000
0000
0000
0000
,
0000
0000
0000
0000
,
0000
0000
0000
0000
,
0000
0000
0000
0000
,
0000
0000
0000
0000
,
1000
0000
1000
0010
0100
0010
0100
0000
,
0001
0010
0100
0010
0100
0000
1000
0000
,
0001
0000
0001
0100
0010
0100
0010
0000
,
1000
0100
0002
0000
0103
1000
0020
0000
,
0130
0000
0001
0100
0010
0100
0010
0000
,
1000
0100
0010
0100
0010
0000
0001
0000
,
1000
0000
0001
0100
0010
0100
0010
0000
,
1000
0000
0100
0000
0001
0000
0100
0000
1000
0001
1000
0001
0200
0000
0000
0000
,
0301
0000
0001
0100
0010
0100
0010
0000
,
1000
0100
0010
0100
0010
0000
0001
0000
,
0201
0000
0010
0000
0301
1000
0100
0000
,
1000
0000
0010
0000
0002
0000
0000
0000
0013
0000
1000
0000
0100
0010
0100
0010
,
0200
0000
1300
0001
1000
0010
0001
0020
,
0000
0130
0001
0020
0000
0130
0001
0100
,
2000
0000
3001
1000
0001
0100
1000
0200
,
0000
0310
1000
0100
0001
0100
1000
0010
,
0200
0000
0301
1000
0001
0010
1000
0020
,
0000
0130
1000
0020
0000
0130
1000
0100
,
0002
0000
1003
0001
1000
0100
0001
0200
,
0000
0310
0001
0100
0110
0000
1001
0000
,
1200
0000
0310
0002
0000
0203
0000
2300
,
0000
0100
0100
0000
3100
0010
1000
0001
,
0020
0000
0130
2000
0000
3002
0000
0203
,
0000
2300
0000
3100
0010
0100
0001
0000
,
0201
0000
0310
2000
0000
3200
0000
0302
,
0000
0100
0100
0000
0103
0010
0001
1000
,
0020
0000
0000
0230
0000
0000
0302
0000
0023
0000
0000
0000
0230
0000
0300
0000
,
2100
0000
0100
0100
0100
0100
0100
0100
,
3100
1000
0001
1000
0010
0100
0001
0010
,
0001
1000
0100
0010
0100
0001
0100
0010
,
0001
1000
0010
0100
1000
0100
0010
1000
,
0002
0000
0000
0023
0000
0000
0230
0000
2300
0000
3000
0000
1002
0000
0000
0000
,
0103
0001
1000
0001
0010
0100
1000
0010
,
1000
0001
0100
0010
0100
1000
0100
0010
,
1000
0001
0010
0100
0001
0100
0010
0001
,
1000
0010
0002
0000
0013
1000
0200
0000
,
1300
0100
0010
0100
1000
0001
0100
0010
,
0002
0000
0000
0000
0023
0000
0000
0000
2030
0000
0000
0000
3001
0000
0010
0100
,
0020
0000
0032
0000
1003
0100
0010
0100
,
2000
0000
0001
0000
3001
0000
0000
0000
0200
0000
0010
0000
0310
0000
1000
0001
,
1000
0100
0010
0100
1000
0001
0100
0010
,
0002
0000
0000
0000
0023
0000
0000
0000
2030
0000
0000
0000
3001
0000
0010
0100
,
2000
0000
3001
0100
0010
0001
1000
0100
,
0020
0000
1000
0000
0000
0000
1030
0001
0010
0000
0100
0000
0010
0001
0010
0000
,
0001
0100
0010
0100
0001
1000
0100
0010
,
2000
0000
0000
0000
3020
0000
0000
0000
0032
0000
0000
0000
1003
0000
0010
0100
,
0020
0000
2030
0000
3001
0100
0010
0100
,
0002
0000
1000
0000
1003
0000
0000
0000
0200
0000
0010
0000
0310
0000
0001
1000
,
0001
0100
0010
0100
0001
1000
0100
0010
,
2000
3020
0032
2003
,
3010
0000
0100
0000
0010
0000
1000
0000
0001
0000
1000
0000
0100
0010
0100
0010
,
0200
0000
1300
0000
,
1000
0010
0100
1000
0100
0010
0100
0001
,
1000
0100
0010
0001
0100
0010
0001
0010
,
0100
0000
0001
0000
1000
0000
0100
0000
0010
0001
0010
0001
0010
0000
0100
0000
,
1000
0001
0100
1000
0100
0001
1000
0100
,
1000
0001
0100
0010
0001
0010
0100
0001
,
1000
0000
0000
0100
0000
0000
0010
0000
0001
0000
1000
0000
0001
0000
1000
0000
0010
0000
0100
0000
0001
0000
1000
0000
,
0001
1000
0100
0010
0001
1000
0001
1000
0010
0100
0001
1000
,
0001
0000
0010
0000
2000
0000
0000
0000
3010
0000
0001
0000
0100
0000
0010
0100
,
0001
0010
1000
0010
0001
0100
0010
0001
,
0010
0000
0100
0000
0001
0000
1000
0100
0010
0000
0001
0100
0010
0000
1000
0001
,
0010
0000
0100
1000
0010
0000
0100
0001
0010
0000
0100
1000
0001
0000
0100
0010
,
1000
0000
0001
0010
0100
0000
1000
0001
0100
0000
0010
1000
0200
0000
0000
0000
,
0310
0001
0010
0100
1000
0010
0001
0010
,
0100
0001
0010
0001
1000
0100
0002
0000
,
0103
0000
0000
0000
1000
0010
0100
0000
0010
0100
0001
0100
0001
0000
0000
0000
,
1000
0100
0002
0000
0103
1000
0020
0000
,
0030
0000
0000
0000
;

//--------------- dance-single - ----------------
#NOTES:
     dance-single:
     :
     Challenge:
     14:
     0,0,0,0,0:
0000
0000
0000
0000
,
0000
0000
0000
0000
,
0000
0000
0000
0000
,
0000
0000
0000
0000
,
0000
0000
0000
0000
,
0001
0000
1000
0100
0010
0100
1000
0000
,
1000
0010
0100
0010
1000
0000
1010
0000
,
0101
0000
0001
0010
0100
0010
0001
0000
,
0001
1000
0010
MMMM
0001
1000
0100
0000
,
0110
0000
0001
0010
0100
1000
0010
0100
,
0001
1000
0100
0010
0001
0000
1100
0000
,
0011
0000
1000
0001
0100
0010
1000
0010
,
0100
0000
0100
0000
0001
0000
1000
0000
0100
0010
0100
0010
0001
0000
0000
0000
,
0011
0000
0001
1000
0001
0100
0010
0100
,
0001
0010
0100
1000
0001
0010
0100
0010
,
1001
0000
0001
1000
0020
0000
0001
0000
,
1030
0000
0100
0000
1100
0000
0000
0000
0001
0000
0010
0000
0100
1000
0100
1000
,
0100
0000
1000
0200
0000
0301
0000
MMMM
,
0000
0001
1000
0100
0010
0010
0001
1000
,
MMMM
0000
0010
0001
0000
0001
0100
MMMM
,
0000
1000
0100
0010
0001
0001
1000
0000
,
0101
0000
0010
1000
0000
1000
0100
MMMM
,
0000
0001
1000
0100
0010
0000
0001
0010
,
MMMM
0000
1000
0010
0000
0100
0100
MMMM
,
0000
0010
MMMM
0000
1001
0000
0110
0000
,
0002
0000
0103
0020
0000
2030
0000
3002
,
0010
0000
0013
0000
0100
0010
0001
1000
,
0020
0000
0130
0002
0000
2003
0000
3020
,
0000
0000
2030
0000
0000
0000
3100
0000
0020
0000
0000
0000
0031
1000
0001
0000
,
0200
0000
0310
2000
0000
3200
0000
0320
,
0001
0000
0031
0000
0100
0001
1000
0010
,
2000
0000
0000
3002
0000
0000
0203
0000
0010
0000
0300
0000
1001
0000
0000
0000
,
0001
0001
0010
0010
0100
0100
1000
1000
,
0020
0000
0001
0001
0000
1000
1030
0000
,
0200
2300
3020
0230
,
0302
0000
1000
0000
1003
0001
0010
0100
,
1000
0000
0010
1000
0010
0000
0100
0000
0001
0000
0000
0000
0011
0000
0000
0000
,
1200
0000
0001
0001
0000
1000
1300
0000
,
0020
0230
0302
0023
,
0032
0000
1000
0000
1003
0010
1000
0001
,
0100
0010
0100
0000
1001
0000
0000
0000
0010
0100
0010
0000
1001
0000
0000
0000
,
0011
0000
1100
0000
0001
0010
0100
1000
,
0001
0000
0000
0001
0100
0000
0000
0100
1000
0000
0000
MMMM
0000
0000
0001
1000
,
0001
0000
0110
0000
0001
0010
1000
0010
,
0002
0000
0103
0000
0001
0001
1000
0000
,
1010
0000
0101
0000
1000
0100
0010
0001
,
1000
0000
0000
1000
0010
0000
0000
0010
0001
0000
0000
MMMM
0000
0000
1000
0100
,
0020
0000
1000
0000
0031
0100
0010
0001
,
2000
0000
0000
0000
3100
0000
0010
0100
0001
0000
0000
0000
0010
0000
0010
0000
,
1100
0000
0101
0000
1000
0100
0001
0100
,
1000
0000
0000
1000
0010
0000
0000
0010
0001
0000
0000
MMMM
0000
0000
1000
0001
,
1000
0000
0110
0000
0001
1000
0010
0100
,
0002
0010
0013
0000
2000
0100
3100
0000
,
0011
0000
1010
0000
0001
0010
0100
1000
,
0001
0000
0000
0001
0100
0000
0000
0100
1000
0000
0000
1000
0010
0000
0000
0010
,
0002
0000
0000
0000
0000
0000
1000
0000
0000
0000
0003
0000
0100
0010
0100
0010
,
0100
0000
0000
0000
,
0001
0000
0100
0000
0001
0000
1000
0000
0010
0000
1000
0000
0100
0000
0010
0001
,
0010
0100
0010
0001
1000
0001
0100
0010
,
1000
0000
0001
0000
0010
0000
0100
0000
1000
0001
1000
0001
1000
0000
0010
0000
,
0200
0000
0000
0000
1300
0000
0200
0000
0000
0000
0301
0010
0001
0000
1000
0000
,
0001
0010
0100
1000
0001
1000
0100
0010
,
0001
1000
0001
1000
0001
0000
0100
0010
0100
0010
0100
0000
,
0001
0010
0100
1000
0010
0100
0001
0010
0100
1000
0010
0100
,
0002
0000
1003
0000
0100
0100
0010
0001
,
2000
0000
3010
2000
0001
0000
3001
0000
,
1000
0000
0100
0000
0010
0000
0001
0000
0010
0100
0010
0000
0100
1000
0100
0000
,
0010
0000
0001
0000
1000
0000
0010
0000
0100
0001
0100
0000
0001
1000
0001
0000
,
0010
0000
0100
0000
1000
0000
0010
0000
1000
0100
1000
0000
0002
0000
0000
0000
,
1003
0100
0020
0000
1000
0000
0031
0100
,
0010
0001
0010
2000
0100
3000
0110
0000
,
0001
0001
1000
1000
0010
0010
0100
0100
,
0001
0001
MMMM
0000
1000
1000
MMMM
0000
;
