#TITLE:Someone To Love;
#SUBTITLE:;
#ARTIST:Big Idea feat. Melissa Petty;
#TITLETRANSLIT:;
#SUBTITLETRANSLIT:;
#ARTISTTRANSLIT:;
#GENRE:;
#CREDIT:;
#MUSIC:09. Someone To Love.mp3;
#BANNER:;
#BACKGROUND:;
#CDTITLE:;
#SAMPLESTART:0.073;
#SAMPLELENGTH:15.659;
#SELECTABLE:YES;
#OFFSET:-0.073;
#BPMS:0.000=110.000;
#STOPS:;
#BGCHANGES:;
#FGCHANGES:;

//--------------- dance-single - eataninja ----------------
#NOTES:
     dance-single:
     eataninja:
     Beginner:
     1:
     0,0,0,0,0:
0000
0000
0000
0000
,
0000
0000
0000
0000
,
0000
0000
0000
0000
,
1000
0000
0000
0010
,
0000
0000
0100
0000
,
0000
0100
0000
0000
,
0001
0000
0000
0010
,
0000
0000
2002
0000
,
3003
1000
0000
0000
,
0001
0000
0000
0100
,
0000
0000
0010
0000
,
0000
0010
0000
0000
,
2000
0000
0000
3000
,
0000
0000
0002
0000
,
0000
0003
0000
0000
,
0100
0000
0000
0110
,
0000
0000
0010
0000
,
0000
0110
0000
0000
,
2000
0000
3000
1000
,
0000
0000
0002
0000
,
0003
0001
0000
0000
,
0010
0000
0000
0110
,
0000
0000
0100
0000
,
0000
0110
0000
0000
,
2000
0000
0000
3000
,
0000
0000
0001
0000
,
0000
0100
0000
0000
,
0020
0000
0000
0030
,
0000
0000
0010
0000
,
0000
0100
0000
0000
,
0001
0000
0000
1001
,
0000
0000
1000
0000
,
0000
1001
0000
0000
,
0001
0000
0000
0010
,
0000
0000
0100
0000
,
0000
0100
0000
0000
,
2000
0000
0000
3000
,
0000
0000
0001
0000
,
0000
0100
0000
0000
,
0002
0000
0000
0003
,
0000
0000
1000
0000
,
0000
0100
0000
0000
,
0020
0000
0000
0000
,
0000
0000
0000
0030
;

//--------------- dance-single - eataninja ----------------
#NOTES:
     dance-single:
     eataninja:
     Easy:
     4:
     0,0,0,0,0:
0000
0000
0000
0000
,
0000
0000
0000
0000
,
0000
0000
0000
0000
,
1000
0000
0000
0010
0000
0000
0100
0000
,
0000
0001
0000
0000
0001
0000
0000
0010
,
0000
0000
0100
0000
0000
1000
0000
0000
,
0001
0000
0000
0001
0000
0000
1000
0000
,
0000
1000
0000
0000
0020
0000
0000
0000
,
0030
0100
0010
0100
,
0001
0000
0000
0010
0000
0000
0100
0000
,
0000
1000
0000
0000
1000
0000
0000
0010
,
0000
0000
0100
0000
0000
0001
0000
0000
,
2000
0000
0000
3200
,
0000
0000
0000
0000
0301
0000
0000
0100
,
0000
0000
1000
0000
0000
1000
0000
0000
,
0001
0000
0000
0001
0000
0000
0101
0000
,
0000
1000
0000
0000
0100
0000
0000
0100
,
0000
0000
0110
0000
0000
0001
0000
0000
,
1000
0000
0000
1000
0000
0000
1010
0000
,
0000
0001
0000
0000
0200
0000
0000
0320
,
0000
1030
0001
1000
,
0100
0000
0000
0100
0000
0000
1100
0000
,
0000
0001
0000
0000
0100
0000
0000
0100
,
0000
0000
0110
0000
0000
1000
0000
0000
,
0002
0000
0000
0023
,
0000
0000
0000
0000
1030
0000
0000
0010
,
0000
0000
0001
0000
0000
0001
0000
0000
,
2000
0000
0000
3020
,
0000
0000
0000
0000
0031
0000
0000
0010
,
0000
0000
1000
0000
0000
1000
0000
0000
,
1001
0000
0000
0100
0000
0000
0101
0000
,
0000
1000
0000
0000
1001
0000
0000
0010
,
0000
0000
0011
0000
0000
1000
0000
0000
,
0010
0000
0000
0100
0000
0000
0001
0000
,
0000
0001
0000
0000
0010
0000
0000
0100
,
0000
0000
1000
0000
0000
1000
0000
0000
,
0002
0000
0000
0203
0000
0000
2300
0000
,
0000
3200
0000
0000
0301
0000
0000
1000
,
0000
0000
0001
0000
0000
0001
0000
0000
,
2000
0000
0000
3200
0000
0000
0302
0000
,
0000
0203
0000
0000
1300
0000
0000
0001
,
0000
0000
1000
0000
0000
1000
0000
0000
,
0020
0000
0000
0000
,
0000
0000
0000
0030
;

//--------------- dance-single - eataninja ----------------
#NOTES:
     dance-single:
     eataninja:
     Medium:
     8:
     0,0,0,0,0:
0000
0000
0000
0000
,
0000
0000
0000
0000
,
0000
0000
0000
0000
,
2000
0000
0010
3010
0000
0000
0100
0000
,
0001
1000
0001
0010
0200
0000
1000
1300
,
0000
0000
0001
0000
0100
0000
0010
0100
,
2000
0000
3100
0001
0000
0000
1000
0000
,
0001
0010
0010
0100
0002
0000
0100
0203
,
0000
1300
0010
0100
,
0002
0000
1000
1003
0000
0000
0100
0000
,
0010
0001
1000
0010
0200
0000
0001
0301
,
0000
0000
1000
1000
1000
0001
0010
0100
,
2000
0000
0000
3002
0000
0000
0203
0000
,
0000
2300
0000
0000
3001
0000
0010
0000
,
0100
0000
0001
0000
1000
0001
0000
0000
,
0010
0010
0010
0100
0100
0100
2000
0000
,
3001
0100
0000
0000
0010
0010
0010
0100
,
0100
0100
0002
0000
0013
0100
0000
0000
,
1000
1000
1000
0001
0001
0001
0200
0000
,
0310
1000
0000
0001
0010
0010
0010
0100
,
0100
0100
1000
0000
0001
0000
0100
0000
,
1000
1000
1000
0100
0100
0100
0002
0000
,
0013
0100
0000
1000
0010
0010
0010
0001
,
0001
0001
0010
0000
0010
0100
0000
0100
,
0002
0000
0000
2003
0000
0000
3200
0000
,
0000
0302
0000
0000
1003
0000
0010
0000
,
0100
0000
1000
1000
1000
0001
0100
0010
,
2000
0000
0000
3002
0000
0000
0023
0000
,
0000
2030
0000
0000
3001
0000
0100
0000
,
0010
0000
0001
0001
0001
1000
0010
0100
,
0001
0000
0000
0001
0000
0000
0101
0000
0000
0000
0000
0000
1000
0000
0000
1000
,
0000
0000
1100
0000
0000
0000
0000
0000
0001
0000
0000
0001
0000
0000
1001
0000
,
0000
0000
0110
0000
0000
0100
0001
0001
,
0010
0000
0100
1000
0000
0010
0100
0000
,
0001
1000
0010
0100
0001
0000
0010
0100
,
0000
1000
0001
0001
0001
1000
0010
0100
,
0002
0000
0000
0023
0000
0000
2030
0000
,
0000
3002
0000
0000
0103
0000
0000
1100
,
0000
0000
1000
1000
1000
0001
0100
0010
,
2000
0000
0000
3020
0000
0000
0032
0000
,
0000
2003
0000
0000
3100
0000
0000
0101
,
0000
0000
1000
1000
1000
0001
0010
0100
,
0020
0000
0000
0000
,
0000
0000
0000
0030
;

//--------------- dance-single - eataninja ----------------
#NOTES:
     dance-single:
     eataninja:
     Hard:
     10:
     0,0,0,0,0:
0000
0000
0000
0000
,
0000
0000
0000
0000
,
0000
0000
0000
0000
,
2000
0000
0000
3010
0000
0000
0200
0000
0000
0310
0000
0000
2000
0000
0000
0000
,
3001
0000
0010
0000
1000
0000
0010
0000
0200
0000
0000
0310
0000
0000
0002
0000
,
0000
1003
0000
0000
0010
0000
0010
0000
0100
0000
0100
0000
0001
0000
1000
0000
,
0200
0000
0000
0310
0000
0000
0002
0000
0000
0013
0000
0000
0100
0000
1000
0000
,
1000
0001
0100
0100
2000
0000
0100
3200
,
0000
0000
0301
0000
0010
0100
1100
0000
,
2000
0000
0000
3001
0000
0000
0200
0000
0000
0301
0000
0000
2000
0000
0000
0000
,
3001
0000
0010
0000
0100
0000
1000
0000
0002
0000
0000
1003
0000
0000
0020
0000
,
0000
0130
0000
0000
1000
0000
0100
0000
0100
0000
0001
0000
1000
0000
0100
0000
,
0020
0000
0031
2000
0000
3010
0200
0000
,
0301
2000
0000
3100
0020
0000
0031
1001
,
0000
1000
1010
0000
0010
0100
0100
0001
,
1000
0100
0010
0100
0001
0100
0020
0000
,
0031
1000
0010
1000
0001
0100
0010
0100
,
1000
0100
0020
0000
1030
0001
0010
0100
,
2000
0000
0000
3001
0000
0000
0200
0000
0000
0310
0000
0000
0100
0000
0001
0000
,
0001
0010
0010
0100
0002
0000
0100
0203
,
0000
0000
1300
0000
0001
0100
0110
0000
,
0010
0001
0010
1000
0010
0100
0020
0000
,
1030
0001
0010
0001
0100
1000
0100
0001
,
0100
0010
0100
0100
0001
1000
0100
0010
,
0011
0000
0001
1000
0010
0100
0101
0000
,
1000
0001
0010
0100
2000
0000
3001
0100
,
0100
0100
0010
1000
0100
0001
0100
0010
,
0011
0000
0001
1000
0010
0100
0101
0000
,
1000
0001
0010
0100
2000
0000
3001
0100
,
0100
0100
0001
1000
0010
0001
0010
1000
,
2001
0000
0000
3001
0000
0000
0200
0000
0000
0310
0000
0000
1002
0000
0000
1003
,
0000
0000
0200
0000
0000
0310
0000
0000
0012
0000
0000
1003
0000
0000
0020
0000
,
0000
0130
0000
0000
0102
0000
0000
1003
0000
0000
0100
0000
0010
0000
0001
0000
,
2000
0000
0000
3010
0000
0000
0002
0000
0000
0013
0000
0000
0200
0000
0000
0000
,
0301
0000
1000
0000
0100
0000
0010
0000
0002
0000
0000
1003
0000
0000
0020
0000
,
0000
0130
0000
0000
0001
0000
1000
0000
1000
0000
0100
0000
0001
0000
0100
0000
,
0020
0000
0000
0031
0000
0000
2001
0000
0000
3010
0000
0000
0200
0000
0000
0301
,
0000
0000
1002
0000
0000
0013
0000
0000
0100
0000
0001
0000
0001
0000
0100
0000
,
1000
1000
0010
0100
0010
1000
0001
0010
,
0200
0000
0000
1300
0000
0000
1002
0000
0000
0103
0000
0000
0020
0000
0000
1030
,
0000
0000
2001
0000
0000
3100
0000
0000
0010
0000
1000
0000
1000
0000
0010
0000
,
0001
0001
1000
0010
0100
1000
0100
0001
,
2000
0000
0000
0000
,
0000
0000
0000
3000
;
