#TITLE:Soft Paws;
#SUBTITLE:;
#ARTIST:Ryu☆;
#TITLETRANSLIT:;
#SUBTITLETRANSLIT:;
#ARTISTTRANSLIT:;
#GENRE:;
#CREDIT:;
#MUSIC:Soft Paws.mp3;
#BANNER:;
#BACKGROUND:;
#CDTITLE:;
#SAMPLESTART:30.998;
#SAMPLELENGTH:15.000;
#SELECTABLE:YES;
#OFFSET:1.805;
#BPMS:0.000=128.000;
#STOPS:;
#DISPLAYBPM:128.000;
#BGCHANGES:;
#FGCHANGES:;

//--------------- dance-single - forcednature ----------------
#NOTES:
     dance-single:
     forcednature:
     Beginner:
     3:
     0,0,0,0,0:
0000
0000
0000
0000
,
0000
0000
0000
0000
,
0000
0000
0000
0000
,
0000
0000
0000
0000
,
0000
0000
0000
0000
,
0000
0000
0000
0100
,
0000
0100
0000
0010
,
0000
0010
0000
1000
,
0000
0001
0000
0000
,
0000
0000
0000
0010
,
0000
0010
0000
0001
,
0000
0001
0000
1000
,
0000
1000
0000
0010
,
0000
0010
0000
0100
,
0000
1000
0000
0100
,
0000
0001
0000
0100
,
0000
0010
0000
0000
,
0000
0000
1000
0000
,
0001
0000
0100
0000
,
0000
0000
0001
0000
,
1000
0000
0100
0000
,
0000
0000
0010
0000
,
0001
0000
1000
0000
,
0000
0000
0010
0000
,
1000
0000
0001
0000
,
0000
0000
0000
0100
,
0000
0100
0000
1000
,
0000
1000
0000
0100
,
0000
0100
0000
0001
,
0000
0001
0000
0010
,
0000
0010
0000
1000
,
0000
1000
0000
0010
,
0000
0010
0000
0000
,
0000
0000
0001
0000
,
0000
0000
1000
0000
,
0000
0000
0010
0000
,
0000
0000
0100
0000
,
0000
0000
0001
0000
,
1000
0000
0001
0000
,
1000
0000
0100
0000
,
0010
0000
0200
0000
,
0000
0000
0000
0000
,
0300
0000
1001
0000
,
0100
0000
0010
0000
,
0000
0000
0110
0000
,
1000
0000
0001
0000
,
0000
0000
1001
0000
,
0010
0000
0100
0000
,
0000
0000
0110
0000
,
0001
0000
1000
0000
,
0000
0000
0000
0010
,
0000
1000
0000
0001
,
0000
0100
0000
0010
,
0000
1000
0000
0001
,
0000
0100
0000
0001
,
0000
0010
0000
0100
,
0000
1000
0000
0001
,
0000
0010
0000
0000
,
0000
1001
0000
0000
;

//--------------- dance-single - forcednature ----------------
#NOTES:
     dance-single:
     forcednature:
     Easy:
     5:
     0,0,0,0,0:
0000
0000
0000
0000
,
0000
0000
0000
0000
,
0000
0000
0000
0000
,
0000
0000
0000
0000
,
0000
0000
0000
0000
,
0000
0000
1000
0001
,
0100
0010
1000
0001
,
0100
0010
1000
0001
,
0010
0100
1000
1000
,
0000
0010
0100
0100
,
0000
0001
1000
1000
,
0000
0010
0100
0100
,
0000
0001
0010
0010
,
0100
0100
1000
1000
,
0000
0010
0100
0100
,
0000
0001
0010
0010
,
0000
0100
1000
1000
,
0000
0001
0100
0100
,
0001
1000
0010
0100
,
0200
0300
0010
1000
,
0001
0010
0100
0010
,
0010
0001
1000
0010
,
1000
0001
0100
0001
,
0020
0030
0100
1000
,
0010
0100
0010
0010
,
0000
1000
0001
1000
,
0100
0010
0001
1000
,
0010
0100
0001
1000
,
0100
0010
0001
1000
,
0010
0100
0001
0100
,
1000
0100
0001
0010
,
1000
0010
0001
0100
,
1000
0100
0001
0001
,
0000
1000
0010
0010
,
0000
0100
0000
0100
,
0000
0001
0000
1000
,
0000
0100
0000
0100
,
0000
0010
0001
0100
,
1000
0010
0001
0100
,
1000
0010
0001
0010
,
1000
0100
0001
0001
,
0000
2000
0000
0000
,
3000
0001
1000
1000
,
0010
0100
0001
0010
,
0200
0300
0010
0001
,
0100
0010
1000
0001
,
0100
0010
1000
0100
,
1000
0010
1000
0100
,
0020
0030
0001
0100
,
0001
0010
0001
0001
,
0000
1000
0010
1000
,
0001
0100
0010
1000
,
0001
0010
0100
1000
,
0010
0100
0001
0010
,
0001
1000
0010
0100
,
0001
1000
0100
0010
,
0100
1000
0010
0100
,
0001
0010
0001
0001
,
0000
1000
0000
0000
;

//--------------- dance-single - forcednature ----------------
#NOTES:
     dance-single:
     forcednature:
     Medium:
     9:
     0,0,0,0,0:
0000
0000
0000
0000
,
0000
0000
0000
0000
,
0000
0000
0000
0000
,
0000
0000
0000
0000
,
0000
0000
0000
0000
,
0000
0000
0010
1001
,
0001
0100
0010
1000
0100
0000
1001
0000
,
0010
0001
1000
0010
0100
0000
0110
0000
,
0010
1000
0001
0010
0200
0000
0010
0000
,
0310
0100
0100
0000
1001
0000
0100
0000
,
0000
0001
0010
0100
1000
0000
0010
0000
,
0000
0100
0001
0100
0010
0000
1000
0000
,
0000
0100
1000
0010
1000
0000
0001
0000
,
0010
0001
0010
0100
1000
0000
0010
0000
,
0000
0100
0001
0010
0001
0000
0100
0000
,
0000
0010
1000
0100
0010
0000
0100
0000
,
0000
1000
0010
0100
0002
0000
1000
0000
,
0103
0001
0001
0000
1001
0000
0100
0000
,
0001
0010
0100
0000
1000
0001
0100
0010
,
1000
0100
0010
0100
,
1000
0001
0100
0000
1000
0100
0001
0010
,
0100
0010
0001
0000
0100
0010
1000
0000
,
0100
0000
0010
0000
0001
0100
0010
1000
,
0001
0000
1000
0000
0100
1000
0010
0000
,
0100
0000
0001
0000
0010
0100
1000
0001
,
0100
0010
1000
0000
0101
0000
1100
0000
,
0010
1000
0001
0010
0100
0000
0011
0000
,
1000
0001
0100
0010
1000
0000
0110
0000
,
0001
0100
1000
0100
0010
0000
1100
0000
,
0010
0001
0100
1000
0100
0000
0110
0000
,
0001
1000
0010
1000
0001
0000
0011
0000
,
0100
0010
1000
0001
0100
0000
0001
0000
,
0100
1000
0100
0010
0200
0000
0010
0000
,
0300
0100
0100
0000
0001
0000
1000
0000
,
0000
0100
1000
0010
1000
0000
0001
0000
,
0000
0100
0001
0010
0001
0000
1000
0000
,
0000
0100
1000
0010
1000
0000
0001
0000
,
0100
0001
0010
0100
1000
0000
0010
0000
,
1000
0100
0001
0100
0010
0000
0001
0000
,
0100
1000
0100
0010
1000
0000
0001
0000
,
1000
0010
1000
0001
0020
0000
0100
0000
,
0130
1000
0001
0000
0200
0000
0000
0000
,
0000
0310
0010
0010
1000
0000
0001
0000
,
0100
0001
0010
0100
1000
0010
0100
0001
,
1000
0010
1000
0100
,
0001
0100
0010
0001
1000
0010
0100
1000
,
0100
0001
0110
1000
,
0001
1000
0010
1000
0100
0001
0100
1000
,
0010
0100
0001
0010
,
0100
0001
0100
1000
0200
0000
0010
0000
,
0300
0100
0100
0000
1001
0000
0101
0000
,
0010
1000
0100
0010
0001
0100
0010
0000
,
0100
1000
0100
0001
0010
0100
1000
0000
,
0010
1000
0001
0010
1000
0010
0001
0000
,
0100
0010
1000
0001
0100
1000
0100
0000
,
0001
0010
0100
0001
0100
1000
0001
0000
,
1000
0010
0001
0010
0100
0001
1000
0000
,
0001
0100
1000
0100
0020
0000
0100
0000
,
0030
0010
0020
0000
0000
0000
0000
0000
,
0000
0030
0000
0000
;

//--------------- dance-single - forcednature ----------------
#NOTES:
     dance-single:
     forcednature:
     Hard:
     10:
     0,0,0,0,0:
0000
0000
0000
0000
,
0000
0000
0000
0000
,
0000
0000
0000
0000
,
0000
0000
0000
0000
,
0000
0000
0000
0000
,
0000
0000
1001
0110
,
0001
1000
1001
0110
,
1000
0001
1001
0110
,
0100
0000
0010
0000
1000
0001
1000
0001
,
0000
0010
0100
0000
1000
0001
0100
0000
,
0010
2000
0000
3001
0010
0100
1000
0000
,
0010
0200
0000
0301
1000
0100
1000
0000
,
0010
0200
0000
0301
0010
1000
0020
0000
,
0230
0000
2300
3000
0010
0100
0001
0100
,
0000
0020
0000
1030
0001
0010
0100
1000
,
0000
0020
0000
0130
1000
0100
0010
0100
,
0000
0002
0000
0013
0100
0001
0100
1000
,
0010
0100
0110
0000
0001
1000
0010
0100
,
0001
0000
0000
1000
0000
0000
0100
0000
1000
0000
0000
0010
0000
0000
0200
0000
,
0000
0300
0000
0000
0001
0010
0100
0010
,
0001
0000
0000
0100
0000
0000
0010
0000
1000
0000
0000
0001
0000
0000
0200
0000
,
0300
0010
1000
0001
1000
0100
1000
0010
,
0100
0000
0000
0001
0000
0000
0010
0000
0100
0000
0000
0001
0000
0000
0200
0000
,
0000
0300
0000
0000
1000
0010
1000
0001
,
0010
0000
0000
0100
0000
0000
1000
0000
0010
0000
0000
0100
0000
0000
0002
0000
,
0003
1000
0001
0000
0100
1000
0100
0001
,
0010
0000
0000
0100
0000
0000
1000
0000
0010
0000
0000
0001
0000
0000
0020
0000
,
0100
0030
0100
0000
0001
1000
0100
1000
,
0010
0000
0000
1000
0000
0000
0100
0000
0010
0000
0000
0001
0000
0000
0200
0000
,
0310
1000
0001
0010
0100
0001
0100
1000
,
0010
0000
0000
1000
0000
0000
0001
0000
0010
0000
0000
1000
0000
0000
0020
0000
,
0001
0030
0001
0000
0100
1000
0100
0010
,
1000
0000
0000
0001
0000
0000
0100
0000
0010
0000
0000
1000
0000
0000
0002
0000
,
0003
0010
0010
0000
0100
0000
1000
0000
,
0000
0020
0000
0130
0100
0000
0001
0000
,
0000
0020
0000
0130
0100
0000
1000
0000
,
0000
0020
0000
0130
0100
0000
0002
0000
,
0023
0000
0230
0300
1001
0000
0110
0000
,
0001
0200
1000
0300
0110
0000
1001
0000
,
1000
0200
0001
0300
0110
0000
1001
0000
,
0001
0200
1000
0300
0100
0010
1000
0001
,
0000
0010
0220
0000
0000
0000
0000
0000
,
0330
1000
0001
1000
0001
0100
0001
0010
,
0100
0000
0000
0001
0000
0000
0100
0000
1000
0000
0010
1000
0000
0001
0200
0000
,
0000
0300
0000
0000
0010
1000
0100
1000
,
0010
0000
0000
0100
0000
0000
0001
0000
0010
0000
0001
1000
0000
0010
2000
0000
,
3000
0100
0001
0100
1000
0010
0100
0001
,
0100
0000
0000
1000
0000
0000
0100
0000
0001
0000
0010
0100
0000
1000
0002
0000
,
0000
0003
0000
0000
0100
1000
0100
0010
,
1000
0000
0000
0001
0000
0000
0010
0000
1000
0000
0010
0100
0000
1000
0002
0000
,
0103
0010
1001
0000
1000
0100
0010
0100
,
0001
0000
0000
0100
0000
0000
1000
0000
0001
0000
0010
0001
0000
1000
0020
0000
,
0100
0030
0100
0000
0010
1000
0001
0010
,
0100
0000
0000
1000
0000
0000
0001
0000
0100
0000
0010
1000
0000
0001
0020
0000
,
0130
1000
0010
0001
0010
0100
0001
1000
,
0100
0000
0000
0010
0000
0000
0001
0000
1000
0000
0010
0100
0000
0001
2000
0000
,
0100
3000
0100
0000
0010
0001
1000
0010
,
1000
0000
0000
0001
0000
0000
0100
0000
1000
0000
0100
0001
0000
1000
0200
0000
,
0310
0100
2002
0000
0000
0000
0000
0000
,
0000
3003
0000
0000
;

//--------------- dance-single - forcednature ----------------
#NOTES:
     dance-single:
     forcednature:
     Challenge:
     12:
     0,0,0,0,0:
0000
0000
0000
0000
,
0000
0000
0000
0000
,
0000
0000
0000
0000
,
0000
0000
0000
0000
,
0000
0000
0000
0000
,
0000
0000
0000
0000
0001
0100
1000
0100
,
0010
0100
0010
0100
0001
0100
1000
0100
,
0010
0100
0010
0100
0001
0100
1000
0100
,
0010
0000
0100
0000
0010
0000
0100
0000
0001
1000
0001
0000
1000
0001
1000
0000
,
0000
0010
0100
0000
0101
0000
1100
0000
,
0000
0000
0010
1000
0010
1000
0010
0000
0100
0000
0000
0000
0011
0000
0000
0000
,
0000
0000
0001
1000
0001
1000
0001
0000
0010
0000
0000
0000
1100
0000
0000
0000
,
0000
0000
1000
0010
1000
0010
1000
0000
0100
0000
0000
0000
0010
0001
0000
0100
,
0001
1000
0001
0000
0010
0000
0100
0000
1100
0000
0000
0000
1010
0000
0000
0000
,
0000
0000
0001
1000
0001
1000
0001
0000
0010
0000
0000
0000
0110
0000
0000
0000
,
0000
0000
0100
1000
0100
1000
0100
0000
0010
0000
0000
0000
1001
0000
0000
0000
,
0000
0000
0001
0100
0001
0100
0001
0000
1000
0100
1000
0000
0001
0100
0001
0000
,
0000
1001
1001
0000
1000
0100
0010
0001
,
0100
0000
0000
0010
0000
0000
1000
0000
0001
0000
0010
0001
0000
0100
0020
0000
,
0000
0000
0030
0000
1000
0010
1000
0001
,
0010
0000
0000
1000
0000
0000
0010
0000
0001
0000
0100
0010
0000
1000
0002
0000
,
0003
1000
0010
0001
0010
0100
0001
1000
,
0100
0000
0000
0001
0000
0000
0100
0000
0010
0000
0001
1000
0000
0010
0200
0000
,
0000
0000
0300
0000
0010
1000
0001
0100
,
1000
0000
0000
0100
0000
0000
0010
0000
1000
0000
0100
0010
0000
0001
2000
0000
,
3010
0100
0110
0000
0001
0100
1000
0100
,
0010
0000
0100
0001
0000
1000
0100
0000
0010
0000
0100
1000
0000
0001
1000
0000
,
0100
0001
0100
1000
0001
0100
1000
0100
,
0010
0000
1000
0001
0000
1000
0100
0000
0010
0000
0100
1000
0000
0010
0100
0000
,
1000
0100
0001
0100
0010
0001
0010
1000
,
0100
0000
0010
0001
0000
1000
0010
0000
0100
0000
1000
0100
0000
0001
0100
0000
,
0010
0001
0010
1000
0100
0001
0100
1000
,
0010
0000
0100
0001
0000
0010
0100
0000
1000
0010
1000
0000
0001
0010
0001
0000
,
0100
0010
0110
0000
0002
0000
0023
0000
,
0030
0000
0100
1000
0010
1000
0100
0000
2000
0000
0000
0000
3020
0000
0000
0000
,
0030
0000
0100
0001
0010
0001
0100
0000
0020
0000
0000
0000
2030
0000
0000
0000
,
3000
0000
0001
0010
0100
1000
0001
0000
0200
0000
0000
0000
1300
0100
0000
0001
,
1000
0100
1000
0000
0010
0000
0100
0000
1000
0000
0100
0000
0001
0000
0100
0000
,
0010
0000
0100
0001
0010
0100
0010
0000
0100
0000
0001
0000
0100
0000
1000
0000
,
0010
0000
0100
0010
1000
0001
0010
0000
0100
0000
0001
0000
0100
0000
1000
0000
,
0010
0000
1000
0100
1000
0001
0100
0000
0001
0010
0100
0000
1000
0010
0100
0000
,
0001
0110
0210
0000
0000
0000
0010
0000
,
0300
1001
1001
1001
0001
0010
1000
0010
,
0001
0000
0000
0100
0010
0000
1000
0000
0001
0000
0010
0100
0000
1000
0020
0000
,
0000
0130
0010
1000
0100
0001
0100
1000
,
0010
0000
0000
1000
0001
0000
0100
0000
1000
0000
0100
0010
0000
1000
0001
0000
,
0010
0100
0010
0000
0001
0000
1000
0000
0110
0000
0001
0000
1000
0000
0010
0000
,
1000
0000
0000
0100
0001
0000
0100
0000
0010
0000
1000
0010
0000
0001
2000
0000
,
0000
3010
1000
0100
0010
0001
0100
1000
,
0100
0000
0000
0001
1000
0000
0100
0000
0010
0001
0100
0000
0010
1000
0100
0000
,
0010
0110
1001
0000
1000
0100
0001
0100
,
1000
0000
0000
0010
0100
0000
1000
0000
0100
0000
0010
1000
0000
0001
0020
0000
,
0000
0000
0130
1000
0100
1000
0100
0000
1000
0000
0010
0000
0001
0000
0010
0000
,
0100
0000
0000
0001
1000
0000
0100
0000
0001
0000
0100
0010
0000
0001
1000
0010
,
1000
0001
0100
0000
1000
0000
0100
0000
0001
0000
0010
0000
1000
0000
0010
0000
,
0001
0000
0000
0100
0010
0000
1000
0000
0010
0000
0001
0010
0000
0100
0002
0000
,
0000
0000
0013
0100
0010
0100
0010
0000
0001
0000
0100
0000
1000
0000
0100
0000
,
0010
0000
0000
1000
0001
0000
0010
0000
0100
1000
0010
0000
0100
0001
0010
0000
,
0100
0110
2002
0000
0000
0000
0000
0000
,
0000
3003
0000
0000
;

//--------------- dance-double - forcednature ----------------
#NOTES:
     dance-double:
     forcednature:
     Easy:
     5:
     0,0,0,0,0:
00000000
00000000
00000000
00000000
,
00000000
00000000
00000000
00000000
,
00000000
00000000
00000000
00000000
,
00000000
00000000
00000000
00000000
,
00000000
00000000
00000000
00000000
,
00000000
00000000
00010000
00001000
,
00000100
00000100
00001000
00010000
,
01000000
01000000
00010000
00001000
,
00000100
00000100
00000010
00000010
,
00000000
00001000
00001001
00000001
,
00000000
00000020
00000000
00000000
00000130
00000000
00010000
00000000
,
00000000
00002000
00000000
00000000
01003000
00000000
00010000
00000000
,
00000000
20000000
00000000
00000000
31000000
00000000
00100000
00000000
,
00001000
00010000
00011000
00001000
,
00000000
00000200
00000000
00000000
00000310
00000000
00001000
00000000
,
00000000
00000002
00000000
00000000
00000013
00000000
00000100
00000000
,
00000000
00020000
00000000
00000000
00031000
00000000
01000000
00000000
,
00000000
00010000
00010000
00000000
10000000
00000000
01000000
00000000
,
00100000
00001000
00010000
00000010
,
00000000
00000000
00000100
00000001
,
00001000
00000100
00010000
00001000
,
01000000
00010000
00100000
01000000
,
00100000
00001000
00010000
00100000
,
00000000
00000000
10000000
00010000
,
10000000
01000000
00100000
00100000
,
00000000
00001000
00001000
00000000
00010000
00000000
00000010
00000000
,
00001000
00000001
00000010
00000100
,
00000000
00000000
00001000
00000001
,
00000100
00000010
00001000
00010000
,
00000000
01000000
00100000
10000000
,
00010000
10000000
01000000
00100000
,
00000000
00000000
00001000
00010000
,
00100000
01000000
00010000
00010000
,
00000000
10000000
10000000
00000000
00010000
00000000
00000000
00000000
,
00000000
02000000
00000000
00000000
03001000
00000000
00000000
00000000
,
00000000
00020000
00000000
00000000
00030100
00000000
00000000
00000000
,
00000000
00002000
00000000
00000000
00003010
00000000
00000100
00000000
,
00000001
00001000
00000010
00000010
,
00010000
00001000
00100000
00100000
,
00001000
00010000
00000010
00000010
,
00010000
00001000
00100000
00100000
,
00000000
01000000
02000000
00000000
00000000
00000000
10000000
00000000
,
03000000
00100000
00100000
00000000
10010000
00000000
00010000
00000000
,
01000000
00001000
00010000
00000100
,
00000000
00000000
00001000
00000001
,
00001000
00000010
00010000
00001000
,
00000000
00100000
01100000
01000000
,
10000000
00010000
01000000
00001000
,
00000000
00000000
00010000
00000100
,
00001000
00000001
00000100
00000100
,
00000010
00001000
00001001
00000001
,
00000010
00000100
00010000
00001000
,
00000000
00000000
01000000
00010000
,
00100000
00001000
00010000
00100000
,
10000000
00010000
10010000
00010000
,
00100000
01000000
00100000
00001000
,
00000000
00000000
00010000
00000010
,
00000100
00000010
00001000
00001000
,
00000000
00000001
00000200
00000000
,
00000000
00000300
00000000
00000000
;

//--------------- dance-double - forcednature ----------------
#NOTES:
     dance-double:
     forcednature:
     Medium:
     9:
     0,0,0,0,0:
00000000
00000000
00000000
00000000
,
00000000
00000000
00000000
00000000
,
00000000
00000000
00000000
00000000
,
00000000
00000000
00000000
00000000
,
00000000
00000000
00000000
00000000
,
00000000
00000000
00001000
00010000
,
01100000
01100000
00010000
00001000
,
00000110
00000110
00001000
00010000
,
01100000
01100000
01000000
01000000
,
10000000
00010000
10000000
00000000
00100000
00000000
10100000
00000000
,
00010000
01000000
00010000
00000000
00100000
00000000
00011000
00000000
,
00000100
00001000
00000100
00000000
00000010
00000000
00001001
00000000
,
00000100
00000001
00000100
00000000
00000010
00000000
00010000
00001000
,
00100000
00001000
00010000
00000000
00100000
00000000
01100000
00000000
,
10000000
01000000
00100000
00000000
01000000
00000000
10010000
00000000
,
00010000
01000000
00001000
00000000
00010000
00000000
00001100
00000000
,
00000001
00000010
00000100
00000000
00002000
00000000
00000010
00000000
,
00000000
00000100
00003100
00000000
00001000
00000001
00000100
00000010
,
00001000
00000000
00010000
00000000
01000000
00100000
10000000
00020000
,
00000000
00030000
00000000
00000000
00100000
01000000
10000000
00010000
,
01000000
00000000
00001000
00000000
00010000
00000100
00001000
00000200
,
00000300
00000010
00000001
00000000
00001000
00000001
00000100
00000010
,
00001000
00000000
00000100
00000000
00010000
00001000
00100000
00020000
,
00000000
00030000
00000000
00000000
01000000
00100000
10000000
01000000
,
00100000
00000000
01000000
00000000
10000000
00010000
01000000
00010000
,
00000000
00100000
00100000
00000000
00001000
00010000
00000100
00001000
,
00000100
00000000
00010000
00000000
00001000
00000100
00000001
00000200
,
00000000
00000300
00000000
00000000
00000010
00010000
00001000
00010000
,
01000000
00000000
00100000
00000000
00010000
10000000
00100000
20000000
,
30000000
01000000
00100000
00000000
00010000
01000000
00001000
00010000
,
00000100
00000000
00001000
00000000
00000001
00000100
00000010
00002000
,
00000000
00003000
00000000
00000000
00000100
00000010
00000100
00010000
,
00001000
01000000
00100000
00100000
,
10000000
00010000
10000000
00000000
01000000
00000000
00010000
00000000
,
00000000
00002000
00000000
00000000
00003100
00000000
00001000
00000000
,
00000000
00020000
00000000
00000000
00130000
00000000
00010000
00000000
,
00000000
00002000
00000000
00000000
00003010
00000000
00001000
00000000
,
00010000
01000000
00100000
00001000
,
00011000
00011000
00100000
00001000
,
00011000
00011000
00100000
00001000
,
00011000
00011000
00000010
00000010
,
00000100
00000001
00000002
00000000
00000000
00000000
00001000
00000000
,
00000003
00000001
00000100
00001000
00010000
00100000
01000000
00010000
,
10000000
00000000
01000000
00000000
00100000
00001000
00010000
00200000
,
00000000
00300000
00000000
00000000
01000000
00001000
00010000
00000100
,
00001000
00000000
00000001
00000000
00000100
00000010
00001000
00000200
,
00000300
00000010
00000001
00000000
00000100
00000010
00001000
00000001
,
00000010
00000000
00000100
00000000
00010000
00001000
00100000
00020000
,
00000000
00030000
00000000
00000000
01000000
00001000
00010000
00001000
,
00100000
00000000
01000000
00000000
10000000
00010000
10000000
00200000
,
00300000
01000000
01000000
00000000
00010000
00100000
01000000
00100000
,
00010000
00000000
01100000
00000000
00010000
01000000
00001000
00010000
,
00000100
00000000
00000110
00000000
00000010
00000001
00001000
00000001
,
00000100
00000000
00000110
00000000
00000010
00010000
00001000
00100000
,
01000000
00000000
01100000
00000000
01000000
10000000
00010000
01000000
,
00001000
00000000
00011000
00000000
00010000
00000100
00001000
00000001
,
00000100
00000000
00000110
00000000
00000010
00010000
00001000
00100000
,
01000000
00000000
01100000
00000000
00100000
00001000
00010000
00100000
,
00000000
10000000
20020000
00000000
00000000
00000000
00000000
00000000
,
00000000
30030000
00000000
00000000
;

//--------------- dance-double - forcednature ----------------
#NOTES:
     dance-double:
     forcednature:
     Hard:
     10:
     0,0,0,0,0:
00000000
00000000
00000000
00000000
,
00000000
00000000
00000000
00000000
,
00000000
00000000
00000000
00000000
,
00000000
00000000
00000000
00000000
,
00000000
00000000
00000000
00000000
,
00000000
00000000
00000000
00000000
00000100
00010000
00001000
00100000
,
00010000
00000000
10010000
00000000
01000000
00001000
00010000
00000010
,
00001000
00000000
00001001
00000000
00000100
00010000
00001000
00100000
,
00010000
00000000
10010000
00000000
10000000
01000000
00010000
01000000
,
00100000
00001000
00010000
00000000
01100000
00000000
00011000
00000000
,
00000000
00000100
00001000
00000001
00000100
00000000
00000110
00000000
,
00000000
00000010
00010000
00001000
00100000
00000000
01100000
00000000
,
00000000
00000000
01000000
00000000
10000000
00000000
00010000
00000000
01000000
00000000
00000000
00000000
00001000
00000000
00000000
00010000
,
00000000
00000100
00001000
00000001
00000101
00000000
00001010
00000000
,
00000000
00010000
00001000
00100000
00010000
00000000
10010000
00000000
,
00000000
10000000
00100000
00010000
00001000
00000000
00110000
00000000
,
00000000
01000000
00001000
00010000
00000100
00000001
00000100
00001000
,
00000000
00000010
00000110
00000000
00000001
00000100
00001000
00010000
,
00100000
00000000
00000000
01000000
00000000
00000000
00010000
00000000
10000000
00000000
01000000
00100000
00000000
00010000
00200000
00000000
,
00000000
00300000
00000000
00000000
01000000
10000000
00010000
01000000
,
00001000
00000000
00000000
00010000
00000000
00000000
00000100
00000000
00001000
00000000
00000001
00000100
00000000
00000010
00002000
00000000
,
00003000
00000100
00000010
00000100
00010000
00001000
01000000
00010000
,
10000000
00000000
00000000
01000000
00000000
00000000
00100000
00000000
00010000
00000000
01000000
00001000
00000000
00010000
00002000
00000000
,
00000000
00003000
00000000
00000000
00000010
00000100
00001000
00000001
,
00000100
00000000
00000000
00000010
00000000
00000000
00010000
00000000
00001000
00000000
00100000
00010000
00000000
10000000
00100000
00000000
,
01000000
00010000
10010000
00000000
10000000
01000000
00100000
00001000
,
00010000
00000000
00000000
00000010
00000000
00000000
00001000
00000000
00000001
00000000
00000010
00000100
00000000
00001000
00000200
00000000
,
00000000
00000300
00000000
00000000
00010000
00001000
01000000
00010000
,
10000000
00000000
00000000
00100000
00000000
00000000
10000000
00000000
01000000
00000000
00100000
00010000
00000000
00100000
00001000
00000000
,
00010000
00100000
01000000
00100000
10000000
00010000
10000000
01000000
,
00010000
00000000
00000000
00001000
00000000
00000000
00000010
00000000
00000001
00000000
00001000
00000001
00000000
00000100
00000002
00000000
,
00000000
00000003
00000000
00000000
00000010
00000100
00001000
00000100
,
00010000
00000000
00000000
00001000
00000000
00000000
01000000
00000000
00010000
00000000
10000000
00100000
00000000
10000000
00010000
00000000
,
10000000
01000000
00100000
00000000
01100000
00000000
00011000
00000000
,
00000000
00000200
00000000
00000300
00000110
00000000
00011000
00000000
,
00000000
02000000
00000000
03000000
01100000
00000000
00011000
00000000
,
00000000
00000200
00000000
00000300
00000110
00000000
00000001
00000100
,
00001000
00010000
01000000
00000000
00100000
00001000
01000000
00100000
,
00010000
00001000
00010000
00001000
00100000
00001000
01000000
00100000
,
00010000
00001000
00010000
00001000
00100000
00001000
01000000
00100000
,
00010000
00001000
00010000
00001000
00000010
00000100
00001000
00000001
,
00000100
00001000
00021000
00000000
00000000
00000000
01000000
00000000
,
00030000
00010000
00010000
00010000
00001000
01000000
00010000
10000000
,
01000000
00000000
00000000
00100000
00000000
00000000
00001000
00000000
00010000
00000000
00000010
00001000
00000000
00000001
00000200
00000000
,
00000000
00000300
00000000
00000000
00000010
00010000
00001000
00100000
,
00010000
00000000
00000000
10000000
00000000
00000000
00100000
00000000
01000000
00000000
00010000
01000000
00000000
00001000
00020000
00000000
,
00030000
00000100
00001000
00000001
00000100
00000001
00001000
00000100
,
00010000
00000000
00000000
00001000
00000000
00000000
00100000
00000000
00010000
00000000
10000000
00100000
00000000
01000000
00020000
00000000
,
00000000
00030000
00000000
00000000
10000000
01000000
00100000
00001000
,
00010000
00000000
00000000
00000100
00000000
00000000
00001000
00000000
00000001
00000000
00000100
00000010
00000000
00001000
00000001
00000000
,
00000010
00000100
00000110
00000000
00000100
00010000
00001000
01000000
,
00010000
00000000
00000000
10000000
01000000
00000000
00100000
00000000
00010000
00000000
01000000
00001000
00000000
00010000
00000200
00000000
,
00000000
00000300
00000000
00000000
00001000
00000001
00000100
00000010
,
00010000
00000000
00000000
00001000
00100000
00000000
00010000
00000000
10000000
00000000
00100000
01000000
00000000
00010000
20000000
00000000
,
30000000
01000000
00010000
00001000
00000010
00000001
00001000
00000001
,
00000100
00000000
00000000
00001000
00010000
00000000
00100000
00000000
10000000
00000000
00010000
10000000
00000000
01000000
00200000
00000000
,
00000000
00300000
00000000
00000000
01000000
10000000
00010000
01000000
,
00001000
00000000
00000000
00010000
00000100
00000000
00001000
00000000
00000001
00000000
00000100
00001000
00000000
00010000
00001000
00000000
,
00000010
00000100
00000220
00000000
00000000
00000000
00000000
00000000
,
00000000
00000330
00000000
00000000
;

//--------------- dance-double - forcednature ----------------
#NOTES:
     dance-double:
     forcednature:
     Challenge:
     12:
     0,0,0,0,0:
00000000
00000000
00000000
00000000
,
00000000
00000000
00000000
00000000
,
00000000
00000000
00000000
00000000
,
00000000
00000000
00000000
00000000
,
00000000
00000000
00000000
00000000
,
00000000
00000000
00000000
00000000
00001000
00010000
01000000
00010000
,
00001000
00010000
00000010
00010000
00001000
00010000
00100000
00010000
,
00001000
00010000
00000100
00010000
00001000
00010000
01000000
00010000
,
00001000
00010000
00000010
00010000
00001000
00000010
00000001
00001000
,
00000000
00000010
00000010
00000000
00000110
00000000
00022000
00000000
,
00033000
00000000
01000000
00010000
01000000
00010000
01000000
00000000
01100000
00000000
00000000
00000000
00022000
00000000
00000000
00000000
,
00033000
00000000
00000100
00001000
00000100
00001000
00000100
00000000
00000110
00000000
00000000
00000000
00022000
00000000
00000000
00000000
,
00033000
00000000
01000000
00010000
01000000
00010000
01000000
00000000
01100000
00000000
00000000
00000000
00010000
10000000
00000000
01000000
,
00100000
00010000
00001000
00000100
00000110
00000000
00022000
00000000
,
00033000
00000000
00100000
00010000
00100000
00010000
00100000
00000000
01100000
00000000
00000000
00000000
00022000
00000000
00000000
00000000
,
00033000
00000000
00000010
00001000
00000010
00001000
00000010
00000000
00000110
00000000
00000000
00000000
00022000
00000000
00000000
00000000
,
00033000
00000000
00100000
00010000
00100000
00010000
00100000
00000000
01000000
00000000
00010000
00000000
00000100
00000000
00001000
00000000
,
00000000
00000001
00000101
00000000
00000001
00001000
00000010
00000100
,
00001000
00000000
00000000
00010000
00000000
00000000
01000000
00000000
00100000
00000000
00010000
10000000
00000000
00100000
02000000
00000000
,
00000000
03000000
00000000
00000000
00010000
00100000
01000000
00100000
,
00001000
00000000
00000000
00010000
00000000
00000000
00000010
00000000
00001000
00000000
00000001
00000010
00000000
00000100
00002000
00000000
,
00003000
00000001
00000100
00001000
00010000
01000000
00100000
00001000
,
00010000
00000000
00000000
00100000
00000000
00000000
10000000
00000000
00010000
00000000
10000000
01000000
00000000
00100000
00020000
00000000
,
00000000
00030000
00000000
00000000
01000000
00001000
00010000
00000010
,
00010000
00000000
00000000
00001000
00000000
00000000
00000010
00000000
00000100
00000000
00001000
00000001
00000000
00000100
00000010
00000000
,
00010000
00001000
00011000
00000000
00100000
00010000
01000000
00001000
,
00010000
00000000
00000000
01000000
00100000
00000000
00010000
00000000
10000000
00000000
00100000
10000000
00000000
00010000
00200000
00000000
,
00000000
00300000
00000000
00000000
01000000
00010000
00001000
00000010
,
00000100
00000000
00000000
00001000
00000001
00000000
00000100
00000000
00000010
00000000
00010000
00001000
00000000
00100000
00010000
00000000
,
01000000
00001000
00010000
01000000
00100000
00001000
00010000
00100000
,
10000000
00000000
00000000
01000000
00100000
00000000
00010000
00000000
01000000
00000000
00001000
00010000
00000000
00000100
00002000
00000000
,
00000000
00003000
00000000
00000000
00000010
00010000
00001000
00000010
,
00000100
00000000
00000000
00001000
00000001
00000000
00000100
00000000
00000010
00010000
00000010
00000000
00010000
00001000
00010000
00000000
,
01000000
00100000
00010000
00000000
10020000
00000000
00001000
00000000
,
10030000
00010000
00001000
00000001
00002000
00000000
00010000
00000000
,
00003001
00001000
00010000
10000000
00020000
00000000
00001000
00000000
,
10030000
00010000
00001000
00000001
00002000
00000000
00010000
00000000
,
00003001
00001000
00010000
10000000
00100000
01000000
00001000
00010000
,
01000000
00100000
00001000
00010000
00000010
00000100
00001000
00010000
,
00000100
00000010
00001000
00010000
00100000
01000000
00001000
00010000
,
01000000
00100000
00001000
00010000
00000100
00001000
00000010
00000001
,
00000010
00001010
00002100
00000000
00000000
00000000
00103000
00000000
,
00000000
01100000
01100000
01100000
10010000
10000000
01000000
00100000
,
00001000
00000000
00000000
00001000
00010000
00000000
00000010
00000000
00001000
00000000
00000001
00000010
00000000
00000100
00002000
00000000
,
00000000
00000000
00003001
00000100
00000001
00000100
00000001
00000000
00000010
00000000
00001000
00000000
00010000
00000000
00100000
00000000
,
01000000
00000000
00000000
01000000
00010000
00000000
10000000
00000000
01000000
00000000
00100000
00001000
00000000
00010000
00200000
00000000
,
01300000
00010000
01000000
00000000
00100000
10000000
00100000
00000000
01000000
00000000
00001000
00000000
00010000
00000000
00000100
00000000
,
00001000
00000000
00000000
00001000
00000001
00000000
00000100
00000000
00000010
00000000
00010000
00001000
00000000
00100000
00020000
00000000
,
00000000
00000000
10030000
00100000
10000000
00100000
10000000
00000000
01000000
00000000
00100000
00000000
00010000
00000000
01000000
00000000
,
00001000
00000000
00000000
00001000
00010000
00000000
00000100
00000000
00001000
00000001
00001000
00000000
00000001
00001000
00000001
00000000
,
00000100
00000110
00001010
00000000
00000010
00010000
00001000
00010000
,
01000000
00000000
00000000
01000000
00100000
00000000
00010000
00000000
10000000
00000000
00100000
01000000
00000000
00010000
02000000
00000000
,
00000000
00000000
03001000
00010000
00001000
00010000
00001000
00000000
00000010
00000000
00000100
00000000
00001000
00000000
00000001
00000000
,
00000100
00000000
00000000
00000100
00000010
00000000
00001000
00000000
00010000
00000000
10000000
00100000
00000000
01000000
00020000
00000000
,
10030000
01000000
10000000
00000000
00010000
00100000
00010000
00000000
01000000
00000000
00001000
00000000
00010000
00000000
00000100
00000000
,
00001000
00000000
00000000
00001000
00000001
00000000
00000100
00000000
00000010
00000000
00010000
00001000
00000000
00100000
00020000
00000000
,
00000000
00000000
10030000
01000000
10000000
01000000
10000000
00000000
00100000
00000000
01000000
00000000
00001000
00000000
00010000
00000000
,
01000000
00000000
00000000
01000000
00100000
00000000
00001000
00000000
00010000
00000010
00010000
00000000
00000100
00001000
00000100
00000000
,
00000010
00000110
00002002
00000000
00000000
00000000
00000000
00000000
,
00000000
00003003
00000000
00000000
;
