#TITLE:Smile of Split;
#SUBTITLE:;
#ARTIST:猫叉Master;
#TITLETRANSLIT:;
#SUBTITLETRANSLIT:;
#ARTISTTRANSLIT:;
#GENRE:;
#CREDIT:;
#MUSIC:Smile of Split.mp3;
#BANNER:;
#BACKGROUND:;
#CDTITLE:;
#SAMPLESTART:92.894;
#SAMPLELENGTH:12.857;
#SELECTABLE:YES;
#OFFSET:1.868;
#BPMS:0.000=126.000;
#STOPS:166.000=0.476;
#BGCHANGES:;
#FGCHANGES:;

//--------------- dance-single - OrangeRight ----------------
#NOTES:
     dance-single:
     OrangeRight:
     Beginner:
     2:
     0,0,0,0,0:
0000
0000
0000
0000
,
0000
0000
0000
0000
,
0000
0000
0000
0000
,
0000
0000
0000
0000
,
0000
0000
0000
0000
,
1000
0000
0000
0000
,
1000
0000
1000
0000
,
0001
0000
0000
0000
,
0001
0000
0001
0000
,
1000
0000
0000
0000
,
0100
0000
0100
0000
,
0010
0000
0000
0000
,
0001
0000
1000
0000
,
0002
0000
0003
0000
,
0000
0000
0001
0000
,
2000
0000
3000
0000
,
0000
0000
1000
0000
,
0001
0000
0001
0000
,
0100
0000
0100
0000
,
0010
0000
0010
0000
,
0100
0000
0001
0000
,
1000
0000
1000
0000
,
0100
0000
0100
0000
,
0010
0000
0010
0000
,
0100
0000
1000
0000
,
0001
0000
1000
0000
,
1000
0000
0001
0000
,
1000
0000
0001
0000
,
0001
0000
1000
0000
,
0100
0000
0010
0000
,
0010
0000
0100
0000
,
1000
0000
0001
0000
,
1000
0000
0001
0000
,
1000
0000
0100
0000
,
1000
0000
0100
0000
,
0010
0000
0001
0000
,
0010
0000
0001
0000
,
0100
0000
0010
0000
,
0100
0000
0010
0000
,
1000
0000
0001
0000
,
1000
0000
0001
0000
,
0000
0000
0000
0000
0000
0000
0000
0000
0200
0300
0000
0000
0000
0000
0000
0000
,
0000
0000
0000
0000
,
0000
0000
0000
1000
,
0000
0000
0000
0000
,
0000
0000
0000
1000
,
0000
0100
0000
1000
,
0000
0100
0000
0010
,
0000
0001
0000
2000
,
0000
3000
0000
1000
,
0000
0001
0000
0100
,
0000
0000
0000
0001
,
0000
1000
0000
0100
,
0000
0000
0000
1000
,
0000
0100
0000
0010
,
0000
0000
0000
0001
,
0000
0100
0000
0010
,
0000
0000
0000
1000
,
1000
1000
0000
1000
,
0000
0100
0000
0010
,
0010
0010
0000
0001
,
0000
1000
0000
0001
,
0001
0001
0000
0000
,
0000
0001
0000
1000
,
1000
1000
0000
0000
;

//--------------- dance-single - OrangeRight ----------------
#NOTES:
     dance-single:
     OrangeRight:
     Easy:
     5:
     0,0,0,0,0:
0000
0000
0000
0000
,
0000
0000
0000
0000
,
0000
0000
0000
0000
,
0000
0000
0000
0000
,
0000
0000
0000
0000
,
2000
3000
0002
0003
,
0200
0300
0020
0230
,
0302
0003
2000
3000
,
0200
0300
2000
3002
,
2003
3000
0002
0003
,
0200
0300
0020
2030
,
3002
0003
2000
3000
,
0200
0300
0020
0230
,
2300
0001
3001
0000
,
1000
0000
0020
0230
,
0302
1000
1003
0100
,
0010
0001
1000
0001
,
1000
0100
0010
0100
,
1000
0010
0100
0000
,
0001
0010
0100
0010
,
0001
1000
0100
0000
,
1000
0001
0010
0001
,
1000
0100
0010
0100
,
1000
0010
0100
0001
,
1000
0100
0001
0100
,
2000
0000
0100
0000
,
3001
0100
0010
0000
,
1000
0010
0100
0010
,
1000
0001
0010
0000
,
0001
1000
0100
1000
,
0001
0010
0100
0010
,
0001
0100
0010
1000
,
0100
0001
0100
1001
,
1000
0010
0100
0001
,
1000
0010
0100
0100
,
0001
0010
0100
1000
,
0001
0010
0100
0100
,
1000
0001
0100
0010
,
1000
0001
0100
0100
,
0001
1000
0100
0010
,
0001
1000
0010
0100
,
0000
0000
0000
0000
0000
0000
0000
0000
2002
3003
0000
0000
1001
0000
0000
0000
,
0000
1000
0010
1000
,
0100
1000
0000
1001
,
0000
0001
0100
0001
,
0010
0001
0001
1000
,
0010
1000
0100
0010
,
0001
0010
0100
1000
,
0001
0100
0010
2000
,
0000
3001
0000
1000
,
0001
1001
0000
0001
,
0010
0100
1000
0001
,
1000
1001
0000
1000
,
0100
0010
0100
1000
,
0010
0110
0000
0001
,
0100
0010
1000
0002
,
0000
0013
0100
1000
,
0010
0000
0000
0000
0000
0000
0100
0000
0000
0000
0000
0000
0001
0000
0000
0000
0000
0000
1000
0000
0000
0000
0000
1000
,
0000
1000
0000
0000
1100
0000
0000
0000
,
1001
0000
0000
0000
0000
0000
0000
0000
0000
0000
0000
0000
0101
0000
0000
0000
0000
0000
0001
0000
0000
0000
0000
0001
,
0000
0001
0000
0000
0011
0000
0000
0000
,
1001
0000
0000
0000
0000
0000
0000
0000
0000
0000
0000
0000
1010
0000
0000
0000
0000
0000
1000
0000
0000
0000
0000
1000
,
0000
2000
0000
0000
3000
0000
0000
0000
,
0000
0000
0000
0000
0000
0000
0001
0000
0000
0000
0000
0000
1000
0000
0000
0000
0000
0000
0001
0000
0000
0000
0000
0001
,
0000
0002
0000
0000
0000
0000
0000
0000
,
0003
0000
0000
0000
;

//--------------- dance-single - OrangeRight ----------------
#NOTES:
     dance-single:
     OrangeRight:
     Medium:
     8:
     0,0,0,0,0:
0000
0000
0000
0000
,
0000
0000
0000
0000
,
0000
0000
0000
0000
,
0000
0000
0000
0000
,
0000
0000
0000
0000
,
1000
0000
0000
0000
0000
0000
0010
0000
0000
0000
0000
0100
0000
0000
0000
0000
0000
0000
0010
0000
0000
0000
0000
1000
,
0000
0000
0000
0000
0000
0000
0001
0000
0000
0000
0000
0010
0000
0000
0000
0000
0000
0000
0010
0000
0000
0000
0000
0000
,
0001
0000
0000
0000
0000
0000
0100
0000
0000
0000
0000
0010
0000
0000
0000
0000
0000
0000
0100
0000
0000
0000
0000
0001
,
0000
0000
0000
0000
0000
0000
1000
0000
0000
0000
0000
0100
0000
0000
0000
0000
0000
0000
0100
0000
0000
0000
0000
0000
,
0010
0000
0000
0000
0000
0000
0001
0000
0000
0000
0000
0100
0000
0000
0000
0000
0000
0000
0010
0000
0000
0000
0000
1000
,
0000
0000
0000
0000
0000
0000
0100
0000
0000
0000
0000
1000
0000
0000
0000
0000
0000
0000
1000
0000
0000
0000
0000
0000
,
0100
0000
0000
0000
0000
0000
1000
0000
0000
0000
0000
0010
0000
0000
0000
0000
0000
0000
0100
0000
0000
0000
0000
0001
,
0000
0000
0000
0000
0000
0000
1000
0000
0000
0000
0000
0001
0000
0000
0000
0000
0000
0000
0001
0000
0000
0000
0000
0000
,
1000
0000
0000
0000
0000
0010
0000
0000
0000
0200
0000
0000
0000
0000
0000
0001
0000
0000
0000
0000
0000
0000
0000
0000
,
0000
0000
0000
0010
0000
0000
0000
0000
0000
0000
0000
0302
0000
0000
0000
0000
0000
0000
2003
0000
0000
0000
0000
0000
,
3001
0000
0000
0000
0000
0010
0000
0000
0000
0100
0000
0000
2000
0000
0000
0000
0000
0000
3020
0000
0000
0000
0000
0000
,
0230
0000
0000
0000
0000
0000
0302
0000
0000
0000
0000
1003
0000
0000
0000
0000
0000
0000
0110
0000
0000
0000
0000
0000
,
0010
1000
0001
0000
0100
0001
1000
0000
,
0100
1000
0100
0000
0110
0000
1001
0000
,
0100
0001
1000
0000
0010
1000
0001
0000
,
0010
0001
0010
0000
0011
0000
1100
0000
,
1000
0010
0100
0000
0001
0100
0001
0000
,
0010
0100
1000
0000
1010
0000
0101
0000
,
0001
0100
0010
0000
1000
0010
0100
0000
,
0001
0010
0100
0000
1000
0001
1000
0001
,
2000
0010
0001
3100
,
1002
0000
0103
0001
1000
0000
1010
0000
,
0010
1000
0100
0010
0001
0000
1000
0000
,
0001
0000
0100
0001
0010
0000
0110
0000
,
1002
0000
0013
0001
1000
0000
0010
0000
,
0100
0000
0000
0001
0000
0000
0010
0000
0000
0000
0000
0100
0000
0000
0000
1000
0000
0000
0001
0000
0000
0000
0000
0000
,
2001
0000
3010
1000
0001
0000
0101
0000
,
0001
0000
0000
0100
0000
0000
0010
0000
1000
0000
0000
0100
0000
0000
0000
1000
0000
0000
0001
0000
0000
0000
0000
0000
,
1000
0100
0010
0000
0010
0001
0100
0000
,
0001
0100
0010
0000
0010
1000
0010
0000
,
1000
0010
0100
0000
0100
0001
0010
0000
,
0001
0010
0100
0000
0010
0100
0010
0000
,
0001
0100
0010
1000
0001
0100
0010
1000
,
0001
0000
0000
0010
0000
0000
0100
0000
0000
1000
0000
0000
0001
0000
0000
0000
0000
0010
0000
0000
0000
0100
0000
0000
,
1000
0010
0100
0001
1000
0010
0100
0001
,
1000
0000
0000
0100
0000
0000
0010
0000
0000
0001
0000
0000
1000
0000
0000
0000
0000
0001
0000
0000
0000
1000
0000
0000
,
0002
0000
0000
0000
0000
0000
0000
0000
2000
3003
0000
0000
1000
0000
0000
0000
,
0001
0000
0000
0000
0000
0010
0000
0000
0000
0001
0000
0000
1000
0000
0000
0000
0000
0010
0000
0000
0000
1000
0000
0000
,
0001
0000
0000
0000
0000
0100
0000
0000
0000
0010
0000
0000
1000
0000
0000
0000
0000
0000
0001
0000
0000
0000
0000
0000
,
1000
0000
0000
0000
0000
0010
0000
0000
0000
1000
0000
0000
0001
0000
0000
0000
0000
0010
0000
0000
0000
0001
0000
0000
,
1000
0000
0000
0000
0000
0100
0000
0000
0000
0010
0000
0000
0001
0000
0000
0000
0000
0000
1000
0000
0000
0000
0000
0000
,
0100
0000
0000
0000
0000
1000
0000
0000
0000
0100
0000
0000
0010
0000
0000
0000
0000
0100
0000
0000
0000
0010
0000
0000
,
0001
0000
0000
0000
0000
0010
0000
0000
0000
0001
0000
0000
1000
0000
0000
0000
0000
0000
0001
0000
0000
0000
0000
0000
,
0100
0000
0000
0000
0000
0001
0000
0000
0000
0100
0000
0000
0010
0000
0000
0000
0000
1000
0000
0000
0000
1000
0000
0000
,
0001
0000
0000
0000
0000
0000
2000
0000
0000
0000
0000
0000
3002
0000
0000
0000
0000
0000
1003
0000
0000
0000
0000
0100
,
0000
1000
0010
0000
0100
0001
0100
0000
,
0010
0000
0000
1000
0000
0000
0100
0000
0000
1000
0000
0000
0010
0000
0000
0000
0000
0000
1000
0000
0000
0000
0000
0010
,
0000
1000
0100
0000
0010
0001
0010
0000
,
0100
0000
0000
1000
0000
0000
0010
0000
0000
0100
0000
0000
0001
0000
0000
0000
0000
0000
1000
0000
0000
0000
0000
0001
,
0000
0100
0010
0000
1000
0100
0010
0000
,
0001
0100
0010
0100
0001
0000
0102
0000
,
0000
1003
0010
0000
1000
0100
0010
0000
,
0001
0000
0000
0100
0000
0000
0010
0000
0000
1000
0000
0000
0001
0000
0000
0000
0000
0000
1000
0000
0000
0000
0000
0001
,
0000
1001
0000
0001
0100
0000
0010
1000
,
0010
0000
0000
0000
0000
0000
1000
0000
0000
0100
0000
0000
0010
0000
0000
0000
0000
0000
0001
0000
0000
0000
0000
1000
,
0000
1001
0000
1000
0100
0000
0010
0001
,
0100
0000
0000
0010
0000
0000
1000
0000
0000
0000
0000
0001
0000
0000
0000
1000
0000
0000
0001
0000
0000
0000
0000
0010
,
0000
0012
0000
1000
0000
0000
0000
0100
,
0000
0000
0000
0000
0000
2003
0000
0000
0000
0000
0000
0000
3020
0000
0000
0000
0000
0000
1030
0000
0000
0000
0000
0001
,
0000
2002
0000
0000
0000
0000
0000
0000
,
3003
0000
0000
0000
;

//--------------- dance-single - OrangeRight ----------------
#NOTES:
     dance-single:
     OrangeRight:
     Hard:
     12:
     0,0,0,0,0:
0000
0000
0000
0000
,
0000
0000
0000
0000
,
0000
0000
0000
0000
,
0000
0000
0000
0000
,
0000
0000
0000
0000
,
2000
0000
0000
0000
0000
0000
0010
0000
0000
0000
0000
3200
0000
0000
0000
0000
0000
0000
0010
0000
0000
0000
0000
2300
,
0000
0000
0000
0000
0000
0000
0001
0000
0000
0000
0000
3020
0000
0000
0000
0000
0000
0000
0230
0000
0000
0000
0000
0000
,
0302
0000
0000
0000
0000
0000
0100
0000
0000
0000
0000
0023
0000
0000
0000
0000
0000
0000
0100
0000
0000
0000
0000
0032
,
0000
0000
0000
0000
0000
0000
1000
0000
0000
0000
0000
0203
0000
0000
0000
0000
0000
0000
0302
0000
0000
0000
0000
0000
,
1003
0000
0000
0100
0000
0000
1000
0000
0010
0000
0000
0100
0000
0000
0000
0001
0000
0000
0010
0000
0100
0000
0000
1000
,
0000
0000
0000
0100
0000
0000
0010
0000
0001
0000
0000
1000
0000
0000
0000
1000
0000
0000
0001
0000
0000
0100
0000
0000
,
0001
0000
0000
0010
0000
0000
0001
0000
0100
0000
0000
0010
0000
0000
0000
1000
0000
0000
0100
0000
0010
0000
0000
0001
,
0000
0000
0000
0010
0000
0000
0100
0000
1000
0000
0000
0010
0000
0000
0000
0100
0000
0000
0001
0000
0000
1000
0000
0000
,
0001
0000
0000
0000
0000
0100
0000
0000
0000
0020
0000
0000
0000
0000
0000
1000
0000
0000
0000
0000
0000
0000
0000
0000
,
0000
0000
0000
0100
0000
0000
0000
0000
0000
0000
0000
2030
0000
0000
0000
0000
0000
0000
3002
0000
0000
0000
0000
0000
,
1003
0000
0000
0000
0000
0100
0000
0000
0000
0010
0000
0000
0001
0000
0000
0100
0000
0000
0010
0000
0000
1000
0000
0000
,
0100
0000
0000
0010
0000
0000
0100
0000
0000
1000
0000
0001
0000
0000
0000
0000
0000
0000
0110
0000
0000
0010
0000
0000
,
1000
0000
0000
0100
0000
0000
1000
0000
0001
0000
0000
0100
0000
0000
0000
0001
0000
0000
0010
0000
0000
0000
0000
0110
,
0000
0000
0000
0100
0000
0000
1000
0000
0001
0000
0000
0100
0000
0000
0000
0010
0000
0000
2010
0000
0000
0000
0000
0000
,
3001
0000
0000
0010
0000
0000
0001
0000
1000
0000
0000
0010
0000
0000
0000
1000
0000
0000
0100
0000
0000
0000
0000
1100
,
0000
0000
0000
1000
0000
0000
0001
0000
1000
0000
0000
0010
0000
0000
0000
0100
0000
0000
0102
0000
0000
0000
0000
0000
,
0013
0000
0000
0001
0000
0000
0100
0000
0010
0000
0000
1000
0000
0000
0000
0001
0000
0000
0010
0000
0000
0000
0000
1100
,
0000
0000
0000
1000
0000
0000
0001
0000
0000
0000
0000
0101
0000
0000
0000
0100
0000
0000
0010
0000
0000
0000
0000
1010
,
0000
0000
0000
1000
0000
0000
0001
0000
1000
0000
0000
0010
0000
0000
0000
0100
0000
0000
0001
0000
0000
0000
0000
1100
,
0000
0000
0000
1000
0000
0000
0001
0000
1000
0000
0000
0100
0000
0000
0000
1000
0000
0000
2010
0000
0000
0000
0000
0000
,
3002
0000
0000
0000
0000
0000
0013
0000
0001
0000
0000
0200
0000
0000
0000
0000
0000
0000
0310
0000
0000
0000
0000
1010
,
0000
0000
0000
0010
0000
0000
1000
0000
0001
0000
0000
0010
0000
0000
0000
0001
0000
0000
0102
0000
0000
0000
0000
0000
,
1003
0000
0000
0100
0000
0000
1000
0000
0001
0000
0000
0100
0000
0000
0000
0010
0000
0000
1000
0000
0000
0000
0000
1010
,
0000
0000
0000
1000
0000
0000
0001
0000
1000
0000
0000
0100
0000
0000
0000
0010
0000
0000
0012
0000
0000
0000
0000
0000
,
0103
0000
0000
0010
0000
0000
1000
0000
0001
0000
0000
0001
0000
0000
0000
1000
0000
0000
0100
0000
0000
0010
0000
0001
,
0000
0000
0001
0100
0000
0000
0010
0000
0000
1000
0000
0100
0000
0000
0100
0010
0000
0000
0100
0000
0000
0000
0000
1100
,
0000
0000
0000
0100
0000
0000
1000
0000
0001
0000
0000
0100
0000
0000
0000
0010
0000
0000
1000
0000
0000
0000
0000
1010
,
0000
0000
0000
1000
0000
0000
0100
0000
0010
0000
0000
0011
0000
0000
0000
0001
0000
0000
0102
0000
0000
0000
0000
0000
,
1003
0000
0100
0000
0000
1000
0000
0000
0001
0000
0000
0100
0000
0000
0010
0000
0000
1000
0000
0000
0001
0000
0000
0000
,
0010
0000
0001
0000
0000
0100
0000
0000
0010
0000
0000
0100
0000
0000
0001
0000
0000
0010
0000
0000
0000
0011
0000
0000
,
0001
0000
0100
0000
0000
0001
0000
0000
1000
0000
0000
0100
0000
0000
0010
0000
0000
0001
0000
0000
1000
0000
0000
0000
,
0010
0000
1000
0000
0000
0100
0000
0000
0010
0000
0000
0001
0000
0000
0100
0000
0000
0010
0000
0000
0000
1010
0000
0000
,
1000
0000
0100
0000
0000
0010
0000
0000
0001
0000
0000
1000
0000
0000
0010
0000
0000
0100
0000
0000
0001
0000
0000
0000
,
0001
0000
0100
0000
0000
0010
0000
0000
1000
0000
0000
0100
0000
0000
1000
0000
0000
0001
0000
0000
0000
1001
0000
0000
,
0001
0000
0100
0000
0000
0010
0000
0000
1000
0000
0000
0001
0000
0000
0010
0000
0000
0100
0000
0000
1000
0000
0000
0000
,
0010
0000
0100
0000
0000
0001
0000
0000
1000
0000
0000
0100
0000
0000
0010
0000
0000
0001
0000
0000
0000
2000
0000
0000
,
0002
0000
0000
0000
0000
0000
3000
0000
0200
0303
0000
0000
0001
0000
0100
0000
,
0010
1000
0100
0001
0100
1000
0010
0001
,
0010
1000
0100
0010
0002
0000
1003
0010
,
0100
0001
0010
1000
0010
0001
0100
1000
,
0100
0001
0010
0100
1000
0001
1000
0100
,
1000
0000
0000
0010
0000
0100
0000
0000
0100
0001
0000
0000
1000
0000
0000
0100
0000
0010
0000
0000
0010
0001
0000
0000
,
1000
0000
0000
0010
0000
0100
0000
0000
0100
0001
0000
0000
1000
0000
0000
1000
0000
0000
0001
0000
0000
0100
0000
0000
,
0001
0000
0000
0010
0000
0100
0000
0000
0100
1000
0000
0000
0001
0000
0000
0100
0000
0010
2000
0000
0000
0000
0000
0000
,
3200
0000
0000
0000
0000
0000
0301
0000
0000
0100
0000
0000
1000
0000
0000
0010
0000
0000
0100
0000
0000
0001
0000
0010
,
0000
0000
0001
0100
0000
0000
0010
0000
0000
1000
0000
0000
0100
0000
0000
0010
0000
0100
1000
0000
0000
0010
0000
0000
,
0100
0000
0001
0000
0000
0010
0000
0000
0000
0100
0000
0000
1000
0000
0001
1000
0000
0000
0100
0000
0000
1000
0000
0010
,
0000
0000
1000
0100
0000
0000
0010
0000
0000
0001
0000
0000
0100
0000
0000
0010
0000
0100
0001
0000
0000
0010
0000
0000
,
0100
0000
1000
0000
0000
0010
0000
0000
0000
0100
0000
0000
0102
0000
0000
0000
0000
0000
0013
0000
0000
0001
0000
0010
,
0000
0000
0100
1000
0000
0000
0010
0000
0000
1000
0000
0000
0100
0000
0000
0010
0000
0001
0100
0000
0000
0010
0000
0000
,
1000
0000
0001
0000
0000
0011
0000
0000
0000
0010
0000
0000
0001
0000
1000
0000
0000
2020
0000
0000
0000
0000
0000
0000
,
3030
0000
0000
1001
0000
0000
0001
0000
0000
0100
0000
0000
0010
0000
1000
0000
0000
1100
0000
0000
0000
1000
0000
0000
,
0100
0000
0010
0000
0000
0011
0000
0000
0000
0001
0000
0000
0100
0000
0000
0010
0000
0000
1000
0000
0000
0100
0000
1000
,
0000
0000
0001
0010
0000
0000
0100
0000
0000
1000
0000
0000
0010
0000
0000
0001
0000
0000
0010
0000
0000
1000
0000
0000
,
0100
0000
0000
0010
0000
0001
1000
0000
0000
0001
0000
0000
2001
0000
0000
0000
0000
0000
3001
0000
0000
0100
0000
0001
,
0000
0000
1000
0010
0000
0000
1000
0000
0000
0100
0000
0000
0001
0000
0000
0100
0000
0000
1000
0000
0000
0010
0000
0000
,
0100
0000
0000
0001
0000
0010
0100
0000
0000
1000
0000
0001
0000
0000
0000
1001
0000
0000
1100
0000
0000
0000
0000
0110
,
0000
0012
0000
0100
0000
0000
0000
1003
,
0000
0000
0000
0000
0000
1001
0000
0000
0000
0000
0000
0000
0110
0000
0000
0000
0000
0000
0101
0000
0000
0000
0000
0110
,
0000
2020
0000
0000
0000
0000
0000
0000
,
3030
0000
0000
0000
;

//--------------- dance-double - OrangeRight ----------------
#NOTES:
     dance-double:
     OrangeRight:
     Easy:
     3:
     0,0,0,0,0:
00000000
00000000
00000000
00000000
,
00000000
00000000
00000000
00000000
,
00000000
00000000
00000000
00000000
,
00000000
00000000
00000000
00000000
,
00000000
00000000
00000000
00000000
,
20000000
30000000
00020000
00030000
,
02000000
03000000
00010000
00010000
,
00200000
00300000
00002000
00003000
,
00020000
00030000
00000100
00000100
,
00002000
00003000
00000002
00000003
,
00000200
00000300
00000010
00000010
,
00002000
00003000
00000200
00000300
,
00020000
00030000
00001000
00001000
,
00100000
00010000
00200000
00000000
,
00300000
00000000
00001000
00010000
,
00000010
00001000
00000020
00000000
,
00000030
00000000
00001000
00000100
,
00001000
00000000
00001000
00000000
,
00000001
00000100
00000001
00000000
,
00001000
00000000
00001000
00000000
,
00000100
00010000
00001000
00000000
,
00100000
00000000
00100000
00000000
,
00010000
01000000
00100000
10000000
,
00010000
00000000
00010000
00000000
,
00100000
01000000
10000000
00000000
,
20000000
00000000
00010000
00000000
,
30010000
01000000
00010000
00000000
,
00100000
00000000
00100000
00000000
,
00001000
00010000
00001000
00000000
,
00010000
00000000
00000100
00000000
,
00001000
00000010
00000100
00000001
,
00001000
00000000
00000001
00000000
,
00000100
00000010
00000100
00000010
,
00001000
00000000
00001000
00000000
,
00001000
00000100
00000020
00000030
,
00000001
00000000
00000001
00000000
,
00000001
00000100
00000020
00000030
,
00001000
00000100
00010000
00000000
,
00001000
00100000
00020000
00030000
,
00010000
01000000
00001000
00000000
,
00010000
00000010
00002000
00003000
,
00000002
00000000
00001003
00001001
,
00000000
00001000
00000000
00000100
,
00000000
00010000
00000000
00011000
,
00000000
00001000
00000000
00100000
,
00000000
00010000
00000000
10000000
,
00000000
00100000
00000000
01000000
,
00000000
00010000
00100000
00001000
,
00000000
00010000
00000000
00022000
,
00000000
00033000
00000000
00010000
,
00001000
00010000
00000000
00000100
,
00001000
00000100
00000000
00010000
,
00001000
00010000
00000000
00001000
,
00100000
00010000
01000000
00100000
,
10000000
00100000
00000000
01000000
,
00010000
00100000
00001000
00020000
,
00000000
00031000
00000000
00010000
,
00000100
00001000
00000100
00000010
,
00000001
00000200
00000300
00000010
,
00001000
00000100
00010000
00001000
,
01000000
00020000
00030000
01000000
,
00100000
00000000
00000000
00000000
00000000
00000000
10000000
00000000
00000000
00000000
00000000
00000000
00010000
00000000
00000000
00000000
00000000
00000000
10000000
00000000
00000000
00000000
00000000
10000000
,
00000000
20000000
00000000
00000000
30000000
00000000
00000000
00000000
,
00000000
00000000
00000000
00000000
00000000
00000000
00010000
00000000
00000000
00000000
00000000
00000000
01000000
00000000
00000000
00000000
00000000
00000000
00001000
00000000
00000000
00000000
00000000
00010000
,
00000000
00002000
00000000
00000000
00000000
00000000
00000000
00000000
,
00003000
00000000
00000000
00000000
;

//--------------- dance-double - OrangeRight ----------------
#NOTES:
     dance-double:
     OrangeRight:
     Medium:
     8:
     0,0,0,0,0:
00000000
00000000
00000000
00000000
,
00000000
00000000
00000000
00000000
,
00000000
00000000
00000000
00000000
,
00000000
00000000
00000000
00000000
,
00000000
00000000
00000000
00000000
,
10000000
00000000
00000000
00000000
00000000
00000000
01000000
00000000
00000000
00000000
00000000
00100000
00000000
00000000
00000000
00000000
00000000
00000000
01000000
00000000
00000000
00000000
00000000
10000000
,
00000000
00000000
00000000
00000000
00000000
00000000
00010000
00000000
00000000
00000000
00000000
01000000
00000000
00000000
00000000
00000000
00000000
00000000
00001000
00000000
00000000
00000000
00000000
00000000
,
00010000
00000000
00000000
00000000
00000000
00000000
00000100
00000000
00000000
00000000
00000000
00001000
00000000
00000000
00000000
00000000
00000000
00000000
00000010
00000000
00000000
00000000
00000000
00001000
,
00000000
00000000
00000000
00000000
00000000
00000000
00000100
00000000
00000000
00000000
00000000
00000010
00000000
00000000
00000000
00000000
00000000
00000000
00000001
00000000
00000000
00000000
00000000
00000000
,
00001000
00000000
00000000
00000000
00000000
00000000
00000010
00000000
00000000
00000000
00000000
00000100
00000000
00000000
00000000
00000000
00000000
00000000
00000010
00000000
00000000
00000000
00000000
00001000
,
00000000
00000000
00000000
00000000
00000000
00000000
00000100
00000000
00000000
00000000
00000000
00010000
00000000
00000000
00000000
00000000
00000000
00000000
00001000
00000000
00000000
00000000
00000000
00000000
,
00100000
00000000
00000000
00000000
00000000
00000000
00010000
00000000
00000000
00000000
00000000
01000000
00000000
00000000
00000000
00000000
00000000
00000000
00010000
00000000
00000000
00000000
00000000
00100000
,
00000000
00000000
00000000
00000000
00000000
00000000
01000000
00000000
00000000
00000000
00000000
10000000
00000000
00000000
00000000
00000000
00000000
00000000
00010000
00000000
00000000
00000000
00000000
00000000
,
10000000
00000000
00000000
00000000
00000000
10000000
00000000
00000000
00000000
20000000
00000000
00000000
00000000
00000000
00000000
00010000
00000000
00000000
00000000
00000000
00000000
00000000
00000000
00000000
,
00000000
00000000
00000000
00010000
00000000
00000000
00000000
00000000
00000000
00000000
00000000
30010000
00000000
00000000
00000000
00000000
00000000
00000000
01000000
00000000
00000000
00000000
00000000
00000000
,
00010000
00000000
00000000
00000000
00000000
00010000
00000000
00000000
00000000
00010000
00000000
00000000
00200000
00000000
00000000
00000000
00000000
00000000
00302000
00000000
00000000
00000000
00000000
00000000
,
00023000
00000000
00000000
00000000
00000000
00000000
00030200
00000000
00000000
00000000
00000000
00001300
00000000
00000000
00000000
00000000
00000000
00000000
00000001
00000000
00000000
00001000
00000000
00000000
,
00000010
00000000
00001000
00000100
00001000
00000000
00000100
00000000
,
00010000
00000000
00001000
00010000
00001000
00000000
00100000
00000000
,
00010000
01000000
00100000
00000000
10000000
00000000
01000000
00000000
,
00100000
00000000
00010000
01000000
00100000
01000000
00010000
00000000
,
01000000
00000000
00010000
00100000
00010000
00000000
00100000
00000000
,
00001000
00000000
00010000
00001000
00010000
00000000
00000100
00001000
,
00000100
00000000
00001000
00000010
00000100
00000000
00000001
00000000
,
00001000
00000000
00000010
00000100
00000001
00001000
00000001
00000000
,
00001002
00000010
00001003
00000000
,
00001010
00000000
00000010
00001000
00000100
00000000
00010000
00000000
,
00001000
00100000
00010000
00000000
01000000
00000000
00100000
00000000
,
10000000
00000000
00010000
00100000
01000000
00000000
10010000
00000000
,
10000000
00000000
00100000
01000000
00010000
00000000
00100000
00000000
,
00010000
00000000
01000000
00010000
00100000
00000000
00001000
00010000
,
00000100
00000000
00001000
00000010
00000100
00000000
00000001
00000000
,
00001000
00000000
00000100
00010000
00001000
00000000
00011000
00000000
,
00100000
00001000
00010000
00000000
00010000
00000100
00001000
00000000
,
00001000
00000010
00010000
00000000
00010000
00001000
01000000
00000000
,
01000000
00010000
00100000
00000000
00100000
00001000
00010000
00000000
,
00010000
00000100
00001000
00000000
00001000
00000010
00000100
00000000
,
00000001
00000100
00000010
00000000
00000100
00000010
00001000
00000000
,
00000100
00010000
00001000
00000000
00010000
00001000
00100000
00010000
,
10000000
00100000
01000000
00000000
00100000
01000000
00010000
00000000
,
00100000
00001000
00010000
00000100
01000000
00001000
00010000
00000010
,
00002000
00000000
00000000
00000000
00000000
00000000
00000000
00000000
00000002
00003003
00000000
00000000
00000101
00000000
00000000
00000000
,
00000001
00000000
00000000
00000000
00000000
00000100
00000000
00000000
00000000
00000001
00000000
00000000
00001000
00000000
00000000
00000000
00000000
00000100
00000000
00000000
00000000
00001000
00000000
00000000
,
00000100
00000000
00000000
00000000
00000000
00010000
00000000
00000000
00000000
00000100
00000000
00000000
00010000
00000000
00000000
00001000
00000000
00000000
00100000
00000000
00000000
00000000
00000000
00000000
,
00010000
00000000
00000000
00000000
00000000
01000000
00000000
00000000
00000000
00010000
00000000
00000000
10000000
00000000
00000000
00000000
00000000
01000000
00000000
00000000
00000000
10000000
00000000
00000000
,
00100000
00000000
00000000
00000000
00000000
01000000
00000000
00000000
00000000
00010000
00000000
00000000
10000000
00000000
00000000
00100000
00000000
00000000
10000000
00000000
00000000
01000000
00000000
00000000
,
10000000
00000000
00000000
00000000
00000000
00100000
00000000
00000000
00000000
01000000
00000000
00000000
00010000
00000000
00000000
00000000
00000000
00100000
00000000
00000000
00000000
00001000
00000000
00000000
,
00010000
00000000
00000000
00000000
00000000
00000100
00000000
00000000
00000000
00001000
00000000
00000000
00000001
00000000
00000000
00001000
00000000
00000000
00000001
00000000
00000000
00000010
00000000
00000000
,
00000001
00000000
00000000
00000000
00000000
00000100
00000000
00000000
00000000
00000010
00000000
00000000
00001000
00000000
00000000
00000000
00000000
00000001
00000000
00000000
00000000
00001000
00000000
00000000
,
00000002
00000000
00000000
00000000
00000000
00000000
00002003
00000000
00000000
00000000
00000000
00000000
00003100
00000000
00000000
00001000
00000000
00000000
00000010
00000000
00000000
00000000
00000000
00000100
,
00000000
00000001
00000010
00000100
00000010
00000000
00000001
00000100
,
00000010
00000000
00000000
00001000
00000000
00000000
00000100
00000000
00000000
00000000
00000000
00000000
00010000
00000000
00000000
00000000
00000000
00000000
00001000
00000000
00000000
00000000
00000000
00100000
,
00000000
00010000
01000000
00100000
01000000
00000000
00010000
01000000
,
00100000
00000000
00000000
10000000
00000000
00000000
01000000
00000000
00000000
00000000
00000000
00000000
10010000
00000000
00000000
00000000
00000000
00000000
10000000
00000000
00000000
00000000
00000000
01000000
,
00000000
00100000
00010000
10000000
00010000
00000000
01000000
00001000
,
00010000
00000100
00001000
00000000
00001000
00000100
00020000
00000000
,
00000000
00031000
00010000
00000000
00000100
00001000
00000010
00000100
,
00000001
00000000
00000000
00000010
00000000
00000000
00000100
00000000
00000000
00000000
00000000
00000000
00000110
00000000
00000000
00000000
00000000
00000000
00001000
00000000
00000000
00000000
00000000
00000001
,
00000000
00001001
00000000
00001000
00000100
00000000
00010000
00000000
,
00001000
00000000
00000000
00000000
00000000
00100000
00000000
00000000
00000000
00010000
00000000
00000000
10000000
00000000
00000000
00000000
00000000
00000000
00010000
00000000
00000000
00000000
00000000
10000000
,
00000000
10010000
00000000
00010000
01000000
00000000
00001000
00000000
,
00010000
00000000
00000000
00000000
00000000
00000100
00000000
00000000
00000000
00001000
00000000
00000000
00000010
00000000
00000000
00000000
00000000
00000000
00001000
00000000
00000000
00000000
00000000
00000100
,
00000000
00001200
00000000
00010000
00000000
00000000
00000000
00010300
,
00000000
00000000
00000000
00000000
00000000
00010000
00000000
00000000
00000000
00000000
00000000
00000000
00001000
00000000
00000000
00000000
00000000
00000000
00100000
00000000
00000000
00000000
00000000
00020000
,
00000000
02000000
00000000
00000000
00000000
00000000
00000000
00000000
,
03030000
00000000
00000000
00000000
;

//--------------- dance-double - OrangeRight ----------------
#NOTES:
     dance-double:
     OrangeRight:
     Hard:
     12:
     0,0,0,0,0:
00000000
00000000
00000000
00000000
,
00000000
00000000
00000000
00000000
,
00000000
00000000
00000000
00000000
,
00000000
00000000
00000000
00000000
,
00000000
00000000
00000000
00000000
,
20000000
00000000
00000000
00000000
00000000
00000000
31000000
00000000
00000000
00000000
00000000
00200000
00000000
00000000
00000000
00000000
00000000
00000000
00310000
00000000
00000000
00000000
00000000
02000000
,
00000000
00000000
00000000
00000000
00000000
00000000
03001000
00000000
00000000
00000000
00000000
00020000
00000000
00000000
00000000
00000000
00000000
00000000
00031000
00000000
00000000
00000000
00000000
00000000
,
00002000
00000000
00000000
00000000
00000000
00000000
00013000
00000000
00000000
00000000
00000000
00000200
00000000
00000000
00000000
00000000
00000000
00000000
00001300
00000000
00000000
00000000
00000000
00000020
,
00000000
00000000
00000000
00000000
00000000
00000000
00000130
00000000
00000000
00000000
00000000
00000002
00000000
00000000
00000000
00000000
00000000
00000000
00001003
00000000
00000000
00000000
00000000
00000000
,
00000001
00000000
00000000
00000010
00000000
00000000
00000001
00000000
00000000
00000000
00000000
00000100
00000000
00000000
00000000
00000010
00000000
00000000
00001000
00000000
00000000
00000000
00000000
00000100
,
00000000
00000000
00000000
00010000
00000000
00000000
00001000
00000000
00000000
00000000
00000000
00020000
00000000
00000000
00000000
00000000
00000000
00000000
00031000
00000000
00000000
00000000
00000000
00000000
,
00010000
00000000
00000000
00001000
00000000
00000000
00100000
00000000
00000000
00000000
00000000
00010000
00000000
00000000
00000000
01000000
00000000
00000000
00100000
00000000
00000000
00000000
00000000
10000000
,
00000000
00000000
00000000
00010000
00000000
00000000
10000000
00000000
00000000
00000000
00000000
01100000
00000000
00000000
00000000
00000000
00000000
00000000
10010000
00000000
00000000
00000000
00000000
00000000
,
20000000
00000000
00000000
00000000
00000000
01000000
00000000
00000000
00000000
30020000
00000000
00000000
00000000
00000000
00000000
01000000
00000000
00000000
00000000
00000000
00000000
00000000
00000000
00000000
,
00000000
00000000
00000000
00100000
00000000
00000000
00000000
00000000
00000000
00000000
00000000
00130000
00000000
00000000
00000000
00001000
00000000
00000000
00010000
00000000
00000000
00000000
00000000
00000000
,
00000100
00000000
00000000
00000000
00000000
00001000
00000000
00000000
00000000
00000010
00000000
00000000
00000100
00000000
00000000
00000001
00000000
00000000
00000010
00000000
00000000
00000100
00000000
00000000
,
00001000
00000000
00000000
00000100
00000000
00000000
00010000
00000000
00000000
00001000
00000000
00200000
00000000
00000000
00000000
00000000
00000000
00000000
00310000
00000000
00000000
01000000
00000000
00000000
,
00100000
00000000
00000000
10000000
00000000
00000000
00010000
00000000
00100000
00000000
00000000
00001000
00000000
00000000
00000000
00100000
00000000
00000000
00010000
00000000
00000000
00000000
00000000
01000000
,
00000000
00000000
00000000
00100000
00000000
00000000
10000000
00000000
00010000
00000000
00000000
10000000
00000000
00000000
00000000
00010000
00000000
00000000
02010000
00000000
00000000
00000000
00000000
00000000
,
03001000
00000000
00000000
00010000
00000000
00000000
00000100
00000000
00001000
00000000
00000000
00000010
00000000
00000000
00000000
00000100
00000000
00000000
00000001
00000000
00000000
00000000
00000000
00001000
,
00000000
00000000
00000000
00000010
00000000
00000000
00001000
00000000
00000100
00000000
00000000
00000010
00000000
00000000
00000000
00000100
00000000
00000000
00002100
00000000
00000000
00000000
00000000
00000000
,
00003001
00000000
00000000
00000100
00000000
00000000
00000010
00000000
00001000
00000000
00000000
00000100
00000000
00000000
00000000
00010000
00000000
00000000
00000100
00000000
00000000
00000000
00000000
00001000
,
00000000
00000000
00000000
00000010
00000000
00000000
00000100
00000000
00000000
00000000
00000000
00000101
00000000
00000000
00000000
00000001
00000000
00000000
00001000
00000000
00000000
00000000
00000000
00001100
,
00000000
00000000
00000000
00000100
00000000
00000000
00010000
00000000
00001000
00000000
00000000
00100000
00000000
00000000
00000000
00010000
00000000
00000000
01000000
00000000
00000000
00000000
00000000
00100000
,
00000000
00000000
00000000
10000000
00000000
00000000
00010000
00000000
00100000
00000000
00000000
01000000
00000000
00000000
00000000
10000000
00000000
00000000
00010000
00000000
00000000
10000000
00000000
00000000
,
20100000
00000000
00000000
00000000
00000000
00000000
01000000
00000000
00000000
00000000
00000000
00000000
00010000
00000000
00000000
00000000
00000000
00000000
30100000
00000000
00000000
00000000
00000000
01100000
,
00000000
00000000
00000000
01000000
00000000
00000000
00010000
00000000
00100000
00000000
00000000
00001000
00000000
00000000
00000000
00010000
00000000
00000000
00000100
00000000
00000000
00000000
00000000
00000000
,
00001000
00000000
00000000
00000010
00000000
00000000
00000100
00000000
00000001
00000000
00000000
00000010
00000000
00000000
00000000
00000100
00000000
00000000
00010000
00000000
00000000
00000000
00000000
00011000
,
00000000
00000000
00000000
00001000
00000000
00000000
00100000
00000000
00010000
00000000
00000000
01000000
00000000
00000000
00000000
00100000
00000000
00000000
01200000
00000000
00000000
00000000
00000000
00000000
,
10300000
00000000
00000000
01000000
00000000
00000000
00100000
00000000
00010000
00000000
00000000
01000000
00000000
00000000
00000000
00001000
00000000
00000000
00010000
00000000
00000000
00000000
00000000
00011000
,
00000000
00000000
00000000
00010000
00000000
00000000
00000100
00000000
00000000
00001000
00000000
00000010
00000000
00000000
00000000
00001000
00000000
00000000
00000100
00000000
00000000
00010000
00000000
00001000
,
00000000
00000000
00000000
00100000
00000000
00000000
00010000
00000000
01000000
00000000
00000000
00100000
00000000
00000000
00000000
10000000
00000000
00000000
00010000
00000000
00000000
00000000
00000000
10010000
,
00000000
00000000
00000000
10000000
00000000
00000000
01000000
00000000
00100000
00000000
00000000
00010000
00000000
00000000
00000000
00100000
00000000
00000000
00120000
00000000
00000000
00000000
00000000
00000000
,
10030000
00000000
00000000
01000000
00000000
00000000
00100000
00000000
00000000
00010000
00000000
00000000
01000000
00000000
00000000
00001000
00000000
00010000
00000000
00000000
00000100
00001000
00000000
00000000
,
00000010
00000000
00000000
00000100
00000000
00000000
00000001
00000000
00000000
00000010
00000000
00000000
00001000
00000000
00000000
00000010
00000000
00000001
00000000
00000000
00000100
00000010
00000000
00000000
,
00001000
00000000
00000000
00000100
00000000
00000000
00010000
00000000
00000000
00001000
00000000
00000000
00100000
00000000
00000000
00010000
00000000
01000000
00000000
00000000
00100000
10000000
00000000
00000000
,
00010000
00000000
00000000
00100000
00000000
00000000
10000000
00000000
00000000
00100000
00000000
00000000
00010000
00000000
00000000
01000000
00000000
00100000
00000000
00000000
10000000
01000000
00000000
00000000
,
10000000
00000000
00100000
00000000
00000000
00010000
00000000
00000000
00100000
00000000
00000000
10000000
00000000
00000000
01000000
00000000
00000000
00100000
00000000
00000000
00010000
00000000
00000000
00000000
,
00100000
00000000
00001000
00000000
00000000
00010000
00000000
00000000
00000100
00000000
00000000
00001000
00000000
00000000
00000010
00000000
00000000
00000001
00000000
00000000
00000000
00000010
00000000
00000000
,
00001000
00000000
00000100
00000000
00000000
00000010
00000000
00000000
00000001
00000000
00000000
00000100
00000000
00000000
00001000
00000000
00000000
00000100
00000000
00000000
00000001
00000000
00000000
00000000
,
00000010
00000000
00000100
00000000
00000000
00001000
00000000
00000000
00000100
00000000
00000000
00010000
00000000
00000000
00001000
00000000
00000000
00100000
00000000
00000000
00000000
00020000
00000000
00000000
,
20000000
00000000
00000000
00000000
00000000
00000000
00030000
00000000
02000000
33000000
00000000
00000000
10000000
00000000
00100000
00000000
,
10000000
01000000
00010000
01000000
10000000
00100000
00010000
00100000
,
01000000
00001000
00010000
00000100
00002000
00000000
00003001
00000100
,
00000001
00000010
00001000
00000010
00000001
00000100
00001000
00000100
,
00000010
00010000
00001000
00100000
00010000
01000000
00100000
10000000
,
01000000
00000000
00000000
10000000
00000000
00100000
00000000
00000000
00100000
01000000
00000000
00000000
00010000
00000000
00000000
00100000
00000000
00001000
00000000
00000000
00001000
00100000
00000000
00000000
,
00001000
00000000
00000000
00010000
00000000
00000100
00000000
00000000
00000100
00010000
00000000
00000000
00001000
00000000
00000000
00010000
00000000
00000000
00000100
00000000
00000000
00001000
00000000
00000000
,
00000010
00000000
00000000
00000100
00000000
00000001
00000000
00000000
00001000
00000100
00000000
00000000
00000010
00000000
00000000
00000001
00000000
00001000
00000002
00000000
00000000
00000000
00000000
00000000
,
00000203
00000000
00000000
00000000
00000000
00000000
00000310
00000000
00000000
00001000
00000000
00000000
00000001
00000000
00000000
00000010
00000000
00000000
00000001
00000000
00000000
00000000
00000000
00000001
,
00000100
00000000
00000000
00000010
00000000
00000000
00001000
00000000
00000000
00000100
00000000
00000000
00010000
00000000
00000000
00000000
00000000
00010000
00001000
00000000
00000000
00100000
00000000
00000000
,
00010000
00000000
01000000
00000000
00000000
10000000
00000000
00000000
00000000
01000000
00000000
00000000
00020000
00000000
00000000
00000000
00000000
00000000
10030000
00000000
00000000
00000000
00000000
10000000
,
01000000
00000000
00000000
00100000
00000000
00000000
00010000
00000000
00000000
01000000
00000000
00000000
00001000
00000000
00000000
00000000
00000000
00001000
00010000
00000000
00000000
00000010
00000000
00000000
,
00001000
00000000
00000100
00000000
00000000
00000001
00000000
00000000
00000000
00000100
00000000
00000000
00002000
00000000
00000000
00000000
00000000
00000000
00003010
00000000
00000000
00000100
00000000
00000001
,
00000000
00000000
00000010
00000100
00000000
00000000
00001000
00000000
00000000
00000100
00000000
00000000
00010000
00000000
00000000
00001000
00000000
00100000
00001000
00000000
00000000
00010000
00000000
00000000
,
00000100
00000000
00000000
00010000
00000000
00001000
00010000
00000000
00000000
00001000
00000000
00000000
00100000
00000000
00000000
00010000
00000000
01000000
00200000
00000000
00000000
00000000
00000000
00000000
,
00300000
00000000
00000000
10100000
00000000
00000000
10000000
00000000
00000000
01000000
00000000
00000000
00010000
00000000
00000000
01000000
00000000
10000000
00100000
00000000
00000000
01000000
00000000
00000000
,
00010000
00000000
00100000
00000000
00000000
10000000
00000000
00000000
00000000
00100000
00000000
00000000
00020000
00000000
00000000
00000000
00000000
00000000
10030000
00000000
00000000
00100000
00000000
01000000
,
00000000
00000000
01000000
00010000
00000000
00000000
00100000
00000000
00000000
00001000
00000000
00000000
00010000
00000000
00000000
00000100
00000000
00000000
00001000
00000000
00000000
00000010
00000000
00000000
,
00000001
00000000
00000000
00000010
00000000
00001000
00000000
00000000
00001000
00000100
00000000
00000000
00000120
00000000
00000000
00000000
00000000
00000000
00000031
00000000
00000000
00000100
00000000
00000010
,
00000000
00000000
00001000
00000100
00000000
00000000
00010000
00000000
00000000
00001000
00000000
00000000
00100000
00000000
00000000
00010000
00000000
00000000
01000000
00000000
00000000
10000000
00000000
00000000
,
01000000
00000000
00000000
00010000
00000000
00100000
00000000
00000000
01000000
10000000
00000000
00000000
10010000
00000000
00000000
00000000
00000000
00000000
10100000
00000000
00000000
00000000
00000000
01100000
,
00000000
01020000
00000000
10000000
00000000
00000000
00000000
00130000
,
00000000
00000000
00000000
00000000
00000000
00101000
00000000
00000000
00000000
00000000
00000000
00000000
00010100
00000000
00000000
00000000
00000000
00000000
00001010
00000000
00000000
00000000
00000000
00001001
,
00000000
00000202
00000000
00000000
00000000
00000000
00000000
00000000
,
00000303
00000000
00000000
00000000
;
