#TITLE:Smile The Night Away;
#SUBTITLE:;
#ARTIST:Scotty D.;
#TITLETRANSLIT:;
#SUBTITLETRANSLIT:;
#ARTISTTRANSLIT:;
#GENRE:;
#CREDIT:;
#MUSIC:Smile The Night Away.ogg;
#BANNER:;
#BACKGROUND:;
#CDTITLE:;
#SAMPLESTART:45.771;
#SAMPLELENGTH:14.359;
#SELECTABLE:YES;
#OFFSET:-0.643;
#BPMS:0.000=117.000;
#STOPS:24.000=0.513;
#BGCHANGES:;
#FGCHANGES:;

//--------------- dance-single - eataninja ----------------
#NOTES:
     dance-single:
     eataninja:
     Beginner:
     2:
     0,0,0,0,0:
0000
0000
0000
0000
,
0000
0000
0000
0000
,
0000
0000
0000
0000
,
0000
0000
0000
0000
,
1000
0000
0001
0000
,
0100
0000
0100
0020
,
0000
0030
0000
1001
,
0000
1000
0000
0010
,
0000
0100
0000
0001
,
0000
0010
0000
0100
,
0100
0100
0000
1001
,
0000
0001
0000
0100
,
0000
0010
0000
1000
,
0000
0001
0000
1000
,
0000
0000
0000
1001
,
0000
1001
0000
0010
,
0000
0100
0000
0002
,
0000
0000
0003
0001
,
0000
0000
0000
1001
,
0000
1001
0000
0010
,
0000
0100
0000
2000
,
0000
0000
3000
1000
,
0000
0010
0100
0000
,
0001
0000
0001
0000
,
1000
0000
1000
0000
,
0010
0000
0010
0000
,
0100
0000
0001
0000
,
1000
0000
1000
0000
,
0100
0000
0010
0000
,
0001
0000
0001
0000
,
0100
0000
0100
0000
,
0001
0000
0001
0000
,
1000
0000
1000
0000
,
0100
0000
0100
0000
,
0010
0000
0010
0000
,
0001
0000
0001
0000
,
0100
0000
0001
0000
,
1000
0000
1000
0000
,
0001
0000
0010
0000
,
0000
0110
0000
0110
,
0000
1000
0000
0001
,
0000
0200
0000
0000
,
0300
0100
0000
0010
,
0010
0000
0000
0000
;

//--------------- dance-single - eataninja ----------------
#NOTES:
     dance-single:
     eataninja:
     Easy:
     6:
     0,0,0,0,0:
0000
0000
0000
0000
,
0000
0000
0000
0000
,
0000
0000
0000
0000
,
0000
0000
0000
0000
,
0001
0100
0001
0000
,
1000
0000
1000
0000
0001
0000
0010
0200
,
0000
0000
0300
1001
,
0100
0000
0010
0000
0000
0000
0001
1000
,
0001
2000
3010
0100
,
0010
0000
1000
0000
0000
0000
0001
0010
,
0100
1000
0000
1001
,
0010
0100
0000
0001
,
0001
0000
1000
0100
1000
0000
0002
0000
,
0103
2000
3100
0002
,
0000
1000
1003
0010
,
0110
0010
0110
1000
,
0001
0010
0100
2000
,
3020
0032
0023
0130
,
0000
0001
1000
0100
,
0110
0100
0110
1000
,
0001
0100
0001
0020
,
2030
3020
0230
1300
,
0000
1001
0110
0100
,
0001
1000
1000
0001
,
0010
0000
0100
0100
0100
0000
1000
0000
,
0001
0000
1000
0000
0010
0000
0001
0010
,
1000
0001
0101
1000
,
0001
0000
0010
0000
0100
0000
1000
1000
,
0001
0100
0010
1000
,
0100
0000
0010
0001
1000
0000
0010
0000
,
0110
0000
0001
0001
0001
0000
1000
0000
,
0100
0000
0001
0100
1000
0000
0010
0000
,
0100
0001
0001
1000
,
0010
0000
0001
0010
1000
0000
0001
0000
,
0010
0000
0200
0000
2300
0000
3001
0001
,
1000
0000
0010
0000
0100
0000
0001
1000
,
0001
0010
0100
1000
,
0001
0100
0100
1001
,
0110
0000
0001
1000
0100
0000
0000
0000
,
0000
1000
1010
0001
,
0011
0000
1000
0000
0001
0000
0010
0100
,
1000
0002
2003
3020
,
0230
0301
0000
0010
,
0010
0000
0000
0000
;

//--------------- dance-single - eataninja ----------------
#NOTES:
     dance-single:
     eataninja:
     Medium:
     8:
     0,0,0,0,0:
0000
0000
0000
0000
,
0000
0000
0000
0000
,
0000
0000
0000
0000
,
0000
0000
0000
0000
,
0001
0000
0001
0100
1000
0000
1000
0000
,
0100
0000
0010
0000
1000
0100
0010
0002
,
0000
1000
0103
0110
,
1000
0001
0010
0000
0100
0000
1000
0001
,
1000
1000
0020
0000
0230
0000
0301
0000
,
1000
0100
0010
0000
0001
0000
1000
0010
,
0001
0010
1000
0000
0000
0000
1001
0000
,
0010
0100
0001
0000
1000
0000
0001
0001
,
1000
0000
0100
0100
0010
0000
0002
0000
,
1000
0023
1000
0230
,
0000
0000
1300
0001
1000
0100
0000
0100
,
1000
0001
0000
0001
0100
0010
1000
0000
,
0001
0000
0010
0100
1000
0000
0002
0000
,
0203
0320
2030
3001
,
0000
0000
0010
0100
1000
0001
0000
0001
,
1000
0010
0000
0010
0100
0001
1000
0000
,
0100
0000
0010
0001
1000
0000
0020
0000
,
0032
0023
2030
3001
,
0000
0000
0000
0000
1000
0000
0100
0000
0010
0000
0000
0001
0000
0000
0000
0000
,
1001
0000
1000
0010
0100
0000
0001
0010
,
0100
1000
0001
0001
1000
0000
0010
0000
,
0110
0000
0001
1000
0001
0000
0010
1000
,
0010
0000
0100
1000
1000
0000
0001
0000
,
0100
0000
1000
0100
0001
0000
0010
0100
,
1000
0000
0100
0010
0001
0000
1000
0010
,
1000
1000
0001
0010
0100
0000
1000
0001
,
1000
0000
0010
0000
0110
0000
0001
1000
,
0001
0001
0010
0100
1000
0000
1000
0010
,
0001
0000
0001
0010
1000
0000
0100
0010
,
0001
0001
1000
0001
0100
0000
1000
0100
,
0001
0020
0230
1300
,
0001
1000
0001
0000
0100
0010
1000
0000
,
0001
0010
0100
0100
1000
0000
0001
0000
,
0100
1000
0100
0001
1000
0000
1001
1000
,
0100
0000
0010
0010
1001
0000
0000
0100
,
0010
0100
0000
0100
0001
1000
0000
1000
,
0100
0010
0001
0000
0011
0000
1000
0001
,
0100
2000
3200
0302
,
2003
0000
3100
0010
0001
0000
1000
1000
,
0001
0000
0000
0100
0000
0000
0000
0000
0000
0000
0000
0000
0000
0000
0000
0000
;

//--------------- dance-single - eataninja ----------------
#NOTES:
     dance-single:
     eataninja:
     Hard:
     11:
     0,0,0,0,0:
0000
0000
0000
0000
,
0000
0000
0000
0000
,
1000
0000
0001
0100
0001
0000
0010
0000
,
0100
0000
0000
0000
1000
0000
0000
0000
0010
0100
0000
0000
0001
1000
0000
0000
,
0100
0000
1000
0001
1000
0000
0010
0000
,
0100
0001
0001
1000
0100
0001
0100
0020
,
0000
0000
1000
0000
0031
0000
0010
0001
,
1000
0000
0010
0100
0101
0000
1000
1000
,
0001
0010
0210
0000
1300
0000
0001
1000
,
1000
0010
0100
0000
0101
0001
1000
0100
,
0001
0100
0010
0000
0001
0001
1000
0010
,
0100
0000
0001
1000
1100
0000
0001
0001
,
1000
0010
0010
0100
0100
0001
2000
0000
,
3100
0001
0200
0000
0310
0001
2000
0000
,
3010
0000
0110
0100
1001
0000
0001
0100
,
1000
0100
0001
0010
1000
0010
0001
1000
,
0010
1000
0001
0010
0100
1000
0001
0001
,
0101
0000
1000
1000
1100
0000
0010
0001
,
1000
0001
0010
0100
0110
1002
0000
0013
,
1000
0010
0001
0100
1000
0100
0001
1000
,
0100
1000
0001
0100
0010
1000
0001
0001
,
0011
0000
1000
1000
1010
0000
0001
0100
,
0001
0000
0100
0000
0010
0000
1000
0000
0100
0000
0010
0001
0000
0000
1000
0000
,
0010
0100
0000
0001
0000
0000
1000
0000
0010
0100
0000
0001
0000
0000
0001
0000
,
1000
0000
0001
0000
0010
0000
0100
1000
0000
0000
1001
0000
0001
0000
0100
0000
,
0010
1000
0000
0001
0000
0000
0010
0000
0100
0010
0100
0000
0001
0000
0100
1000
,
0000
0000
0010
0100
0010
0000
1000
0000
0001
0000
0000
0000
1000
0000
0010
0000
,
0100
0010
0000
1000
0000
0000
0010
0000
0100
0010
0000
1000
0000
0000
0001
0000
,
1000
0001
0010
0100
1100
0000
0001
1000
,
0010
0100
0000
0001
0000
0000
1000
0100
1000
0000
0001
0000
0010
0000
1000
0000
,
0010
0000
0001
0000
1000
0000
1000
0000
0010
0100
0000
0000
0001
0000
1000
0000
,
1000
0001
0010
1000
0010
0001
1000
0010
,
0100
0000
0001
0000
1000
0100
0010
0000
0001
1000
0001
0000
1000
0000
0010
0000
,
0100
0000
0010
0000
1000
0000
1000
0000
0001
0000
0010
0000
1000
0010
0000
0100
,
0000
0100
0010
0000
0002
0000
0000
0103
2000
0000
0000
3100
0010
0000
1000
0000
,
0001
1000
0100
0010
0001
1000
0010
0100
,
0010
0100
0001
0000
1000
0000
0100
0000
0010
0000
2000
0000
0000
0000
3010
0000
,
0001
1000
0000
0100
0000
0000
1000
0000
0001
0000
0100
0000
0110
0000
0010
0000
,
1001
0000
0100
0010
0001
1000
0000
0010
,
0100
0001
1000
0100
0001
0100
1000
0010
,
0001
0010
1000
0001
1000
1000
0100
0010
,
0001
0100
0010
0010
0110
0000
1000
1000
,
1001
0000
0010
0100
1000
0001
1000
0010
,
0001
0000
0010
0100
0000
0000
0000
0000
0000
0000
0000
0000
0000
0000
0000
0000
;
