#VERSION:0.83;
#TITLE:Situation Critical;
#SUBTITLE:;
#ARTIST:Big Idea feat. McCall Clark;
#TITLETRANSLIT:;
#SUBTITLETRANSLIT:;
#ARTISTTRANSLIT:;
#GENRE:;
#CREDIT:;
#MUSIC:Situation Critical.mp3;
#BANNER:;
#BACKGROUND:;
#CDTITLE:;
#SAMPLESTART:40.827;
#SAMPLELENGTH:18.113;
#SELECTABLE:YES;
#OFFSET:-0.072;
#BPMS:0.000=106.000;
#STOPS:;
#BGCHANGES:;
#FGCHANGES:;

//--------------- dance-single - eataninja ----------------
#NOTEDATA:;
#STEPSTYPE:dance-single;
#DESCRIPTION:eataninja;
#DIFFICULTY:Beginner;
#METER:2;
#RADARVALUES:0,0,0,0,0;
#NOTES:
0000
0000
0000
0000
,
0000
0000
0000
0000
,
1001
0000
1000
0000
,
0010
0000
1000
0000
,
1001
0000
0001
0000
,
0010
0000
0001
0000
,
0100
0100
0100
0000
,
0010
0010
0010
0000
,
1001
0000
1000
0000
,
0010
0100
0010
0000
,
0110
0000
0100
0000
,
0001
0000
0010
0000
,
0110
0000
0100
0000
,
1000
0000
0010
0000
,
0100
0100
0100
0000
,
0010
0010
0010
0000
,
1001
0000
0001
0000
,
0010
0100
0010
0000
,
0220
0330
0000
0000
,
2002
3003
0000
0000
,
0220
0330
0000
0000
,
1000
0000
0001
0000
,
2002
3003
0000
0000
,
0220
0330
0000
0000
,
0100
0000
0001
0000
,
0100
0000
1000
0000
,
2002
3003
0000
0000
,
0220
0330
0000
0000
,
2002
3003
0000
0000
,
0100
0000
0010
0000
,
0220
0330
0000
0000
,
2002
3003
0000
0000
,
0001
0000
0100
0000
,
1000
0000
0100
0000
,
1000
1000
0001
0000
,
0001
0001
1000
0000
,
1000
0000
0100
0000
,
0001
0000
0100
0000
,
1000
0000
0010
0000
,
0001
0000
0010
0000
,
2000
0000
3000
0000
;

//--------------- dance-single - MEGAtive ----------------
#NOTEDATA:;
#STEPSTYPE:dance-single;
#DESCRIPTION:MEGAtive;
#DIFFICULTY:Easy;
#METER:7;
#RADARVALUES:0,0,0,0,0;
#NOTES:
0000
0000
0000
0000
,
0000
0000
0000
0000
,
0011
0000
0001
0000
1000
0010
1000
0000
,
0001
0000
0010
0000
0001
1000
0001
0000
,
1001
0000
1000
0010
1000
0000
0001
0000
,
0010
0000
0001
1000
0001
0000
0100
0000
,
1001
0000
0001
0010
0001
0000
1000
0000
,
1001
0000
0001
0100
0001
0000
1000
0000
,
1001
0000
0001
0010
0001
0010
0100
0000
,
1000
0000
0010
0100
0010
0100
0001
0000
,
0101
0000
0001
0000
1000
0100
1000
0000
,
0001
0000
0100
0000
0001
1000
0001
0000
,
1001
0000
1000
0100
1000
0000
0001
0000
,
0100
0000
0001
1000
0001
0000
0010
0000
,
1001
0000
0001
0100
0001
0000
1000
0000
,
1001
0000
0001
0010
0001
0000
1000
0000
,
1001
0000
0001
0100
0001
0100
0010
0000
,
1000
0000
0100
0010
0100
0010
0001
0000
,
1001
0000
1000
0010
1000
0000
0001
0010
,
0001
0000
1000
0010
1000
0001
0010
0000
,
1001
0000
0001
0100
0001
0000
1000
0100
,
1000
0000
0001
0100
0001
1000
0100
0000
,
1001
0000
1000
0000
0010
0100
0010
0000
,
0110
0000
0100
0000
0001
1000
0001
0000
,
1001
0000
1000
0100
1000
0000
0001
0100
,
0001
0000
0010
0100
0010
0000
0001
1000
,
0001
0000
1000
0100
1000
0000
0001
0100
,
0001
0000
1000
0100
1000
0001
0100
0000
,
1001
0000
0001
0010
0001
0000
1000
0010
,
1000
0000
0001
0010
0001
1000
0010
0000
,
1001
0000
1000
0000
0100
0010
0100
0000
,
0110
0000
0010
0000
0001
1000
0001
0000
,
1001
0000
1000
0010
1000
0000
0001
0010
,
0001
0000
0100
0010
0100
0000
0001
1000
,
0001
0000
1000
0000
0100
0010
0100
0000
,
0110
0000
0010
0000
0001
1000
0001
0000
,
1001
0000
1000
0010
1000
0000
0001
0010
,
0001
0000
0100
0010
0100
0000
0001
1000
,
0001
0000
1000
0100
1000
0000
0001
0100
,
0001
0000
0010
0100
0010
0000
0001
1000
,
0002
0000
0000
0000
,
0003
0000
0000
0000
;

//--------------- dance-single - MEGAtive ----------------
#NOTEDATA:;
#STEPSTYPE:dance-single;
#DESCRIPTION:MEGAtive;
#DIFFICULTY:Medium;
#METER:9;
#RADARVALUES:0,0,0,0,0;
#NOTES:
0000
0000
0000
0000
,
0000
0000
0000
0000
,
1100
0000
0100
1000
0010
0100
0001
0000
,
1000
0000
0001
0100
0010
1000
0001
0000
,
1001
0000
1000
0100
1000
0001
0100
0000
,
0001
0000
1000
0010
1000
0001
0010
0000
,
0011
0000
0001
1000
0010
0000
1010
0000
,
1001
0000
1000
0100
0010
0000
0011
0000
,
1001
0000
0001
0100
0010
0100
0001
0000
,
1001
0000
1000
0100
0010
0100
1000
0000
,
1010
0000
0010
1000
0100
0010
0001
0000
,
1000
0000
0001
0010
0100
1000
0001
0000
,
1001
0000
1000
0010
1000
0001
0010
0000
,
0001
0000
1000
0100
1000
0001
0100
0000
,
0101
0000
0001
1000
0100
0000
1100
0000
,
1001
0000
1000
0010
0100
0000
0101
0000
,
1001
0000
0001
0010
0100
0010
0001
0000
,
1001
0000
1000
0010
0100
0010
1000
0000
,
0001
0010
0100
1000
0010
0100
0001
0000
,
1000
0010
0100
0001
0010
0100
0010
0000
,
0001
1000
0100
1000
0010
0100
0001
0000
,
0001
0100
0010
1000
0001
0010
0100
0000
,
1000
0100
0010
0001
0100
0010
1000
0001
,
1000
0010
0100
0001
1000
0100
0010
0001
,
1000
0000
0010
1000
0001
0010
0100
0010
,
0001
0000
1000
0010
0100
0001
0010
0100
,
1000
0010
0100
0001
0010
0100
1000
0000
,
0001
0010
0100
1000
0010
0100
0010
0000
,
1000
0001
0100
0001
0010
0100
1000
0000
,
1000
0100
0010
0001
1000
0010
0100
0000
,
0001
0100
0010
1000
0100
0010
0001
1000
,
0001
0010
0100
1000
0001
0100
0010
1000
,
0001
0000
0010
0001
1000
0010
0100
0010
,
1000
0000
0001
0010
0100
1000
0010
0100
,
0001
0010
0100
1000
0010
0100
0001
1000
,
0001
0100
0010
1000
0001
0010
0100
1000
,
0001
0000
0100
0001
1000
0100
0010
0100
,
1000
0000
0001
0100
0010
1000
0100
0010
,
0001
0000
0010
0100
1000
0001
0100
0010
,
0100
0000
0010
1000
0001
0010
0100
1000
,
2002
0000
0000
0000
,
3003
0000
0000
0000
;

//--------------- dance-single - MEGAtive ----------------
#NOTEDATA:;
#STEPSTYPE:dance-single;
#DESCRIPTION:MEGAtive;
#DIFFICULTY:Hard;
#METER:12;
#RADARVALUES:0,0,0,0,0;
#NOTES:
0000
0000
0000
0000
,
0000
0000
0000
0000
,
0101
0000
0000
0000
0001
0000
0100
0000
0010
0000
1000
0000
0100
0010
0000
0000
,
0110
0000
0100
1000
0001
0100
0110
0000
,
0101
0000
0100
0010
1000
0100
0110
0000
,
1100
0000
0000
0000
1000
0000
0100
0000
0010
0000
0001
0000
0100
0010
0000
0000
,
1001
0000
0000
0000
1000
0000
0100
0000
0001
0000
0100
0000
1000
0000
0010
0100
,
0010
0000
0001
0000
0010
0000
1000
0000
0100
0000
0001
0000
0100
0010
0100
0000
,
1000
0001
0100
1000
0001
0010
1000
0100
,
0001
0000
1000
0000
0010
0000
0100
0000
1000
0000
0001
0000
0100
0010
0100
0000
,
0101
0000
0000
0000
0001
0000
0010
0000
0100
0000
1000
0000
0010
0100
0000
0000
,
0110
0000
0010
1000
0001
0010
0110
0000
,
0011
0000
0010
0100
1000
0010
0110
0000
,
1010
0000
1000
0010
0100
0001
0011
0000
,
1001
0000
0000
0000
1000
0000
0100
0000
0001
0000
0100
0000
1000
0000
0010
0100
,
0010
0000
0001
0000
0010
0000
1000
0000
0100
0000
0001
0000
0100
0010
0100
0000
,
1000
0001
0010
1000
0001
0100
1000
0010
,
0001
0000
1000
0000
0100
0000
0010
0000
1000
0000
0001
0000
0010
0100
0010
0000
,
0011
0000
0001
0000
0201
0000
0000
0310
0000
0000
1000
0100
0000
0001
0100
0000
,
1100
0000
1000
0000
1020
0000
0000
0130
0000
0000
0001
0010
0000
1000
0010
0001
,
0100
0000
0001
0000
0201
0000
0000
0310
0000
0000
1000
0100
0000
0001
0100
0000
,
1000
0000
0010
0000
0200
0000
0000
1300
0000
0000
0100
0010
0000
1000
0001
0000
,
0011
0000
0001
0000
0010
0000
0100
0001
0000
0000
0100
0010
0100
0000
1000
0000
,
1010
0000
1000
0000
0010
0000
0100
1000
0000
0000
0100
0010
0100
0000
0001
0000
,
2002
0000
3003
0000
0001
0000
1000
0100
0000
0110
0000
0010
0001
1000
0001
0000
,
2002
0000
3003
0000
1000
0000
0001
0100
0000
0110
0000
0010
1000
0001
1000
0000
,
1100
0000
1000
0000
1020
0000
0000
0130
0000
0000
0001
0010
0000
1000
0010
0000
,
0011
0000
0001
0000
0201
0000
0000
0310
0000
0000
1000
0100
0000
0001
0100
1000
,
0010
0000
1000
0000
1020
0000
0000
0130
0000
0000
0001
0010
0000
1000
0010
0000
,
0011
0000
0001
0000
0201
0000
0000
0310
0000
0000
1000
0100
0000
0001
0100
0000
,
1100
0000
1000
0000
0100
0000
0010
1000
0000
0000
0010
0100
0010
0000
0001
0000
,
0101
0000
0001
0000
0100
0000
0010
0001
0000
0000
0010
0100
0010
0000
1000
0000
,
2002
0000
3003
0000
1000
0000
0001
0010
0000
0110
0000
0100
1000
0001
1000
0000
,
2002
0000
3003
0000
0001
0000
1000
0010
0000
0110
0000
0100
0001
1000
0001
0000
,
0011
0000
0001
0000
0010
0000
0100
0001
0000
0000
0100
0010
0100
0000
1000
0000
,
1010
0000
1000
0000
0010
0000
0100
1000
0000
0000
0100
0010
0100
0000
0001
0000
,
2002
0000
3003
0000
1000
0000
0001
0010
0000
0110
0000
0100
1000
0001
1000
0000
,
2002
0000
3003
0000
0001
0000
1000
0100
0000
0110
0000
0010
0001
1000
0001
0000
,
2002
0000
3003
0000
0001
0000
1000
0010
0000
0110
0000
0100
0001
1000
0001
0000
,
2002
0000
3003
0000
1000
0000
0001
0100
0000
0110
0000
0010
1000
0001
1000
0000
,
2002
0000
0000
0000
,
3003
0000
0000
0000
;

//--------------- dance-single - MEGAtive ----------------
#NOTEDATA:;
#STEPSTYPE:dance-single;
#DESCRIPTION:MEGAtive;
#DIFFICULTY:Challenge;
#METER:15;
#RADARVALUES:0,0,0,0,0;
#NOTES:
0000
0000
0000
0000
,
0000
0000
0000
0000
,
0000
0001
0010
0001
0000
1000
0100
1000
0001
0100
0010
0000
MMMM
0000
0100
0010
,
1000
0100
0010
0000
MMMM
0000
0100
0010
0001
0000
0200
0000
1000
0000
0301
0000
,
MMMM
0021
0000
1000
0000
0032
0000
1000
1003
0010
0200
0010
0000
1000
0000
0010
,
0310
1000
0002
0010
0000
0013
0100
1000
0001
0000
0200
0000
0010
0000
0301
0000
,
MMMM
0000
0001
1000
0100
0010
0100
0000
1100
0000
1000
0010
0100
0000
0010
0110
,
0000
0000
0100
0001
0010
0100
0010
0000
0100
1000
0001
0100
0010
0000
0110
0000
,
MMMM
0000
0010
0100
0010
1000
0001
0010
0100
0010
0001
1000
0010
0100
0010
1000
,
0001
0010
0100
1000
0010
0000
0100
0010
0100
0001
1000
0100
0010
0100
1000
0000
,
MMMM
0000
0001
1000
0200
0000
0000
0310
0001
0100
0010
0100
0000
0100
0010
0000
,
2002
0000
3003
MMMM
0000
0001
0010
0200
0010
0000
1000
0000
0010
0000
1300
0000
,
MMMM
1200
0000
0001
0000
2300
0000
0001
3001
0100
0020
0100
0000
0100
0230
0000
,
0310
1000
0002
0010
0000
0000
0013
0100
2000
0000
3020
0000
0100
0000
1030
0000
,
MMMM
0000
1000
0001
0010
0100
0010
0000
0011
0000
0001
0100
0010
0000
0100
0110
,
0000
0000
0010
1000
0100
0010
0100
0000
0010
0001
1000
0010
0100
0000
0110
0000
,
MMMM
0000
0100
0010
0100
0001
1000
0100
0010
0100
1000
0001
0100
0010
0100
0001
,
1000
0100
0010
0001
0100
0000
0010
0100
0010
1000
0001
0010
0100
0010
0001
0000
,
MMMM
0000
1000
0000
0001
0100
0000
1000
0100
0010
1000
0001
0000
0001
0011
0000
,
MMMM
0000
0001
0000
1000
0100
0001
0200
0000
0000
1300
0001
0100
0000
0110
0000
,
MMMM
0000
0010
1000
0100
0000
0001
0100
0000
1000
0010
0100
0000
1000
0100
0010
,
0000
0000
0100
0001
1000
0000
0001
0011
0000
0000
0001
0010
0100
0000
0110
0000
,
MMMM
0000
0100
1000
0001
0000
0100
0110
0000
0000
0010
1000
0001
1000
0100
0000
,
MMMM
0000
0010
0001
1000
0000
0010
0110
0000
0000
0100
0001
1000
0001
0010
0000
,
MMMM
0000
0001
0000
0010
0100
0010
0100
0001
0100
0010
0001
1000
0010
0100
0000
,
MMMM
0000
0001
0000
0100
0010
0100
0010
0001
0010
0100
0001
1000
0100
0010
0000
,
MMMM
0000
0001
0000
1000
0100
0000
0001
0100
0010
0001
1000
0000
1000
1010
0000
,
MMMM
0000
1000
0000
0001
0100
1000
0200
0000
0000
0301
1000
0100
0000
0110
0000
,
MMMM
0000
0010
0001
0100
0000
1000
0100
0000
0001
0010
0100
0000
0001
0100
0010
,
0000
0000
0100
1000
0001
0000
1000
1010
0000
0000
1000
0010
0100
0000
0110
0000
,
MMMM
0000
0100
0001
1000
0000
0100
0110
0000
0000
0010
0001
1000
0001
0100
0000
,
MMMM
0000
0010
1000
0001
0000
0010
0110
0000
0000
0100
1000
0001
1000
0010
0000
,
MMMM
0000
1000
0000
0010
0100
0010
0100
1000
0100
0010
1000
0001
0010
0100
0000
,
MMMM
0000
1000
0000
0100
0010
0100
0010
1000
0010
0100
1000
0001
0100
0010
0000
,
MMMM
0000
0100
0001
1000
0000
0100
0110
0000
0000
0010
0001
1000
0001
0100
0000
,
MMMM
0000
0010
1000
0001
0000
0010
0110
0000
0000
0100
1000
0001
1000
0010
0000
,
MMMM
0000
1000
0000
0010
0100
0010
0100
1000
0100
0010
1000
0001
0010
0100
0000
,
MMMM
0000
1000
0000
0100
0010
0100
0010
1000
0010
0100
1000
0001
0100
0010
0000
,
MMMM
0000
1000
0000
0010
0100
0010
0100
1000
0100
0010
1000
0001
0010
0100
0000
,
MMMM
0000
1000
0000
0100
0010
0100
0010
1000
0010
0100
1000
0001
0100
0010
0000
,
0220
0000
0000
0000
,
0330
0000
0000
0000
;
