#TITLE:少年は空を辿る;
#SUBTITLE:;
#ARTIST:Power Of Nature;
#TITLETRANSLIT:Shounen wa sora wo tadoru;
#SUBTITLETRANSLIT:;
#ARTISTTRANSLIT:;
#GENRE:;
#CREDIT:;
#MUSIC:murakumo.ogg;
#BANNER:Shounen wa sora wo tadoru.png;
#BACKGROUND:;
#CDTITLE:;
#SAMPLESTART:77.651;
#SAMPLELENGTH:17.143;
#SELECTABLE:YES;
#OFFSET:0.563;
#BPMS:0.000=280.000
,4.000=140.000
,8.000=280.000
,359.000=140.000
,360.000=70.000
,368.000=140.000
,384.000=210.000
,426.000=280.000
,490.000=70.000
;
#STOPS:;
#BGCHANGES:;
#FGCHANGES:;

//--------------- dance-single - about-blank ----------------
#NOTES:
     dance-single:
     about-blank:
     Beginner:
     5:
     0.189291,0.313873,0.175695,0.065886,0,181,157,24,9,0,0,0.189291,0.313873,0.175695,0.065886,0,181,157,24,9,0,0:
0000
0000
0000
0000
,
0000
0000
0000
0000
,
0000
0000
0000
0000
,
0000
0000
0000
0000
,
0001
0000
0001
0000
,
1000
0000
1000
0000
,
0010
0000
0010
0000
,
0100
0000
0100
0000
,
0001
0000
1000
0000
,
0001
0000
1000
0000
,
0110
0000
0000
0000
,
0000
0000
0000
0110
0000
0000
0000
0000
,
0000
0000
0000
0000
0000
1001
0000
0000
,
0000
0000
0000
1001
0000
0000
0000
0000
,
0001
0000
0000
0001
,
0100
0000
0010
1000
,
0000
0000
1000
0100
,
0000
0010
0002
0000
,
0000
0000
0000
0000
,
0003
0000
0100
0000
,
1000
0000
0010
0000
,
0001
0000
0100
0000
,
1000
0000
0001
0000
,
0001
0000
0010
0000
,
1000
0000
0000
0000
,
1000
0000
0000
0000
,
1000
0000
0000
0000
,
1001
0000
0220
0000
,
0000
0000
0000
0000
,
0000
0000
0000
0000
,
0000
0000
0000
0000
,
0330
0000
0000
0001
,
0000
0000
0000
0001
,
0000
0000
0000
0001
,
0000
0000
0000
0110
,
0000
2002
0000
0000
,
0000
0000
0000
0000
,
0000
3003
0000
0000
,
0000
0000
0000
0000
,
0000
1000
0000
1000
,
0000
0100
0000
0100
,
0000
0000
0001
0000
,
0001
0000
0010
0000
,
0010
0000
1000
0000
,
0000
0000
1001
0000
,
0000
0000
1000
0000
,
0100
0000
1000
0000
,
0001
0000
0000
0000
,
1001
0000
0000
0000
,
0001
0000
0100
0000
,
0001
0000
0010
0000
,
0000
0000
0110
0000
,
0100
0000
0000
0000
,
0000
0010
0000
0110
,
0000
0000
0000
0000
,
0001
0000
1001
0000
,
0000
0000
0000
1000
,
0000
1001
0000
0001
,
0000
0001
0000
1000
,
0000
1000
0000
0010
,
0000
0200
0000
0020
,
0000
0000
0000
0000
,
0000
0000
0000
0000
,
0000
0000
0000
0000
,
0000
0000
0000
0000
,
0000
0000
0000
0000
,
0330
0000
0000
0001
,
0000
0100
0000
1000
,
0000
0100
0000
0001
,
0000
1000
0000
0001
,
0000
0000
0000
1000
,
0000
0100
0000
0001
,
0000
0100
0000
1000
,
0000
0001
0000
1000
,
0000
0000
0000
0110
,
0000
0000
0000
0000
,
0000
0000
0000
0001
,
0000
0010
0000
1000
,
0000
0000
0000
1000
,
0000
0010
0000
0001
,
0000
0010
0000
1000
,
0000
0001
0000
1000
,
0000
0000
0000
0010
,
0000
0000
0000
0000
,
0000
0000
0110
0000
,
0000
0000
0000
0000
,
0000
2002
0000
0000
,
0000
0000
0000
0000
,
0000
3003
0000
0000
,
0000
0000
0000
0000
,
0001
0000
0010
0000
,
1000
0000
0100
0000
,
0001
0000
0010
0000
,
1000
0000
0000
0000
,
1000
0000
0100
0000
,
0001
0000
0000
0000
,
1001
0000
0000
0110
,
0000
0000
1001
0000
,
0010
0100
0000
0000
,
1001
0000
0000
0110
,
0000
0000
1001
0000
,
0100
0010
0000
0000
,
0001
0000
0000
0001
,
0000
0000
1000
0000
,
0000
1000
0000
0000
,
0001
0000
0000
1000
,
0000
0000
0010
0000
,
0010
0000
0010
0000
,
0000
0000
0100
0000
,
0100
0000
0100
0000
,
0000
0000
0010
0000
,
0010
0000
0010
0000
,
0000
0000
0100
0000
,
0100
0000
0100
0000
,
0000
0000
0001
0000
,
0001
0000
0001
0000
,
0000
0000
1000
0000
,
1000
0000
1000
0000
,
0000
0000
0001
0000
,
0001
0000
0001
0000
,
0000
0000
1000
0000
,
1000
0000
1000
0000
,
0000
0000
1001
0000
;

//--------------- dance-single - about-blank ----------------
#NOTES:
     dance-single:
     about-blank:
     Easy:
     11:
     0.352437,0.448389,0.248902,0.146413,0,337,303,34,20,0,0,0.352437,0.448389,0.248902,0.146413,0,337,303,34,20,0,0:
0000
0000
0000
0000
,
0000
0000
0000
0000
,
0000
0000
0000
0000
,
0000
0000
0000
0000
,
1000
0000
0110
0000
,
0001
0000
0110
0000
,
1000
0000
1100
0000
,
0001
0000
0101
0000
,
1000
0010
0110
0000
,
0001
0010
0110
0000
,
1001
0000
0000
0101
,
0000
0000
0000
1010
0000
0000
0000
0000
,
0000
0011
0000
0000
0000
1100
0000
0000
,
0000
0000
0000
0110
0000
0000
0000
0000
,
0001
0000
0001
0000
0000
0100
0000
0010
,
0000
1000
0000
0000
0001
0000
1000
0000
,
1000
0000
0000
0100
0000
0010
0000
0001
,
0000
0100
0220
0000
,
0000
0000
0000
0000
,
0330
0000
0001
0100
,
0010
0100
1000
0100
,
0010
0100
0001
0010
,
0100
1000
0001
0000
,
1000
0100
0010
0100
,
0002
0000
0000
0000
,
2003
0000
0000
0000
,
3020
0000
0000
0000
,
0032
0000
2000
0000
,
0000
0000
0000
0000
,
0000
0000
3003
0000
,
0100
0000
0100
0000
,
0100
0000
0001
0020
,
0000
0000
0000
0230
,
0000
0000
0000
2300
,
0000
0000
0000
3002
,
0000
0023
0000
0000
,
0000
0000
0000
0000
,
0000
1030
0000
0100
,
0000
0010
0001
1000
,
0000
0010
0100
0110
,
0000
0001
0000
1000
0000
0001
0000
0000
,
0010
0100
1000
0001
,
0000
1001
0000
1100
0000
0000
0001
0000
,
1000
0100
0010
0001
,
0010
0001
0100
0001
,
0100
0001
1000
0100
,
0010
0001
1000
0000
,
0010
1000
0010
1000
,
0001
0100
0001
0100
,
0010
1000
0001
0100
,
0010
0000
1000
0000
,
0001
0000
0000
0100
0000
0000
1000
0000
,
0100
0001
0000
1000
,
0000
0100
0000
0000
0001
0000
0100
0000
,
1000
0000
0000
0000
0001
0000
0000
0010
,
0000
1000
0010
0001
,
0000
0000
1000
0000
0000
0110
0000
0000
,
0001
1000
0000
0020
,
0030
0200
0300
0002
,
0003
2000
3000
0110
,
0000
1001
0000
2002
,
0000
0000
0000
0000
,
0000
0000
0000
3003
,
0000
0000
0000
0000
,
0000
0000
0000
0000
,
0000
0000
0000
0000
,
0000
0000
0000
1000
,
0000
0100
0000
0010
,
0001
0100
0000
0010
,
1000
0100
0000
0011
,
0000
1100
0000
0001
,
0000
0100
0000
0010
,
1000
0001
0000
0010
,
0001
1000
0000
0010
,
0000
0110
0000
0001
,
0000
0001
0000
0001
,
0000
0001
0000
1000
,
0000
0100
0000
0010
,
0100
1000
0000
0010
,
0000
0110
0000
0001
,
1000
0110
0000
0001
,
0000
0010
0000
0100
,
1000
0001
0000
0011
,
0010
0000
0000
0001
0000
1000
0000
0001
,
0000
0100
1000
0100
,
0000
0010
0000
1000
0000
0010
0000
0000
,
0100
0002
0000
0000
,
0000
0000
0000
0000
,
0000
2000
0000
0000
,
0000
0000
0000
0000
0000
0000
0000
0000
0000
0000
0000
0000
0000
0000
0000
0000
0000
0000
0000
0000
0000
0000
0000
0000
0000
0000
0000
0000
0000
0000
0000
0000
0000
0000
0000
0000
0000
0000
0000
0000
0000
0000
0000
0000
0000
0000
0000
0000
0000
0000
0000
0000
0000
0000
0000
0000
0000
0000
0000
0000
0000
0000
0000
0000
0000
0000
0000
0000
0000
0000
0000
0000
0000
0000
0000
0000
0000
0000
0000
0000
0000
0000
0000
0000
0000
0000
0000
0000
0000
0000
0000
0000
0000
0000
0000
0000
0000
0000
0000
0000
0000
0000
0000
0000
0000
0000
0000
0000
0000
0000
0000
0000
0000
0000
0000
0000
0000
0000
0000
0000
0000
0000
0000
0000
0000
0000
0000
0000
0000
0000
0000
0000
0000
0000
0000
0000
0000
0000
0000
0000
0000
0000
0000
0000
0000
0000
0000
0000
0000
0000
0000
0000
0000
0000
0000
0000
0000
0000
0000
0000
0000
0000
0000
0000
0000
0000
0000
0000
0000
3003
0000
0000
0000
0000
0000
0000
0000
0000
0000
0000
0000
0000
0000
0000
0000
0000
0000
0000
0000
0000
0000
0000
,
0110
0000
0100
1000
,
0001
0000
0010
0001
,
1000
1000
0100
0100
,
0010
0010
0001
0001
,
0100
0100
0010
0010
,
0110
0000
1001
0000
,
1000
0100
1000
0001
,
0010
0001
1000
0100
,
1000
0000
0001
0000
0000
0001
0000
0000
,
0001
0100
0001
1000
,
0010
1000
0001
0100
,
0001
0000
1000
0000
0000
1000
0000
0000
,
1000
0100
0010
0001
,
0100
0010
1000
0100
,
0010
0000
0001
0000
0000
0110
0000
0000
,
1000
0000
0000
0110
0000
0000
0001
0000
,
1000
0001
0010
0000
,
0010
0000
0100
1000
,
0100
0010
0001
0100
,
0010
1000
0001
0010
,
0100
0000
1000
0000
,
1000
0000
0010
1000
,
0010
0100
0001
0010
,
0100
1000
0001
0010
,
0100
0000
1001
0000
,
1000
0000
0001
0100
,
1000
0010
0001
0000
,
1001
0000
1000
0100
,
0001
0010
1000
0010
,
1000
0100
0001
0100
,
1000
0010
0001
0010
,
1000
0100
0001
0100
,
1000
0010
0110
0000
;

//--------------- dance-single - about-blank ----------------
#NOTES:
     dance-single:
     about-blank:
     Medium:
     13:
     0.475842,0.807101,0.585652,0.256223,0.007321,455,375,80,35,0,0,0.475842,0.807101,0.585652,0.256223,0.007321,455,375,80,35,0,0:
0000
0000
0000
0000
,
0000
0000
0000
0000
,
0000
0000
0000
0000
,
0000
0000
0000
0000
,
1000
0001
0000
0000
0101
0000
0000
0000
,
0001
1000
0000
0000
1010
0000
0000
0000
,
1000
0001
0000
0000
0011
0000
0000
0000
,
0001
1000
0000
0000
1010
0000
0000
0000
,
0100
0010
0000
0000
1001
0000
0000
0000
,
0001
1000
0000
0000
0110
0000
0000
0000
,
0022
0000
0000
0030
0003
0000
2200
0000
,
0000
0300
3000
2020
0000
0000
3000
0030
,
0202
0000
0000
0300
0003
2002
0000
0000
,
3000
0003
0000
0220
0000
0000
0030
0300
,
0001
0000
0001
0000
0000
0011
0000
1001
,
0000
0101
0000
0000
0010
0000
1000
0000
,
1000
0000
0000
1010
0000
1001
0000
1100
,
0000
2000
0002
0000
,
3003
0000
1000
0100
,
0001
0010
1000
0000
,
0001
1000
0001
0100
,
0001
0010
0001
1000
,
0001
0100
0001
0001
,
1000
0001
1000
0100
,
0020
0000
0000
0000
,
0032
0000
0000
0000
,
0203
0000
0000
0000
,
2300
0000
0020
0000
,
0000
0000
0000
3030
,
0000
0000
1000
0000
,
1000
0000
0001
0000
,
0001
1000
0100
0020
,
0000
0000
0000
0032
,
0000
0000
0000
0203
,
0000
0000
0000
2300
,
0000
0002
0000
0000
,
0000
0000
3003
0000
,
0000
0010
0000
0010
,
0000
0100
0000
0100
,
0000
1000
0010
1010
,
0000
1000
0000
0100
0000
0010
0000
0000
,
0001
0010
0001
0011
,
0000
0001
0000
0100
0000
0000
0010
0000
,
1000
0001
1000
0100
,
0010
0001
1000
0010
,
0100
0001
0010
0001
,
0100
0001
1000
0010
,
1000
0100
0010
0001
,
1000
0010
0100
0001
,
0010
0001
0100
0001
,
1000
0010
0100
0100
,
0001
0000
0000
1001
0000
0000
1000
0000
,
0001
0010
0010
0100
,
0000
1001
0000
0000
1000
0000
0010
0000
,
0100
0000
0001
0000
0010
0000
0000
1001
,
0000
0001
0010
0100
,
1000
0000
0010
0000
0000
1001
0000
0000
,
0100
0100
0100
0002
,
0003
2000
3000
0020
,
0030
0200
0300
1001
,
0010
0110
0000
2002
,
0000
0000
0000
0000
,
0000
0000
0000
3003
,
0000
0000
0000
0000
,
0000
0000
0000
0000
,
0000
0000
0000
0000
,
1000
1000
1000
0010
,
0100
0000
0001
0000
0000
0011
0000
0000
,
0010
0100
0000
1000
,
0001
1000
0010
0100
,
0001
0001
0001
1000
,
0100
0000
0010
0000
0000
0011
0000
0000
,
0001
1000
0001
0100
,
1000
0100
0010
0100
,
0010
0010
0010
0000
,
0000
0000
0000
0000
,
0000
0000
0000
0001
,
0010
0000
0100
0000
0000
1001
0000
0000
,
0100
0100
0100
0001
,
1000
0000
0010
0000
0000
1100
0000
0000
,
1000
0100
0010
0001
,
0100
0100
0001
1000
,
0010
0010
0010
1000
,
1000
0000
0000
1100
0000
1100
0000
1100
,
0000
1000
0100
0010
,
0000
0011
0000
0011
0000
0011
0000
0000
,
0001
2000
0002
0000
0000
0000
0000
0000
,
0000
0000
0000
0000
,
3003
0220
0000
0000
,
0000
0000
0000
0000
0000
0000
0000
0330
,
1001
0000
0000
1000
0100
0000
0100
0000
,
0011
0000
0000
0001
0100
0000
0100
0000
,
0001
0010
0100
1000
0001
0010
0100
1000
,
0001
0100
0010
1000
0001
0100
0010
1000
,
0001
1000
0100
0010
0001
1000
0100
0010
,
0002
0000
0000
0000
0000
0000
0013
0000
0100
0000
1000
0000
,
1010
1010
1010
0101
,
0101
0101
1100
1100
,
1100
0000
0001
0000
0100
0010
0100
0000
,
0011
0011
0011
1010
,
1010
1010
0101
0101
,
0101
0000
1000
0000
0100
0010
0100
0000
,
1100
1100
0110
0101
,
0101
0110
1010
1010
,
0110
0011
0011
0110
,
1100
0101
1010
0011
,
0000
1001
0000
0000
1000
0000
0010
0000
,
0100
0001
1000
0100
,
0010
0001
1000
0010
,
1000
0001
0100
0010
,
1000
0001
1000
0001
0010
0000
0001
0000
,
0100
0010
0100
1000
,
0001
0010
1000
0100
,
0010
0001
0100
0001
,
1000
0100
1000
0100
0010
0000
0001
0000
,
0100
0001
1000
0010
,
0100
0100
0001
0010
,
0100
1000
0001
0010
,
0100
0010
0100
0010
0001
0000
0000
1100
,
0000
0000
0110
0000
0000
0011
0000
0000
,
1100
0101
1000
0001
,
0100
0000
0010
0000
1000
0100
0010
0001
,
1000
0001
0100
0010
1000
0000
0000
0000
;

//--------------- dance-single - about-blank ----------------
#NOTES:
     dance-single:
     about-blank:
     Hard:
     15:
     0.626438,0.85194,0.314788,0.461201,0.080527,599,556,43,63,0,0,0.626438,0.85194,0.314788,0.461201,0.080527,599,556,43,63,0,0:
0000
0000
0000
0000
,
0000
0000
0000
0000
,
0000
0000
0000
0000
,
0000
0000
0000
0000
,
1000
0010
0000
1000
0010
0000
0000
0000
,
0001
0100
0000
0001
0100
0000
0000
0000
,
0001
0010
0000
0001
0010
0000
0000
0000
,
1000
0100
0000
1000
0100
0000
0000
0000
,
0001
0010
0000
0100
1000
0000
0001
0000
,
1000
0100
0000
0010
0001
0000
1000
0000
,
0202
0000
0000
0300
0003
0000
2200
0000
,
0000
0300
3000
2020
0000
0000
3000
0030
,
0000
0022
0000
0003
0030
1000
0010
0000
,
0000
0000
0000
0001
0100
0000
0000
0000
,
1010
0000
1010
0000
0001
2000
0000
0010
,
0000
3010
0000
0000
1000
0100
0010
0000
,
0101
0000
1000
0002
0000
0100
0000
0103
,
0000
0000
0001
2000
0002
0000
0000
0000
,
0000
0000
3003
0000
0001
0010
0100
1000
,
0001
0010
0100
1000
0002
0000
0203
0000
,
2300
3002
0023
0230
,
0320
0032
2003
3200
,
0320
0000
2030
0000
3100
0010
0100
0010
,
0002
2003
3002
0203
,
0310
0000
0010
0000
0000
1000
0000
0100
,
0000
0010
0000
0000
1000
0000
1000
0000
,
0001
0000
0100
0000
0000
0010
0000
0000
,
0011
0000
1010
1000
,
0010
0000
0000
0100
0000
0001
0000
0000
,
0001
1000
0100
0010
,
0001
0000
0100
0001
0000
0000
1000
0010
,
1000
0001
1000
0022
,
0033
0000
0001
1000
0001
0000
0202
0000
,
0303
0000
1000
0001
1000
0000
0022
0000
,
0033
0000
0010
0001
1000
0000
2200
0000
,
3300
0022
0033
1000
,
0100
0001
0100
0010
,
0001
0100
1000
0001
,
0010
1000
0100
0010
,
0100
1000
1010
1010
,
0000
1100
0000
0101
0000
1100
0000
0000
,
0001
0000
0001
1000
0001
0000
0011
0000
,
0000
1100
0000
1100
0000
0000
0110
0000
,
0110
0000
0001
1000
0002
0000
1003
0000
,
0100
0010
0001
0000
0002
0000
1003
0000
,
0100
0010
0001
0000
2000
0000
3100
0000
,
0002
0000
0013
0000
1000
0100
0010
0001
,
2000
0000
3001
0000
0100
0010
1000
0000
,
2000
0000
3001
0000
0100
0010
1000
0000
,
0002
0103
2000
3010
,
0001
0100
0010
0000
2000
0000
3100
0000
,
0100
0010
0100
2000
0000
0000
0010
0000
,
3010
0000
0002
0000
0103
0000
0100
0010
,
0100
0002
0000
0000
1000
0000
1003
0000
,
0001
0010
1000
0010
0001
0010
0100
2000
,
0000
0000
0001
0000
3001
0000
1000
0100
,
0010
0100
1000
0010
0001
0020
0000
0000
,
1000
1030
0001
1100
,
0100
0101
0001
0011
,
0010
0000
0000
1010
0000
0000
1000
0000
0000
0001
0000
0010
,
0000
0100
0000
1000
0000
0000
0000
0000
0000
2002
0000
0000
,
0000
0000
0000
0000
,
0000
0000
0000
3003
,
0000
0000
0000
0000
,
0000
0000
0000
0000
,
0000
0000
0000
0000
,
0001
0000
0000
0010
0000
0000
0100
0000
1000
0000
0000
0000
0001
0000
0000
0000
,
0001
0000
1000
0000
0010
0001
0000
0000
,
0010
0000
1000
0000
0100
0001
0000
0001
,
0100
0010
0001
1000
,
0010
0000
0000
0100
0000
0000
0010
0000
0100
0000
0000
0000
0001
0000
0000
0000
,
1000
0000
0001
0000
0010
1000
0000
0000
,
0010
0000
0001
0000
0100
1000
0000
1000
,
0100
0001
0100
0000
0010
1000
0010
0000
,
1000
0000
0000
0001
0000
0000
1000
0000
0001
0000
0200
0000
0020
0000
0000
0000
,
0000
0000
0000
0000
,
0000
0000
0330
1001
,
1000
0100
1000
0000
0001
0010
0000
0000
,
0010
0000
0000
0100
0000
0000
1000
0000
0100
0000
0010
0000
0001
0000
0000
0000
,
0100
0001
0100
0000
0001
0010
0000
0000
,
0010
0001
0100
0000
1000
0000
0100
0000
,
0001
1000
0100
0000
0010
0000
0001
0000
,
1000
0000
0000
0010
0000
0000
0100
0000
0001
0000
0000
0000
0011
0000
0000
0000
,
0011
0000
0000
1010
0000
1010
0000
0101
,
0000
0000
0100
0001
1000
0000
1010
0000
,
0000
0011
0000
0011
0000
1100
0000
0000
,
0001
1000
0002
0000
0000
0000
0000
0000
,
0000
0000
0000
0000
,
0000
0020
0000
0000
,
0000
0000
0000
0033
,
1100
0000
0000
0000
0000
0000
0001
1000
0001
0000
0000
0000
0010
0000
0000
0000
,
0100
0000
0000
1000
0001
0000
0010
0000
,
1010
0000
0000
0100
0001
0000
1000
0000
0100
0000
0000
0100
0010
0000
0001
0000
,
0100
0000
0000
0001
1000
0000
0010
0000
1000
0000
0000
1000
0100
0000
0010
0000
,
0001
0100
0000
0001
0100
0000
0010
0000
1000
0100
0000
1000
0100
0000
0010
0000
,
0002
0000
0000
0000
0000
0000
0103
0010
0100
0001
0100
0010
,
1000
0010
1000
0010
1000
0010
0100
0001
,
0100
0001
0100
0001
1000
0100
1000
0100
,
1000
0100
0020
0000
0032
0000
1003
1000
,
0001
0100
0001
0100
0001
0100
0010
1000
,
0010
1000
0010
1000
0001
0010
0001
0010
,
0001
0010
0200
0000
2300
0000
3001
0001
,
1000
0010
1000
0010
0100
0001
1000
0100
,
0010
0100
1000
0001
1000
0010
0100
0001
,
0010
0100
1000
0010
0100
0001
0010
0100
,
1000
0000
0001
0000
1000
0000
0001
0000
0100
0010
0100
0010
0100
0000
0000
0000
,
0110
0000
1001
0000
1000
0010
0000
0010
,
0001
0000
1000
0100
0000
0100
0001
0000
,
1000
0001
1000
0000
0001
0010
0001
0010
,
0001
0000
0100
0010
0100
0010
0100
0000
,
0001
1000
0001
0000
0001
0010
0000
0010
,
1000
0000
0001
0100
0000
0100
1000
0000
,
1000
0001
1000
0000
0100
0010
0100
0010
,
0100
0000
0010
0001
0010
0001
0010
0000
,
0100
1000
0001
0000
1000
0010
1000
0000
,
0001
0100
0001
0000
1000
0100
0010
0001
,
0100
0001
1000
0000
0001
0010
0001
0000
,
1000
0010
1000
0000
0001
0100
0010
1000
,
0100
0010
0100
0000
1000
0100
0010
0001
,
1000
0100
0010
0001
1000
0010
0100
0010
,
0100
0001
1000
0010
1000
0100
0001
0100
,
1000
0100
0010
0001
0010
0100
1000
0010
,
0100
0001
1000
0001
1000
0000
0000
0000
;
