#TITLE:雪月花;
#SUBTITLE:;
#ARTIST:Ryu☆;
#TITLETRANSLIT:Setsugekka;
#SUBTITLETRANSLIT:;
#ARTISTTRANSLIT:;
#GENRE:;
#CREDIT:MEGAtive;
#MUSIC:Setsugekka.ogg;
#BANNER:Setsugekka.png;
#BACKGROUND:Setsugekka-bg.png;
#CDTITLE:;
#SAMPLESTART:84.592;
#SAMPLELENGTH:12.715;
#SELECTABLE:YES;
#OFFSET:-0.354;
#BPMS:0.000=151.000;
#STOPS:;
#BGCHANGES:;
#FGCHANGES:;

//--------------- dance-single - MEGAtive ----------------
#NOTES:
     dance-single:
     MEGAtive:
     Beginner:
     3:
     0.148124,0.238048,0.034562,0.103687,0,120,116,4,12,0,0,0.148124,0.238048,0.034562,0.103687,0,120,116,4,12,0,0:
0000
0000
0000
0000
,
0000
0000
0000
0000
,
0000
0000
0000
0000
,
0000
0000
0000
0000
,
0000
0000
0000
0000
,
0002
0000
0000
0000
,
0000
0000
0000
0000
,
2003
0000
0000
0000
,
0000
0000
0000
0000
,
3000
0000
0000
0000
,
0001
0000
0100
0000
,
0001
0000
1000
0000
,
0100
0000
1000
0000
,
0001
0000
0100
0000
,
0001
0000
0010
0000
,
0100
0000
1000
0000
,
0001
0000
0100
0000
,
0020
0000
0000
0000
,
1030
0100
1000
0000
,
0001
0100
0001
0000
,
1000
0010
0100
0000
,
0001
0010
0100
0000
,
1000
0100
1000
0000
,
0001
0100
0001
0000
,
1000
0010
0100
0000
,
0002
0000
0000
0000
,
1003
0000
0000
0000
,
0000
0000
0000
0000
,
0110
0000
0000
0000
,
0000
0000
0000
0000
,
1001
0000
0000
0000
,
0001
0000
0000
0000
,
1000
0000
0100
0000
,
0020
0000
0000
0000
,
0031
0000
0001
0000
,
0001
0000
0001
0000
,
1000
0000
1000
0000
,
1000
0000
1000
0000
,
0001
0000
0100
0000
,
0010
0000
1000
0000
,
0001
0000
0010
0000
,
0200
0000
0000
0000
,
2300
0000
0000
0000
,
0000
0000
0000
0000
,
3020
0000
0000
0000
,
0000
0000
0000
0000
,
0230
0000
0000
0000
,
0000
0000
0000
0000
,
0302
0000
0000
0000
,
0000
0000
0000
0003
,
1000
0000
0001
0000
,
0100
0000
0010
0000
,
1000
0000
1001
0000
,
0001
0010
0001
0000
,
1000
0010
0100
0000
,
0001
0100
0001
0000
,
1000
0100
0010
0000
,
0001
0010
0001
0000
,
1000
0010
0100
0000
,
0001
0100
0001
0000
,
1000
0100
0010
0000
,
0001
0010
0001
0000
,
1000
0010
0100
0000
,
0001
0100
0001
0000
,
1000
0100
0010
0000
,
0001
0010
0001
0000
,
1000
0010
0100
0000
,
0001
0000
0001
0000
,
2002
0000
0000
0000
0000
0000
0000
3003
;

//--------------- dance-single - MEGAtive ----------------
#NOTES:
     dance-single:
     MEGAtive:
     Easy:
     6:
     0.266624,0.386828,0.077765,0.216014,0,216,207,9,25,0,0,0.266624,0.386828,0.077765,0.216014,0,216,207,9,25,0,0:
0000
0000
0000
0000
,
0000
0000
0000
0000
,
0000
0000
0000
0000
,
0000
0000
0000
0000
,
0000
0000
0000
0000
,
0002
0000
0000
0000
,
0000
0000
0203
0000
,
0320
0000
0000
0000
,
2030
0000
3002
0000
,
0000
0000
0000
0000
,
1003
0100
0010
0001
,
1000
0000
0010
0000
0100
0000
0001
1000
,
0001
0010
0100
1000
,
0001
0000
0100
0000
0010
0000
1000
0001
,
1000
0010
0100
0001
,
1000
0000
0100
0000
0010
0000
0001
1000
,
0001
0100
0010
1000
,
2002
0000
0000
3003
,
1000
0010
0100
0001
,
1000
0000
0100
0000
0010
0000
0001
1000
,
0001
0100
0010
1000
,
0001
0000
0010
0000
0100
0000
1000
0001
,
1000
0100
0010
0001
,
1000
0000
0010
0000
0100
0000
0001
1000
,
0001
0010
0100
1000
,
0001
0200
0300
0200
0300
0000
0000
0001
,
1000
0000
0000
0000
,
0000
0000
0000
1000
,
1001
0000
0000
0000
,
0000
0000
0000
0000
,
0011
0000
0000
0000
,
1001
0000
0000
0000
,
1010
0000
1001
0000
,
1000
0200
0300
0200
0300
0000
0000
0000
,
1000
0010
0100
0001
,
1000
0100
0010
0001
,
1000
0010
0100
0001
,
1000
0100
0010
0001
,
1000
0010
0100
0001
,
1000
0100
0010
0001
,
1000
0010
0100
0001
,
2000
0000
0200
0300
,
3002
0000
0000
0000
,
0000
0000
0000
0000
,
0203
0000
0000
0000
,
0000
0000
0000
0000
,
0320
0000
0000
0000
,
0000
0000
0000
0000
,
2030
0000
0000
0000
,
3002
0000
0000
1003
,
0001
0010
0001
0000
2000
0000
0000
0000
,
3010
0110
1000
1001
,
0001
0010
0001
0010
0002
0000
0000
0000
,
1003
0000
0100
0000
0010
0100
0010
0000
,
0001
0000
0100
0000
0010
0100
0010
0000
,
1000
0000
0100
0000
0010
0100
0010
0000
,
0001
0000
0100
0000
0010
0100
0010
0000
,
1000
0000
0010
0000
0100
0010
0100
0000
,
0001
0000
0010
0000
0100
0010
0100
0000
,
1000
0000
0010
0000
0100
0010
0100
0000
,
0001
0020
0030
0020
0030
0000
0000
0001
,
1000
0000
0010
0000
0100
0001
0100
0000
,
0001
0000
0010
0000
0100
1000
0100
0000
,
1000
0000
0010
0000
0100
0001
0100
0000
,
0001
0000
0010
0000
0100
1000
0100
0000
,
1000
0000
0100
0000
0010
0001
0010
0000
,
0001
0000
0100
0000
0010
1000
0010
0000
,
1000
0100
2000
0000
3001
0100
0001
0000
,
2002
0000
0000
0000
0000
0000
0000
3003
;

//--------------- dance-single - MEGAtive ----------------
#NOTES:
     dance-single:
     MEGAtive:
     Medium:
     11:
     0.434498,0.505852,0.060484,0.224655,0.047523,352,345,7,26,0,0,0.434498,0.505852,0.060484,0.224655,0.047523,352,345,7,26,0,0:
0000
0000
0000
0000
,
0000
0000
0000
0000
,
0000
0000
0000
0000
,
0000
0000
0000
0000
,
0000
0000
0000
0000
,
2000
0000
0000
0000
,
0000
0000
3200
0320
,
0032
0000
0000
0000
,
0203
0000
0320
0000
,
0000
0000
0000
0000
,
1030
0100
0010
0000
0001
0010
0001
1000
,
0001
0100
0010
0000
1000
0010
1000
0001
,
1000
0100
0010
0000
0001
0010
0001
1000
,
0001
0100
0010
0000
1000
0010
0100
0001
,
1000
0100
0010
0000
0001
0010
0001
0100
,
0010
0100
0001
0000
1000
0010
1000
0100
,
0010
0001
0100
0000
0001
0010
0001
0100
,
0010
0000
1000
0000
0000
1000
0000
0000
0001
0000
0000
0010
0000
0000
0100
0000
,
1000
0010
0100
0010
1000
0010
0100
0000
,
0001
0010
0100
0010
0001
0010
0100
0000
,
1000
0100
0010
0100
1000
0100
0010
0000
,
0001
0100
0010
0100
0001
0010
0100
1000
,
0001
0010
0100
0010
0001
0010
0100
0000
,
1000
0010
0100
0010
1000
0010
0100
0000
,
0001
0010
0100
0010
0001
0010
0100
0000
,
0010
0000
0002
0000
0003
0000
2000
0000
3010
0000
0000
0010
0000
0000
1000
0000
,
0001
0000
0000
0000
,
0000
0000
0000
0110
,
1001
0000
1000
0000
,
1000
0000
1000
0000
,
1001
0000
0001
0000
,
0101
0000
0001
0000
,
0011
0001
1010
1000
,
0001
0000
0200
0000
0310
0000
0200
0000
0301
0000
0000
0001
0000
0000
1000
0000
,
1000
0100
0010
0001
1000
0100
0010
0001
,
1000
0100
0010
0001
1000
0100
0010
0001
,
1000
0010
0100
0001
1000
0010
0100
0001
,
1000
0010
0100
0001
1000
0010
0100
0001
,
1000
0100
0010
0001
1000
0100
0010
0001
,
1000
0010
0100
0001
1000
0010
0100
0001
,
1000
0100
0010
0001
1000
0010
0100
0001
,
1000
0000
0100
0000
0000
0100
0000
0000
2000
0000
0000
3001
0000
0000
0001
0000
,
0000
2000
0000
0000
0000
0000
0000
0000
,
0000
0000
0000
0000
3010
0100
0010
0100
,
0002
0000
0000
0000
,
0000
0000
0000
0000
0013
0100
0010
0100
,
2000
0000
0000
0000
,
0000
0000
3002
0023
,
0230
0000
0000
0000
,
2300
0000
3002
1000
,
1003
0000
0100
0000
1000
0000
0100
0000
2000
0000
3000
0002
0000
0003
0200
0000
,
0310
1000
0001
0000
0010
0100
1000
0000
,
0001
0100
0010
1000
0200
0000
0000
0000
,
1300
0010
0100
0010
1000
0001
0010
0000
,
0100
1000
0100
0010
0100
1000
0001
0000
,
0001
0100
0010
0100
0001
1000
0100
0000
,
0010
0001
0010
0100
0010
0001
1000
0000
,
1000
0100
0010
0100
1000
0001
0100
0000
,
0010
1000
0010
0100
0010
1000
0001
0000
,
0001
0010
0100
0010
0001
1000
0010
0000
,
0100
0000
0002
0000
0003
0000
2000
0000
3100
0000
0000
0010
0000
0000
0100
0000
,
1000
0010
0100
0001
0010
0100
1000
0000
,
0001
0010
0001
0100
0010
1000
0100
0000
,
1000
0100
0010
0001
0100
0010
1000
0000
,
0001
0100
0001
0010
0100
1000
0010
0000
,
1000
0010
0100
0001
0010
0100
1000
0000
,
0001
0010
0001
0100
0010
1000
0100
0000
,
1000
0100
2000
0000
3001
0100
0001
0100
,
0010
0000
0000
0010
0000
0000
1000
0000
0000
1000
0000
0000
0100
0000
0110
0000
;

//--------------- dance-single - MEGAtive ----------------
#NOTES:
     dance-single:
     MEGAtive:
     Hard:
     13:
     0.573981,0.624876,0.15553,0.241936,0.59188,465,447,18,28,0,0,0.573981,0.624876,0.15553,0.241936,0.59188,465,447,18,28,0,0:
0000
0000
0000
0000
,
0000
0000
0000
0000
,
0000
0000
0000
0000
,
0000
0000
0000
0000
,
0000
0000
0000
0000
,
2000
0100
0000
0000
0000
0000
0000
0000
,
0000
0000
0000
0000
3100
1000
0010
0100
,
0002
0000
0000
0000
,
0023
0000
0230
0000
,
0000
0000
0000
0000
,
1300
0000
0100
0000
0010
0000
0100
1000
0000
0001
0000
1000
0000
0001
0010
0000
,
0001
0000
0100
0000
0010
0000
0100
0001
0000
1000
0000
0001
0000
1000
0010
0000
,
1000
0000
0100
0000
0010
0000
0100
1000
0000
0001
0000
1000
0000
0001
0010
0000
,
0001
0000
0100
0000
0010
0000
0100
0001
0100
0000
0010
0000
1000
0001
1000
0000
,
0001
0000
0010
0000
0100
0000
0010
0001
0000
1000
0000
0001
0000
1000
0100
0000
,
1000
0000
0010
0000
0100
0000
0010
1000
0000
0001
0000
1000
0000
0001
0100
0000
,
0001
0000
0010
0000
0100
0000
0010
0001
0000
1000
0000
0001
0000
1000
0100
0000
,
1000
0000
1100
0000
0000
1001
0000
0000
0101
0000
0000
0110
0000
0000
1010
0000
,
1000
0000
0100
0000
0010
0000
0100
1000
0000
0010
0000
0001
0000
0010
0100
0000
,
0001
0000
0100
0000
0010
0000
0100
0001
0000
0010
0000
1000
0000
0010
0100
0000
,
1000
0000
0100
0000
0010
0000
0100
1000
0000
0010
0000
0001
0000
0010
0100
0000
,
0001
0000
0100
0000
0010
0000
0100
0001
1000
0000
0100
0010
0001
0000
1000
0000
,
0001
0000
0010
0000
0100
0000
0010
0001
0000
0100
0000
1000
0000
0100
0010
0000
,
1000
0000
0010
0000
0100
0000
0010
1000
0000
0100
0000
0001
0000
0100
0010
0000
,
0001
0000
0010
0000
0100
0000
0010
0001
0000
0100
0000
1000
0000
0100
0010
0000
,
1000
0000
0020
0000
0031
0000
0020
0000
1030
0000
0000
1000
0000
0000
0001
0000
,
0011
0000
0000
0000
,
0000
0000
0000
0110
,
1001
0000
0000
1000
0000
0000
1000
0000
0001
0000
0000
0001
0000
0000
0001
0000
,
1000
0000
0000
0000
0000
0000
0000
0000
0000
1000
0000
0000
0000
0000
0000
0000
0000
0000
1000
0000
0000
0000
0000
0000
0001
0000
0000
0000
0000
0000
0000
0000
0101
0000
0000
0000
0000
0000
0000
0000
0101
0000
0000
0000
0000
0000
0000
0000
,
1001
0000
0000
1000
0000
0000
1000
0000
0001
0000
0000
0001
0000
0000
0001
0000
,
0011
0000
0000
0010
0000
0000
0010
0000
0100
0000
0000
0100
0000
0000
0100
0000
,
1100
0000
0000
1000
0000
0000
1000
0000
1010
0000
0000
0010
0000
0000
0010
0000
,
1000
0000
0020
0000
0031
0000
0020
0000
1030
0000
0000
1000
0000
0000
0001
0000
,
1000
0100
0001
0100
1000
0100
0001
0100
,
1000
0100
0001
0100
1000
0100
0001
0100
,
1000
0001
0100
1000
0100
0001
0100
1000
,
0100
0001
0100
1000
0100
0001
0100
1000
,
0100
0001
0010
1000
0010
0001
0010
1000
,
0010
0001
0010
1000
0010
0001
0010
1000
,
0010
0001
0100
1000
0100
0001
0100
1000
,
0100
0000
0010
0000
0000
0010
0000
0000
2000
0000
0000
3001
0000
0000
0001
0000
,
0000
2000
0000
0001
0000
0001
0000
0001
,
0000
0001
0000
0000
3100
1000
0010
0100
,
0002
0010
0000
0010
0000
0010
0000
0010
,
0000
0010
0000
0000
0013
0100
0010
0001
,
2000
0010
0000
0000
0000
0000
0000
0000
,
0000
0000
0000
0000
3010
0100
0010
1000
,
0002
0000
0000
0000
,
0023
0000
0032
1000
,
1003
0000
0001
0000
0010
0000
0100
0000
0020
0000
0030
0002
0000
0003
2000
0000
,
3001
0100
1000
0100
0001
0010
1000
0010
,
0001
0001
1000
1000
0020
0000
0000
0000
,
1030
0000
0010
1000
0000
1000
0001
1000
0000
0100
0000
0010
0000
0100
1000
0100
,
2000
0000
0000
3010
0100
0000
0001
0000
0100
0000
1000
0000
0100
0000
0001
0000
,
1000
0000
0100
1000
0000
1000
0001
1000
0000
0010
0000
0100
0000
0010
1000
0010
,
2000
0000
0000
3100
0010
0000
0001
0000
0100
0010
0000
1000
0000
0010
0000
1000
,
0001
0000
0010
0001
0000
0001
1000
0001
0000
0100
0000
0010
0000
0100
0001
0100
,
0002
0000
0000
0013
0100
0000
1000
0000
0100
0000
0001
0000
0100
0000
1000
0000
,
0001
0000
0100
0001
0000
0001
1000
0001
0000
0010
0000
0100
0000
0010
0001
0010
,
0001
0000
0200
0000
1300
0000
0200
0000
0301
0000
0000
0001
0000
0000
1000
0000
,
1000
0000
0100
1000
0000
1000
0001
1000
0000
0010
0000
0100
0000
0010
1000
0010
,
2000
0000
0000
3100
0010
0000
0001
0000
0010
0000
1000
0000
0010
0000
0001
0000
,
1000
0000
0010
1000
0000
1000
0001
1000
0000
0100
0000
0010
0000
0100
1000
0100
,
2000
0000
0000
3010
0100
0000
0001
0000
0010
0100
0000
1000
0000
0100
0000
1000
,
0001
0000
0100
0001
0000
0001
1000
0001
0000
0010
0000
0100
0000
0010
0001
0010
,
0002
0000
0000
0103
0010
0000
1000
0000
0010
0000
0001
0000
0010
0000
1000
0000
,
0001
0001
0020
0000
0130
1000
0100
0001
,
0100
0000
0000
1100
0000
0000
1001
0000
0000
0101
0000
0000
0110
0000
0010
0000
;

//--------------- dance-single - eataninja ----------------
#NOTES:
     dance-single:
     eataninja:
     Challenge:
     14:
     0,0,0,0,0:
0000
0000
0000
0000
,
0000
0000
0000
0000
,
0000
0000
0000
0000
,
0000
0000
0000
0000
,
0000
0000
0000
0000
1000
0100
0010
0001
,
0100
0010
0200
0000
0000
0000
0000
0000
0000
0000
0000
0000
0000
0000
0000
0000
,
0000
0000
0000
0000
0301
1000
0001
0010
,
0200
0000
0000
0000
,
2300
0000
0002
0000
,
0000
0000
0000
3003
,
1000
0010
1000
0000
0001
0000
0000
0010
0000
0100
0000
1000
0000
0001
0100
0000
,
0001
1000
0001
0000
0010
0000
0000
0100
0000
1000
0000
0001
0000
1000
0010
0000
,
0100
0010
0100
0000
0001
0000
0000
1000
0000
0100
0000
0010
0000
0001
1000
0000
,
0010
0100
0010
0000
1000
0000
0000
0000
0001
0010
0100
0000
0010
0100
1000
0000
,
0001
1000
0001
0000
0100
0000
0000
0010
0000
0100
0000
0001
0000
1000
0100
0000
,
0010
0100
0010
0000
0100
0000
0000
1000
0000
0001
0000
1000
0000
0010
0100
0000
,
0001
0100
0001
0000
1000
0000
0000
0001
0000
0010
0000
0100
0000
1000
0001
0000
,
0100
0000
0100
0000
0000
0100
0000
0000
0010
0000
1000
0001
1000
0000
0100
0000
,
0010
0001
1000
0000
0001
0000
0000
1000
0000
0010
0000
0100
0000
0010
1000
0000
,
0001
1000
0100
0000
0010
0000
0000
0001
0000
1000
0000
0010
0000
0100
0010
0000
,
0100
0010
1000
0000
0001
0000
0000
0010
0000
0100
0000
1000
0000
0001
1000
0000
,
0010
0100
0001
0000
1000
0000
0000
0000
0001
0010
0100
0000
0010
0100
1000
0000
,
0001
1000
0010
0000
0100
0000
0000
0010
0000
0100
0000
0001
0000
1000
0100
0000
,
0010
0001
1000
0000
0001
0000
0000
1000
0000
0010
0000
0100
0000
0010
1000
0000
,
0001
0010
0100
0000
1000
0000
0000
0010
0000
0100
0000
0001
0000
1000
0010
0000
,
1000
0001
1000
0000
0001
0010
0001
0000
1000
0000
0100
0000
0010
0000
0001
0000
,
0200
0010
0010
0310
,
2000
0001
3001
0011
,
1100
0000
0100
0000
1000
0000
0001
0000
0100
0000
0001
0000
,
1000
0000
0100
0000
1000
0000
0001
0000
0001
0000
0001
0000
,
1001
0000
1000
0000
0010
0000
0100
0000
0001
0000
0100
0000
,
0101
0000
1000
0000
0001
0000
0010
0000
0100
0000
0010
0000
,
0110
0100
1000
0001
0110
0100
0001
1000
,
0001
0000
0010
0100
0010
0000
0001
1000
0001
0000
0000
0100
0000
0000
0100
0000
,
0001
0000
1000
0100
1000
0000
0010
0000
1000
0000
0001
0100
0001
0000
0010
0000
,
0001
0000
1000
0100
1000
0000
0010
0000
1000
0000
0001
0100
0001
0000
0010
0000
,
0100
0000
1000
0100
1000
0000
0001
0000
0100
0000
0001
0100
0001
0000
1000
0000
,
0100
0000
1000
0100
1000
0000
0001
0000
0100
0000
0001
0100
0001
0000
1000
0000
,
0010
0000
0100
0010
0100
0000
0001
0000
0010
0000
0100
0010
0100
0000
1000
0000
,
0010
0000
0100
0010
0100
0000
0001
0000
0010
0000
0100
0010
0100
0000
1000
0000
,
0001
0000
0100
0001
0100
0000
0010
0000
1000
0000
0100
1000
0100
0000
0010
0000
,
0001
0000
0100
0000
0000
0100
0000
0000
1000
0000
0100
0010
0000
0000
0010
0000
,
2000
0000
0000
0000
,
0000
0000
0000
0000
3001
0010
0100
1000
,
0001
0100
0002
0000
0000
0000
0000
0000
0000
0000
0000
0000
0000
0000
0000
0000
,
0000
0000
0000
0000
1003
0010
0100
0001
,
0010
0100
0020
0000
0000
0000
0000
0000
0000
0000
0000
0000
0000
0000
0000
0000
,
0000
0000
0000
0000
0130
1000
0001
0100
,
0020
0000
0000
0000
,
2030
0000
3001
0011
,
0010
0100
0010
0100
0010
0100
0010
0100
1000
0000
0000
1000
0000
0000
1000
0000
,
0001
0000
0100
0010
0100
0000
0010
0100
0001
1000
0001
0000
0010
0000
0100
0000
,
1000
0000
1000
0000
0001
0000
0001
0000
1000
0010
0100
0001
1000
0100
0010
0001
,
0010
0000
0100
1000
0000
0001
0100
0001
0000
0100
0000
1000
0000
0100
0010
0100
,
0002
0000
0000
1003
0100
0000
0010
0000
1000
0000
0010
0000
0001
0000
1000
0000
,
0010
0000
0100
0001
0000
0100
0010
0100
0000
0001
0000
1000
0000
0100
0010
0001
,
2000
0000
0000
3010
0100
0000
0001
0000
0010
1000
0000
0010
0000
0100
0000
1000
,
0001
0000
1000
0001
0000
0100
0010
0100
0000
1000
0000
0100
0000
0001
1000
0001
,
0020
0000
0000
0130
1000
0000
0001
0000
0100
0000
1000
0000
0100
0000
0001
0000
,
0010
0000
0100
1000
0000
0001
1000
0001
0000
0100
0000
0010
0000
1000
0001
0010
,
0100
0000
0001
0000
0100
0000
1000
0000
0010
0100
0001
0000
1000
0000
0001
0000
,
1000
0000
0010
0100
0000
0010
0100
0000
0001
0000
1000
0100
1000
0000
0001
0000
,
0010
0000
0100
0000
1000
0000
0001
0000
0100
0000
1000
0100
1000
0000
0100
0000
,
0010
0000
1000
0001
0000
1000
0001
0000
0010
0000
0100
1000
0100
0000
0010
0000
,
0001
0000
1000
0000
0010
0000
0100
1000
0100
0000
0001
0100
0001
0000
1000
0000
,
0001
0000
0010
0100
0000
0010
0001
0000
1000
0000
0001
0100
0001
0000
1000
0000
,
0010
0000
0100
0000
0001
0000
1000
0100
1000
0000
0100
0001
0100
0000
0010
0000
,
0001
0000
0100
0000
1000
0100
1000
0100
0010
0000
1000
0000
0100
0000
0010
0000
,
0001
0000
0000
0100
0000
0000
0010
0000
0000
0010
1000
0000
0100
0000
0001
0000
;
