#TITLE:September;
#SUBTITLE:;
#ARTIST:♪♪♪♪♪;
#TITLETRANSLIT:;
#SUBTITLETRANSLIT:;
#ARTISTTRANSLIT:;
#GENRE:;
#CREDIT:;
#MUSIC:September.mp3;
#BANNER:;
#BACKGROUND:;
#CDTITLE:;
#SAMPLESTART:50.590;
#SAMPLELENGTH:15.328;
#SELECTABLE:YES;
#OFFSET:2.033;
#BPMS:0.000=116.090
,5.000=119.000
,10.000=119.130
,19.000=125.080
,20.000=117.740
,21.000=121.000
,22.000=118.000
,23.000=121.080
,25.000=119.020
,26.000=121.360
,27.000=134.570
,27.500=122.520
,28.000=123.660
,29.000=121.300
,31.000=123.000
,33.000=125.000
,34.000=127.950
,35.000=126.070
,36.000=122.700
,38.000=127.000
,39.000=127.610
,40.000=125.170
,41.000=127.420
,42.000=123.590
,44.000=126.630
,45.000=122.260
,46.000=125.480
,48.000=124.150
,49.000=127.000
,50.000=123.940
,52.000=124.800
,54.000=125.230
,56.000=126.000
,57.000=123.000
,58.000=124.820
,60.000=124.780
,62.000=126.000
,63.000=125.120
,65.000=125.630
,67.000=126.990
,68.000=124.000
,69.000=124.690
,71.000=128.000
,72.000=124.000
,73.000=126.000
,75.000=123.350
,76.000=123.560
,81.000=125.140
,84.000=123.740
,88.000=123.000
,89.000=122.340
,91.000=124.860
,93.000=120.000
,94.000=125.000
,97.000=124.000
,99.000=124.910
,100.000=126.930
,101.000=123.000
,104.000=125.490
,106.000=129.190
,107.000=124.000
,114.000=125.090
,116.000=124.180
,119.000=125.080
,131.000=127.430
,133.000=125.000
,135.000=126.310
,139.000=131.000
,140.000=122.000
,142.000=129.200
,144.000=124.000
,146.000=127.000
,148.000=124.810
,149.000=127.000
,151.000=126.000
,152.000=126.310
,156.000=125.600
,159.000=127.400
,161.000=126.590
,163.000=126.790
,164.000=125.090
,165.000=127.170
,168.000=130.870
,169.000=128.090
,169.979=126.300
,172.000=127.000
,176.000=129.000
,177.000=127.340
,180.000=129.830
,181.000=126.520
,183.000=129.000
,184.000=128.550
,187.000=127.000
,188.000=126.010
,189.000=128.000
,193.000=129.000
,195.000=125.000
,197.000=128.960
,200.000=127.000
,201.000=129.000
,202.000=131.000
,203.000=128.860
,205.000=126.000
,207.000=127.000
,212.000=128.660
,214.000=126.000
,215.000=127.000
,217.000=127.950
,220.000=127.370
,223.000=128.360
,225.000=130.000
,227.000=125.150
,229.000=127.000
,231.000=129.000
,233.000=127.000
,234.000=129.120
;
#STOPS:;
#DISPLAYBPM:125.000;
#BGCHANGES:;
#FGCHANGES:;

//--------------- dance-single - OrangeRight ----------------
#NOTES:
     dance-single:
     OrangeRight:
     Beginner:
     3:
     0,0,0,0,0:
0000
0000
0000
0000
,
0000
0000
0000
0000
,
0000
0000
0000
0000
,
0000
0000
0000
0000
,
0000
0000
0000
0000
,
1000
0000
1000
0000
,
1000
0000
1000
0000
,
1000
0000
0001
0000
,
1000
0000
0001
0000
,
1000
0000
0000
0000
,
0001
0000
1001
0000
,
1000
0000
0100
0000
,
1000
0000
0000
0000
,
0001
0000
0100
0000
,
0001
0000
0000
0000
,
1000
0000
0010
0000
,
1000
0000
0000
0000
,
0001
0000
0010
0000
,
0100
0000
1000
0000
,
0001
0000
0100
0000
,
0001
0000
0000
0000
,
1000
0000
0100
0000
,
1000
0000
0000
0000
,
0001
0000
0010
0000
,
0001
0000
0000
0000
,
1000
0000
0010
0000
,
0100
0000
0001
0000
,
1001
0000
0000
0000
,
1000
0000
0001
0000
,
1001
0000
0000
0000
,
0001
0000
1000
0000
,
1001
0000
0000
0000
,
0100
0000
0010
0000
,
0001
0000
1000
0000
,
0001
0000
1000
0000
,
1000
0000
0100
0000
,
0010
0000
0001
0000
,
1000
0000
0100
0000
,
0010
0000
0001
0000
,
1000
0000
0100
0000
,
0010
0000
0001
0000
,
1000
0000
0001
0000
,
1000
0000
0001
0000
,
1000
0000
0001
0000
,
1000
0000
0100
0100
,
1000
0000
0001
0000
,
1000
0000
0010
0010
,
0100
0000
0001
0000
,
0010
0000
0100
0100
,
1000
0000
0010
0000
,
0100
0000
0001
1000
,
0001
0000
1000
0000
,
0001
0000
0100
0100
,
0001
0000
1000
0000
,
0001
0000
0010
0010
,
0100
0000
1000
0000
,
0010
0000
0100
0100
,
0001
0000
0010
0000
,
0100
0100
0010
0010
;

//--------------- dance-single - OrangeRight ----------------
#NOTES:
     dance-single:
     OrangeRight:
     Easy:
     6:
     0,0,0,0,0:
0000
0000
0000
0000
,
0000
0000
0000
0000
,
0000
0000
0000
0000
,
0000
0000
0000
0000
,
0000
0000
0000
0000
,
0000
0000
0000
0000
,
0000
0000
0000
1000
,
1000
0001
0001
0000
,
0100
0000
0010
0000
,
2000
0000
0001
0000
,
3001
0000
1001
0000
,
1000
0001
1000
0100
,
0010
0001
0100
0010
,
1000
0001
1000
0010
,
0100
0001
0010
0100
,
1000
0001
1000
0001
,
0100
1000
0100
0001
,
2000
3000
0002
0003
,
2000
3000
1001
1001
,
0001
1000
0001
0100
,
0010
1000
0100
0010
,
0001
1000
0001
0010
,
0100
1000
0010
0100
,
0001
1000
0001
1000
,
0100
0010
0001
0100
,
0020
0030
0200
0300
,
0001
1000
1001
1001
,
2000
0000
3000
0002
0000
0003
0000
0000
,
0100
0010
1000
0001
,
2000
0000
3000
0002
0000
0003
0000
0000
,
0001
0010
0100
1000
,
0002
0000
0003
2000
0000
3000
0000
0000
,
0010
0100
0001
1000
,
0002
0003
2000
3000
,
0200
0000
0300
0000
0010
0010
0010
0000
,
0001
0001
1000
1000
,
0001
0001
1000
1000
,
0010
0010
0100
0100
,
0010
0010
0100
0100
,
0001
0100
0010
1000
,
0100
0010
0001
0000
,
1000
0001
1000
0001
,
0100
0000
0010
0000
1000
1000
1000
0000
,
1000
0100
0000
0010
,
0000
0001
1000
0001
,
1000
0010
0000
0100
,
0000
0001
1000
0001
,
0010
0100
0000
1000
,
0000
0001
0100
0010
,
1000
0000
0000
0001
0000
0000
0100
0000
,
0000
0010
0000
0000
1000
1000
1000
0000
,
0001
0100
0000
0010
,
0000
1000
0001
1000
,
0001
0010
0000
0100
,
0000
1000
0001
1000
,
0010
0100
0000
0001
,
0000
1000
0100
0010
,
0001
0000
0000
1000
0000
0000
0010
0000
,
0000
0100
0000
0000
0001
1000
0001
0000
;

//--------------- dance-single - OrangeRight ----------------
#NOTES:
     dance-single:
     OrangeRight:
     Medium:
     8:
     0,0,0,0,0:
0000
0000
0000
0000
,
0000
0000
0000
0000
,
0000
0000
0000
0000
,
0000
0000
0000
0000
,
0000
0000
0000
0000
,
0000
0000
0000
0000
,
0000
0000
0000
0000
0000
0000
1000
0001
,
1000
0000
0100
0010
0100
0000
1000
0000
,
0100
0000
0010
0000
0001
0000
1000
0002
,
0100
0000
1000
0000
,
0013
0000
1001
0000
,
1000
0100
0010
0000
0001
0000
0100
0000
,
0010
0100
0001
0000
0001
0000
1000
0001
,
1000
0000
0100
0000
0010
0000
0001
0100
,
0010
0000
1000
0000
0100
0000
1000
0010
,
1000
0000
0001
0000
0100
0000
0001
0010
,
0100
0000
1000
0100
1000
0000
0001
0100
,
0102
1003
2100
3001
,
1000
0001
1000
0000
1001
0000
1001
0000
,
0001
0100
0010
0000
1000
0000
0100
0000
,
0010
0100
1000
0000
1000
0000
0001
1000
,
0001
0000
0100
0000
0010
0000
1000
0100
,
0010
0000
0001
0000
0100
0000
0001
0010
,
0100
0000
1000
0000
0001
0000
0100
0010
,
1000
0000
0001
0010
0001
0000
1000
0010
,
2010
3001
0012
1003
,
0000
1000
0000
0110
0000
1001
0000
0000
,
2000
0000
3100
0002
0000
0003
0100
0000
,
0010
0001
1000
0000
0001
0000
0010
0000
,
0002
0000
0013
2000
0000
3000
0010
0000
,
0100
1000
0001
0000
1000
0000
0100
0000
,
2000
0000
3010
0002
0000
0003
0010
0000
,
0100
0001
1000
0000
0010
0000
0100
0001
,
0000
1000
0100
1000
0000
0001
0100
0001
,
0000
1000
0001
1000
0100
0010
0100
0000
,
2000
3001
0002
1003
,
2000
3100
0002
0103
,
2000
3001
0002
1003
,
2000
3010
0002
0013
,
0000
1000
0010
1000
0010
0000
0100
0001
,
0000
0010
0001
0010
0000
0100
1000
0000
,
0001
0010
0100
1000
,
0010
0000
0100
0000
0001
1000
0001
0000
,
1000
0000
1000
0200
0000
0000
0310
0002
,
0000
0000
0103
0010
1000
0001
1000
0000
,
0001
0000
0001
0200
0000
0000
0310
2000
,
0000
0000
3100
0010
0001
1000
0001
0000
,
1000
0000
0001
2000
0000
0000
3010
0200
,
0000
0000
0301
1000
0100
0010
0100
0000
,
0000
1000
0100
1000
0000
0001
0100
0001
,
0000
0100
0010
0100
0001
1000
0001
0000
,
1000
0010
0000
1000
0001
0000
1000
0100
,
0000
1000
0001
0000
0100
0010
0100
0000
,
0001
0010
0000
0001
1000
0000
0001
0100
,
0000
0001
1000
0000
0010
0100
0010
0000
,
1000
0100
0000
0010
0001
0000
1000
0010
,
0000
0100
0001
0000
1000
0001
1000
0000
,
0001
0001
0000
0100
0100
0000
0010
0010
,
0000
1000
1000
0000
0001
1000
1001
0000
;

//--------------- dance-single - OrangeRight ----------------
#NOTES:
     dance-single:
     OrangeRight:
     Hard:
     10:
     0,0,0,0,0:
0000
0000
0000
0000
,
0000
0000
0000
0000
,
0000
0000
0000
0000
,
0000
0000
0000
0000
,
0000
0000
0000
0000
,
0000
0000
0000
0000
,
0000
0000
0000
0000
0000
0000
0000
0000
0000
0000
0000
0000
1000
0001
1000
0001
,
1000
0000
0000
0000
0100
0010
0100
0010
0100
0000
0000
0000
1000
0000
0000
0000
,
0010
0000
0100
0000
0001
0000
1000
0002
,
0100
0010
1000
0010
,
0100
0000
1000
0000
0013
0001
0100
0010
,
1000
0100
0010
0000
0001
0100
0010
0000
,
1000
0001
0010
0001
1000
0000
0010
1000
,
0001
0010
0001
0000
1000
0100
1000
0000
,
0001
0100
0010
1000
0000
0010
0100
0001
,
0010
0100
0010
0000
0001
1000
0001
0000
,
0100
0010
1000
0100
1000
0000
0010
0200
,
0000
0301
0100
0002
0000
1003
0100
2000
,
0000
3001
1000
0001
1001
0000
0110
0000
,
1000
0100
0010
0000
0001
0100
0010
0000
,
1000
0010
0100
0010
1000
0000
0001
0010
,
0100
1000
0010
0000
0100
0001
0010
0000
,
0100
1000
0010
0100
0001
0000
1000
0001
,
1000
0000
0100
0010
0100
1000
0100
0000
,
0010
0001
0100
0010
0100
0000
0001
2000
,
0000
3010
1000
0020
0000
0130
0001
0100
,
0000
0000
0101
0000
0000
0000
1010
0000
0000
0000
0001
1000
0001
0000
0000
0000
,
1000
0000
0010
1000
0100
0000
1001
0000
,
0010
0100
0010
0001
2000
0000
3001
0000
,
0001
0000
0100
0001
0010
0000
1001
0000
,
0100
0010
0100
1000
0002
0000
1003
0000
,
0001
0000
0100
0001
0010
0000
1001
0000
,
0010
0100
1000
0001
0200
0000
0301
0020
,
0000
0130
1000
0200
0000
0310
0001
0020
,
0000
0130
1000
0001
1001
1001
1001
0000
,
0020
0000
1030
0100
0020
0000
0031
0100
,
0020
0000
0130
0001
0020
0000
0130
1000
,
0002
0000
0013
0100
2000
0000
3010
0100
,
0002
0000
1003
0100
2000
0000
3001
0010
,
0001
1000
0100
0010
0002
0000
0103
0000
,
0010
1000
0100
2000
0000
3001
1000
0000
,
1000
1000
0100
0010
0001
0001
0100
0010
,
1000
0001
1000
0000
0001
1000
0001
0000
0100
0000
0010
0000
1001
0000
0000
0000
,
1000
0100
0000
0100
0010
0000
0010
0001
,
0000
0001
0100
0000
0001
1000
1001
0000
,
0001
0100
0000
0100
0010
0000
0010
1000
,
0000
1000
0100
0000
0100
0010
0110
0000
,
1000
0001
0000
0001
0100
0000
0100
0010
,
0000
0010
1000
0000
1000
0001
1001
0000
,
1000
1010
0000
0001
0101
0000
1000
1100
,
0000
0001
0011
0000
0010
0100
1001
0000
,
0101
0000
0001
0021
0000
0130
1000
1020
,
0000
0130
0010
0100
0001
1000
1001
0000
,
1100
0000
1000
1020
0000
0130
0001
0021
,
0000
0130
0010
0100
1000
0010
1010
0000
,
0010
1010
0000
1000
1100
0000
0100
0101
,
0000
0001
0011
0000
0010
0100
1001
0000
,
1100
1100
0000
0011
0011
0000
1010
1010
,
0000
0101
0101
0000
1001
0110
1001
0000
;

//--------------- dance-single - aboutblank ----------------
#NOTES:
     dance-single:
     aboutblank:
     Challenge:
     11:
     0,0,0,0,0:
0000
0000
0000
0000
,
0000
0000
0000
0000
,
0000
0000
0000
0000
,
0000
0000
0000
0000
,
0000
0000
0000
0000
,
0001
0100
0010
0100
0001
0010
0100
0010
,
0001
0000
1000
0000
0010
0000
0100
0000
0001
0000
0010
0000
0100
1000
0100
1000
,
0002
0023
2030
3200
,
0302
0000
0023
0000
2030
0000
3100
0002
,
1000
0203
2300
3020
,
0031
1000
0001
0000
0110
0010
0100
0001
,
0010
0001
0100
0001
0010
0001
0100
0001
,
0010
0100
1000
0020
0100
0030
0110
0001
,
1000
0100
1000
0010
1000
0001
1000
0100
,
0010
0100
1000
0020
0100
0030
0110
0001
,
1000
0100
0001
0100
1000
0100
0001
1000
,
0010
0001
0100
0020
1000
0030
1010
0002
,
0100
0003
0101
2000
0100
3000
1000
0100
,
0001
0100
1000
0100
0010
0000
0011
0000
,
1010
0010
0100
0010
1000
0010
0100
0010
,
1000
0010
0100
0002
0010
0003
0011
1000
,
0001
0010
0100
0010
0001
0010
0100
0010
,
0001
0100
0010
2000
0100
3000
1001
1000
,
0100
1000
0001
1000
0100
1000
0001
0100
,
0010
1000
0001
0200
0010
0300
0110
2000
,
0100
3000
0110
0000
0001
0010
0100
1000
,
0001
0000
0100
0000
0010
0000
1000
0000
0001
0000
0010
0100
0010
0000
0000
0000
,
1100
0000
0001
2000
0100
3000
0110
0000
,
0001
0010
1000
0010
0001
0000
0110
0000
,
0101
0000
0100
0002
1000
0003
0011
0000
,
1000
0010
0001
0010
1000
0000
0110
0000
,
1001
0000
1000
0020
0100
0030
1001
0000
,
0001
0010
0100
1000
0020
0000
0130
0001
,
2000
0010
3010
0000
0002
0100
0103
0000
,
2000
0100
3100
0000
0011
1010
0011
0000
,
0001
0100
0001
0100
1000
0100
1000
0100
,
0001
0100
1000
0100
0001
0100
1000
0100
,
0001
0010
0001
0010
1000
0010
1000
0010
,
0001
0010
1000
0010
0001
0010
1000
0010
,
0100
1000
0010
0100
0002
0000
1003
0000
,
0100
0001
0010
0100
2000
0000
3001
0000
,
1000
0000
0001
0000
0100
0000
0010
0000
1000
0100
1000
0000
0001
0000
0100
0000
,
0001
0010
0001
0000
1000
0100
1000
0000
1001
0000
1001
0000
1001
0000
0000
0000
,
1100
0000
1000
0200
0001
0000
1300
0020
,
0001
0000
1030
0100
0001
0100
0110
0000
,
0101
0000
0001
0200
1000
0000
0301
0020
,
1000
1030
0010
0001
0100
0010
0110
0000
,
0011
0000
0001
0200
1000
0000
0301
0020
,
1000
0000
0031
0200
1000
0000
0301
0020
,
1000
0100
0001
0100
,
1000
0000
0100
0000
0001
0001
0031
0000
,
1000
0010
1000
0010
0001
0010
0001
0010
,
1000
0100
1000
0100
0001
0100
0110
0000
,
0001
0100
0001
0100
1000
0100
1000
0100
,
0001
0010
0001
0010
1000
0010
0110
0000
,
1000
0100
1000
0100
0010
0001
0010
0001
,
1000
0010
1000
0010
0100
0001
0011
0000
,
1000
0002
0000
0103
0020
0000
1030
0020
,
0000
0130
0002
0000
1000
1003
1001
0000
;

//--------------- dance-double - OrangeRight ----------------
#NOTES:
     dance-double:
     OrangeRight:
     Easy:
     3:
     0,0,0,0,0:
00000000
00000000
00000000
00000000
,
00000000
00000000
00000000
00000000
,
00000000
00000000
00000000
00000000
,
00000000
00000000
00000000
00000000
,
00000000
00000000
00000000
00000000
,
00000000
00000000
00000000
00000000
,
00000000
00000000
00000000
10000000
,
10000000
00010000
00010000
00000000
,
01000000
00000000
00001000
00000000
,
00020000
00000000
00001000
00000000
,
00031000
00000000
00011000
00000000
,
00010000
00000000
00001000
00000000
,
00010000
00001000
00010000
00000000
,
00000010
00000000
00010000
00000000
,
00001000
00010000
00001000
00000000
,
01000000
00000000
00010000
00000000
,
00100000
01000000
10000000
00000000
,
00200000
00000000
02300000
00000000
,
03010000
00100000
00011000
00011000
,
00001000
00000000
00010000
00000000
,
00000010
00001000
00000010
00000000
,
00010000
00000000
00001000
00000000
,
00100000
00010000
00100000
00000000
,
00001000
00000000
00010000
00000000
,
00000100
00000010
00000001
00000000
,
00002000
00000000
00003002
00000000
,
00001003
00000001
00001001
00001001
,
00000002
00000000
00000003
00002000
00000000
00003000
00000010
00000000
,
00000100
00000001
00000010
00000100
,
00020000
00000000
00030000
00002000
00000000
00003000
00010000
00000000
,
00001000
00010000
00001000
01000000
,
00200000
00000000
00300000
02000000
00000000
03000000
00010000
00000000
,
10000000
01000000
00100000
00010000
,
20000000
30000000
00020000
00030000
,
10000000
00000000
00010000
00000000
10000000
10000000
10000000
00000000
,
00200000
00300000
20000000
30000000
,
02000000
03000000
00200000
00300000
,
00002000
00003000
00020000
00030000
,
00000200
00000300
00000020
00000030
,
00000002
00000003
00002000
00003000
,
00000010
00000100
00000001
00000000
,
00000001
00000010
00000100
00010000
,
00001000
01000000
00100000
10000000
,
00010000
10000000
00000000
01000000
,
00000000
00100000
00010000
00100000
,
00001000
00010000
00000000
00000010
,
00000000
00000100
00000001
00000010
,
00000100
00000010
00000000
00000001
,
00000000
00001000
00000001
00001000
,
00000010
00000000
00000000
00000100
00000000
00000000
00000001
00000000
,
00000000
00001000
00000000
00000000
00000001
00000001
00000001
00000000
,
00001000
00000001
00000000
00000100
,
00000000
00000010
00001000
00000010
,
00010000
00001000
00000000
00100000
,
00000000
01000000
10000000
00100000
,
01000000
00100000
00000000
10000000
,
00000000
00010000
10000000
00010000
,
00100000
00000000
00000000
01000000
00000000
00000000
10000000
00000000
,
00000000
00010000
00000000
00000000
10000000
00010000
10000000
00000000
;

//--------------- dance-double - OrangeRight ----------------
#NOTES:
     dance-double:
     OrangeRight:
     Medium:
     7:
     0,0,0,0,0:
00000000
00000000
00000000
00000000
,
00000000
00000000
00000000
00000000
,
00000000
00000000
00000000
00000000
,
00000000
00000000
00000000
00000000
,
00000000
00000000
00000000
00000000
,
00000000
00000000
00000000
00000000
,
00000000
00000000
00000000
00000000
00000000
00000000
10000000
00010000
,
10000000
00000000
01000000
00100000
01000000
00000000
10000000
00000000
,
00100000
01000000
00010000
00100000
,
00002000
00010000
00000000
01000000
,
00000000
00103000
00101000
00000000
,
00001000
00100000
00010000
01000000
,
00100000
10000000
00100000
00000000
01000000
00000000
00010000
00000000
,
00100000
00000000
00001000
00000000
00010000
00000000
00000100
00001000
,
00000010
00000000
00000100
00000001
00000000
00000000
00000010
00000000
,
00000100
00000000
00001000
00000000
00000010
00000000
00000100
00000001
,
00000100
00000001
00000010
00000100
00000000
00000000
00001000
00000100
,
00020100
00031000
01002000
00013000
,
00001000
00010000
00000100
00000000
00001100
00000000
00010100
00000000
,
00001000
00010000
00000100
00000000
00001000
00000000
00000010
00000000
,
00000100
00000001
00000010
00001000
,
00000010
00000000
00000001
00000000
00000100
00000000
00000010
00010000
,
00001000
00000000
00100000
00001000
00010000
00000000
00000100
00010000
,
00001000
00000000
00100000
00000000
00010000
00000000
01000000
00100000
,
10000000
01000000
00100000
00010000
,
01020000
10030000
21000000
30010000
,
10000000
00010000
00000000
01000000
00000000
00001000
00010000
00000000
,
00002000
00000000
00103000
00020000
00000000
01030000
00100000
00000000
,
10000000
01000000
00100000
00010000
01000000
00000000
00001000
00000000
,
00020000
00000000
00030010
00002000
00000000
00003100
00000010
00000000
,
00000001
00000100
00000001
00000100
00000010
00000000
00001000
00000000
,
00000200
00000000
00010300
00002000
00000000
00003000
00010000
00000000
,
00001000
00100000
00001000
00100000
00010000
00000000
01000000
00100000
,
00000000
10000000
01000000
10000000
00000000
00010000
01000000
00010000
,
00000000
00100000
00010000
00100000
00001000
00010000
00001000
00000000
,
00020000
00031000
00002000
00013000
,
00020000
00030100
00002000
00003100
,
00000200
00010300
00002000
01003000
,
00020000
00130000
00200000
00301000
,
00000000
00010000
00001000
00010000
00000100
00000000
00001000
00000100
,
00000000
00000010
00000001
00000100
00000000
00000010
00000100
00000000
,
00000001
00000100
00000001
00000100
00000010
00001000
00000010
00001000
,
00000100
00010000
00000100
00010000
00001000
00100000
00001000
00000000
,
00002000
00000000
00013000
00000200
00000000
00000000
00001300
00000020
,
00000000
00000000
00000130
00000001
00001000
00000001
00001000
00000000
,
00000002
00000000
00001003
00000200
00000000
00000000
00010300
00002000
,
00000000
00000000
00013000
00001000
01000000
00010000
01000000
00000000
,
00002000
00000000
00103000
00020000
00000000
00000000
01030000
00200000
,
00000000
00000000
10300000
00010000
01000000
00100000
01000000
00000000
,
00010000
01000000
00000000
00100000
10000000
00000000
01000000
00100000
,
00000000
00010000
00100000
00000000
00001000
00010000
00001000
00000000
,
00010000
00001000
00000000
00010000
00000100
00000000
00010000
00000010
,
00000000
00010000
00001000
00000000
00010000
00001000
00010000
00000000
,
00001000
00010000
00000000
00001000
00100000
00000000
00001000
01000000
,
00000000
00001000
00010000
00000000
00001000
00010000
00001000
00000000
,
00010000
00001000
00000000
00001000
01000000
00000000
01000000
00100000
,
00000000
00100000
10000000
00000000
00010000
10000000
00010000
00000000
,
10000000
10000000
00000000
00010000
00010000
00000000
01000000
01000000
,
00000000
00001000
00001000
00000000
00010000
00001000
00011000
00000000
;

//--------------- dance-double - OrangeRight ----------------
#NOTES:
     dance-double:
     OrangeRight:
     Hard:
     11:
     0,0,0,0,0:
00000000
00000000
00000000
00000000
,
00000000
00000000
00000000
00000000
,
00000000
00000000
00000000
00000000
,
00000000
00000000
00000000
00000000
,
00000000
00000000
00000000
00000000
,
00000000
00000000
00000000
00000000
,
00000000
00000000
00000000
00000000
00000000
00000000
00000000
00000000
00000000
00000000
00000000
00000000
10000000
00010000
10000000
00010000
,
10000000
00000000
00000000
00000000
00100000
01000000
00100000
01000000
00100000
00000000
00000000
00000000
10000000
00000000
00000000
00000000
,
01000000
00100000
00010000
00000000
01000000
00010000
00100000
00002000
,
01000000
00010000
00100000
01000000
,
00100000
00013000
00011000
00000000
,
00100000
00001000
00010000
00000000
00000100
00010000
00001000
00000000
,
01000000
00001000
00010000
00000100
00000000
00000000
00010000
00001000
,
00010000
00000100
00001000
00000000
00000010
00000100
00000001
00000010
,
00000100
00000010
00000001
00000100
00000010
00000000
00001000
00000010
,
00010000
00001000
00100000
00000000
00001000
00010000
00000010
00000100
,
00000001
00000010
00001000
00000010
00000001
00000100
00000010
00002000
,
00000000
00003010
00001000
00000020
00000000
00000130
00000001
00000200
,
00000000
00000301
00001000
00000001
00001001
00000000
00001100
00000000
,
00000010
00010000
00001000
00000000
01000000
00001000
00010000
00000000
,
00000100
00010000
00001000
01000000
00010000
00000000
01000000
00010000
,
00100000
00000000
01000000
00000000
10000000
00000000
00100000
01000000
,
00100000
10000000
01000000
00100000
00010000
00000000
00010000
00100000
,
00001000
00010000
00000010
00000000
00010000
00001000
00100000
01000000
,
10000000
00100000
00010000
00100000
10000000
01000000
00100000
00020000
,
00000000
00130000
00010000
00200000
00000000
01300000
10000000
02000000
,
00000000
00000000
13000000
00000000
00000000
00000000
10100000
00000000
00000000
00000000
10000000
00010000
10000000
00000000
00000000
00000000
,
20010000
00000000
31000000
10020000
00000000
01030000
00100000
00000000
,
01000000
00001000
00010000
00000100
00001000
00000000
00001100
00000000
,
00001002
00000000
00000013
00002001
00000000
00003010
00000100
00000000
,
00000010
00001000
00000100
00010000
00001000
00000000
00011000
00000000
,
00102000
00000000
00013000
00020010
00000000
00031000
00011000
00000000
,
00001000
00100000
00010000
01000000
00100000
10000000
01000000
00100000
,
00010000
10000000
00100000
20000000
00000000
30010000
01000000
00020000
,
00000000
01030000
00001000
00010000
00011000
00011000
00011000
00000000
,
00002000
00000000
00103000
00001000
00020000
00000000
00030010
00010000
,
00002000
00000000
01003000
00001000
00020000
00000000
00030100
00010000
,
00002000
00000000
00103000
00010000
20000000
00000000
30100000
10000000
,
00020000
00000000
00130000
00001000
00020000
00000000
00030010
00001000
,
00000001
00000010
00000100
00001000
00000020
00000000
00001030
00000100
,
00000000
00010000
00001000
00010000
00000000
00000000
00001000
01000000
,
00010000
00010000
01000000
00100000
10000000
10000000
01000000
00100000
,
00010000
10000000
00010000
00000000
10000000
00010000
10000000
00000000
00010000
00000000
10000000
00000000
10010000
00000000
00000000
00000000
,
20100000
00000000
30010000
02000000
00000000
00000000
03001000
00020000
,
00000000
00000000
00030100
00001000
00000001
00000100
00000101
00000000
,
00000012
00000000
00001003
00000020
00000000
00000000
00010030
00002000
,
00000000
00000000
00103000
00010000
01000000
00100000
10100000
00000000
,
01200000
00000000
10300000
02000000
00000000
00000000
03100000
00020000
,
00000000
00000000
00130000
00001000
00010000
00001000
00011000
00000000
,
00100000
00101000
00000000
00010000
00011000
00000000
00000010
00010010
,
00000000
00001000
00011000
00000000
00001000
00100000
00110000
00000000
,
10000000
11000000
00000000
01000000
01010000
00000000
00010000
00011000
,
00000000
00001000
00001100
00000000
00001000
00000001
00001001
00000000
,
00000001
00000011
00000000
00000010
00001010
00000000
00001000
00011000
,
00000000
00010000
00110000
00000000
00010000
10000000
10010000
00000000
,
00001000
00101000
00000000
00010000
00010010
00000000
00001000
01001000
,
00000000
00010000
00010100
00000000
00010000
00001000
00011000
00000000
,
00110000
00110000
00000000
00001010
00001010
00000000
01010000
01010000
,
00000000
00001100
00001100
00000000
00010100
00101000
00010100
00000000
;
