#TITLE:Say The Word;
#SUBTITLE:;
#ARTIST:Smashtrax;
#TITLETRANSLIT:;
#SUBTITLETRANSLIT:;
#ARTISTTRANSLIT:;
#GENRE:;
#CREDIT:;
#MUSIC:46. Say The Word.mp3;
#BANNER:;
#BACKGROUND:;
#CDTITLE:;
#SAMPLESTART:15.967;
#SAMPLELENGTH:15.000;
#SELECTABLE:YES;
#OFFSET:1.929;
#BPMS:0.000=120.000;
#STOPS:;
#BGCHANGES:;
#FGCHANGES:;

//--------------- dance-single - forcednature ----------------
#NOTES:
     dance-single:
     forcednature:
     Beginner:
     2:
     0,0,0,0,0:
0000
0000
0000
0000
,
0000
0000
0000
0000
,
0000
0000
0000
0000
,
0000
0000
0000
0000
,
0000
0000
0000
0000
,
1000
0000
0000
0000
,
0001
0000
0000
0000
,
0010
0000
0000
0000
,
0100
0000
0100
0000
,
0110
0000
0000
0000
,
0010
0000
0000
0000
,
0001
0000
0000
0000
,
1000
0000
0000
0000
,
0010
0000
0000
0000
,
0100
0000
0000
0000
,
0001
0000
0000
0000
,
1000
0000
0000
0000
,
0100
0000
0000
0000
,
0000
0000
0000
0000
,
0010
0000
0010
0000
,
0001
0000
0001
0000
,
0100
0000
0000
0000
,
0000
0000
0000
0000
,
0010
0000
0000
0000
,
1000
0000
0000
0000
,
0100
0000
0000
0000
,
1000
0000
0000
0000
,
0001
0000
0000
0000
,
0100
0000
0000
0000
,
0010
0000
0000
0000
,
1000
0000
0100
0000
,
1000
0000
0000
0000
,
0001
0000
0000
0000
,
1000
0000
0000
0000
,
0001
0000
0000
0000
,
0100
0000
0000
0000
,
0010
0000
0000
0000
,
1000
0000
0000
0000
,
0001
0000
0001
0000
,
0010
0000
0010
0000
,
0100
0000
0000
0000
,
1000
0000
0001
0000
,
0100
0000
0010
0000
,
1000
0000
0000
0000
,
0100
0000
0100
0000
,
0100
0100
0100
0000
,
0010
0000
0001
0000
;

//--------------- dance-single - forcednature ----------------
#NOTES:
     dance-single:
     forcednature:
     Easy:
     8:
     0,0,0,0,0:
0000
0000
0000
0000
,
0000
0000
0000
0000
,
0000
0000
0000
0000
,
0000
0000
0000
0000
,
0000
0000
0000
0000
,
0002
2003
0000
3200
,
0000
0320
0000
0032
,
0000
0000
0000
0100
0000
0000
0100
0000
,
1003
0000
0001
0000
0010
0100
0010
0000
,
1001
0000
1000
0010
0000
1000
0100
0000
,
0010
0000
0001
0100
0000
0010
1000
0000
,
0001
0000
0000
0020
0000
0000
0230
0000
,
1300
0000
0000
0020
0000
0000
0230
0000
,
0301
0000
0000
2000
0000
0000
3200
0000
,
1300
0000
0000
0002
0000
0000
0203
0000
,
0310
0000
0000
2000
0000
0000
3002
0000
,
0013
0000
0000
0002
0000
0000
2003
0000
,
3002
0203
0000
0320
,
0000
2030
0000
3200
,
0310
0000
0110
0000
0100
1000
0001
0000
,
0100
0000
0000
0020
0000
0000
2030
0000
,
3001
0000
0000
0000
0000
0000
0000
0000
0000
0000
0000
0010
0000
0000
0000
0000
0000
0000
0000
0010
0000
0000
0000
0000
0000
0000
0000
0010
0000
0000
0000
0000
,
0000
0000
0000
0010
0000
0000
0000
0100
0000
0000
0000
0010
0000
0000
0000
0100
0000
0000
0000
0010
0000
0000
0000
0100
0000
0000
0000
0010
0000
0000
0000
0000
,
1001
0000
1000
0100
0000
0010
0001
0000
,
0100
0000
0010
1000
0000
0001
0010
0000
,
0100
0000
1000
0001
0000
0100
0010
0000
,
1000
0000
0100
0010
0000
0001
0100
0000
,
0020
2030
0000
3002
,
0000
0023
0000
0230
,
0000
0000
0000
0000
,
2300
0000
3002
0203
0000
0320
0000
0000
,
2030
0000
0000
0001
0000
0000
0100
0000
,
3002
0000
0000
1000
0000
0000
0100
0000
,
2003
0000
0000
0001
0000
0000
0010
0000
,
3002
0000
0000
0100
0000
0000
1000
0000
,
0023
0032
0000
0203
,
0000
0320
0000
2030
,
0000
0000
0100
0100
0000
0000
0001
3001
,
1000
0000
0100
0000
0010
0001
0010
0000
,
0100
0000
1000
0000
0001
0100
0002
1000
,
0000
1000
0000
1000
0000
1000
0003
0000
,
0001
0000
0010
0000
0100
1000
0100
0000
,
0010
0000
0001
0000
1000
0010
1000
0000
,
0100
0000
0010
0000
0001
1000
0001
1000
,
0000
0001
0000
1000
0000
0001
1000
0001
,
1000
1000
0001
0001
0200
0000
0000
0000
,
0320
0000
2030
0000
,
0000
0000
0000
0000
,
3000
0000
0000
0000
;

//--------------- dance-single - forcednature ----------------
#NOTES:
     dance-single:
     forcednature:
     Medium:
     10:
     0,0,0,0,0:
0000
0000
0000
0000
,
0000
0000
0000
0000
,
0000
0000
0000
0000
,
0000
0000
0000
0000
,
0000
0000
0000
0000
,
2000
0000
3100
0020
0000
0000
0031
0200
,
0000
0000
0310
2000
0000
0000
3001
0020
,
0000
0000
0000
1000
0000
0000
0100
0000
,
0031
0010
0100
1000
0001
0100
0010
0000
,
1001
0000
0000
1000
0100
0000
0010
0000
0001
1000
0010
0000
0100
0000
0000
0000
,
0001
0000
0000
0001
0010
0000
0100
0000
1000
0001
0100
0000
0010
0000
0000
0000
,
1000
0000
0000
1000
0100
0000
0010
0000
0001
1000
0010
0000
0100
0000
0000
0000
,
0001
0000
0000
0001
0010
0000
0100
0000
1000
0001
0100
0000
0010
0000
0000
0000
,
1000
0000
0001
0020
0000
0130
2000
0000
,
3001
0000
0100
0020
0000
1030
0002
0000
,
0013
0000
0100
2000
0000
3001
0200
0000
,
0310
0000
1000
0200
0000
0310
0002
0000
,
0203
0000
0310
2000
0000
0000
3100
0020
,
0000
0000
0031
2000
0000
0000
3010
0100
,
0001
0000
0100
0000
0010
0000
1000
0000
0001
0010
0001
0000
0100
0000
0000
0000
,
0010
0000
0000
2000
0000
0000
3200
0000
,
0320
0000
0000
0000
0000
0000
0000
0000
0031
0000
0000
1000
0000
0000
0000
0000
0000
0000
0000
0001
0000
0000
0000
0000
0000
0000
0000
1000
0000
0000
0000
0000
,
0000
0000
0000
0001
0000
0000
0000
1000
0000
0000
0000
0001
0000
0000
0000
1000
0000
0000
0000
0001
0000
1000
0000
0001
0000
1000
0000
0001
0000
1000
0000
0001
,
0100
0000
0010
1000
0100
0000
0010
0001
0000
0001
0100
0000
0010
0000
1000
0000
,
0001
0000
0010
0100
1000
0000
0001
0100
0000
0100
0010
0000
1000
0000
0100
0000
,
0010
0000
0001
1000
0010
0000
0100
0001
0000
0001
1000
0000
0100
0000
0010
0000
,
0001
0000
1000
0010
0100
0000
0001
0010
0100
0000
1100
0000
0010
0000
0011
0000
,
1002
0000
0103
0020
0000
0000
1030
0200
,
0000
0000
0310
0002
0000
0000
0103
0020
,
0000
0000
0000
1000
0000
0000
0100
0000
,
2030
0000
3002
0023
0000
0230
0000
0000
,
2300
0000
3001
0200
0000
0000
0310
1000
,
0200
0000
0310
0002
0000
0000
1003
0010
,
0200
0000
0301
0020
0000
0000
0130
2000
,
0000
0000
3010
0200
0000
0000
0301
0010
,
0200
0000
1300
0002
0000
0000
0103
0020
,
0000
0000
1030
0200
0000
0000
0310
0002
,
0100
0000
1000
1000
0000
0000
0010
0013
,
0001
0000
0100
0000
0010
0000
1000
0001
0010
0001
0010
0000
0100
0000
1000
0000
,
1001
0000
0001
0000
0100
0000
0010
1000
0000
1000
0001
0000
0020
0000
0200
0000
,
0300
0200
0300
0200
0300
0200
0000
0330
,
0110
0000
0100
0000
1000
0000
0001
0100
0010
1000
0001
0000
0010
0000
0100
1000
,
0001
0000
0100
0000
0010
0000
1000
0100
0010
0001
0100
0000
0010
0000
1000
0000
,
1001
0000
0000
0001
0010
0000
0100
0000
1000
0010
0100
0000
0001
0000
1000
0100
,
0010
0001
0010
1000
0010
0100
0100
0100
,
0100
1000
0100
1000
0001
0100
0001
0100
0020
0000
0000
0000
0000
0000
2030
0000
,
3200
0000
0000
0320
0002
0000
0000
0000
,
0030
0000
0000
0000
,
0003
0000
0000
0000
;

//--------------- dance-single - forcednature ----------------
#NOTES:
     dance-single:
     forcednature:
     Hard:
     14:
     0,0,0,0,0:
0000
0000
0000
0000
,
0000
0000
0000
0000
,
0000
0000
0000
0000
,
0000
0000
0000
0000
,
0000
0000
0000
0000
,
0102
0000
0010
0023
0000
0000
0100
0230
,
0000
0000
1000
2300
0000
0000
3010
0000
,
0210
0000
0000
0001
0000
0000
1000
0000
,
0310
0100
0001
0000
1000
0000
0100
0000
0010
0001
1000
0001
0100
0000
0000
0000
,
0110
0000
0010
1000
0001
0000
1000
0100
0000
0100
0010
0100
1000
0000
0001
0100
,
0010
0000
1000
0000
0001
0000
0010
0100
0000
0010
0001
1000
0001
0000
0100
0000
,
0010
1000
0100
0020
0000
1000
0032
0000
,
0103
0010
0001
0020
0000
0100
2030
0000
,
3001
0100
0010
0000
1000
0000
0001
1000
0000
1000
0100
0000
0010
0000
0001
0000
,
1000
0010
0100
0000
0001
0000
0010
0100
0000
0100
1000
0000
0001
0000
0100
0000
,
0010
1000
0001
0000
0010
0000
0100
1000
0000
1000
0001
0000
0100
0000
0010
1000
,
0001
0000
0010
0000
0100
1000
0100
0000
0010
0001
1000
0001
0100
0000
0000
0000
,
0020
0000
1030
2000
0000
0000
0001
3002
,
0000
0000
0010
0023
0000
0000
0100
0130
,
0010
0000
0001
0000
1001
0000
1000
0010
0100
0001
0100
0000
0010
0000
1000
0001
,
0010
0000
0000
0200
0000
0000
2300
0000
,
3002
0000
0000
0000
0000
0000
0000
0000
0103
0000
0000
0010
0000
0000
0000
0000
0000
0000
0000
0010
0000
0000
0000
0000
0000
0000
0000
0010
0000
0000
0000
0000
,
0000
0000
0000
0010
0000
0000
0000
0010
0000
0000
0000
0010
0000
0000
0000
0010
0000
0000
0000
0010
0000
0010
0000
0010
0000
0010
0000
0010
0000
0010
0000
0010
,
1000
0000
0100
0000
1100
0000
0100
0010
0001
1000
0001
0100
0010
1000
0001
0010
,
0100
0000
1000
0000
1001
0000
0001
0100
0010
1000
0001
0010
0100
1000
0001
0100
,
0010
0000
1000
0000
1100
0000
0100
0010
0001
0100
0010
0100
0001
0010
0100
1000
,
0010
0000
0100
0000
0101
0000
0001
0010
0001
1000
0010
1000
0100
1000
0010
0100
,
0002
0000
0013
0200
0000
0000
1300
0002
,
0000
0000
0103
2000
0000
0000
3100
0020
,
1000
0000
0000
0100
0000
0000
0001
0000
,
2030
0000
0000
0000
3200
0000
0320
0000
0000
0000
0031
0010
0100
1000
0100
0010
,
0002
0000
0103
0020
0000
1000
0100
0001
,
0230
0000
0301
2000
0000
0100
0001
0010
,
3002
0000
0013
0200
0000
0001
0010
1000
,
0320
0000
0000
0100
0000
0000
0001
0030
,
0120
0000
0130
2000
0000
0000
3001
0200
,
0000
0000
0310
2000
0000
3100
0010
0002
,
0100
1000
0010
1000
0000
0103
0001
0010
,
0100
0000
1000
0000
1100
0000
0100
0010
0001
1000
0001
0000
0100
0010
1000
0000
,
0001
0000
0010
0000
0110
0000
0100
1000
0000
1000
0001
0100
0010
0000
0200
0000
,
0000
0020
0030
0020
0030
0020
0000
0330
,
1001
0000
1000
0100
0010
0001
1000
0010
0000
0100
0001
1000
0001
0010
0100
1000
,
0001
0000
0100
0010
0100
0001
1000
0100
0000
0010
0001
1000
0001
0100
0010
1000
,
0001
0000
0010
0100
1000
0000
0001
0100
0000
0100
1000
0100
0001
0000
1000
0100
,
0010
0000
1000
0010
0001
0000
1000
0001
0100
0010
1000
0000
0001
0000
1000
0000
,
0001
0000
1000
0000
0001
0000
1000
0000
0001
1000
0001
1000
0001
1000
0001
1000
0020
0000
0000
0000
0000
0000
0000
0000
0000
0000
0000
0000
0230
0000
0000
0000
,
0302
0000
0000
2003
0200
0000
0000
0000
,
0300
0000
0000
0000
,
3000
0000
0000
0000
;
