#TITLE:Sakura In The Galaxy;
#SUBTITLE:;
#ARTIST:Takuya Hanaoka;
#TITLETRANSLIT:;
#SUBTITLETRANSLIT:;
#ARTISTTRANSLIT:;
#GENRE:;
#CREDIT:;
#MUSIC:Sakura In The Galaxy.ogg;
#BANNER:;
#BACKGROUND:;
#CDTITLE:;
#SAMPLESTART:67.317;
#SAMPLELENGTH:13.241;
#SELECTABLE:YES;
#OFFSET:1.580;
#BPMS:0.000=145.000;
#STOPS:;
#BGCHANGES:;
#FGCHANGES:;

//--------------- dance-single - aboutblank ----------------
#NOTES:
     dance-single:
     aboutblank:
     Beginner:
     2:
     0,0,0,0,0:
0000
0000
0000
0000
,
0000
0000
0000
0000
,
0000
0000
1000
0000
,
0000
0000
1000
0000
,
0000
0000
1000
0000
,
0000
0000
0000
0000
,
0000
0000
0001
0000
,
0000
0000
0001
0000
,
0000
0000
0100
0000
,
0010
0000
0000
0000
,
0000
0000
1000
0000
,
0000
0000
0100
0000
,
0000
0000
1000
0000
,
0000
0000
1000
0000
,
0000
0000
0001
0000
,
0000
0000
0010
0000
,
0000
0000
0001
0000
,
0000
0000
0001
0000
,
0000
0100
0100
0000
,
0000
0010
0010
0000
,
0000
1000
0000
0100
,
0000
0001
0000
0100
,
0000
0010
0010
0000
,
0000
0001
0001
0000
,
0000
1000
0000
0010
,
0000
1000
0000
0001
,
1000
0000
0001
0000
,
1000
0000
0000
0000
,
0010
0000
0100
0000
,
0010
0000
0000
0000
,
1000
0000
0100
0000
,
0010
0000
0000
0000
,
0002
0000
0000
0003
,
1001
0000
0000
0000
,
0001
0000
0100
0000
,
0001
0000
0000
0000
,
1000
0000
0010
0000
,
1000
0000
0000
0000
,
0001
0000
0000
0000
,
1000
0000
0000
0000
,
0010
0000
0100
0000
,
0010
0000
0000
0000
,
1000
0000
0100
0000
,
1000
0000
0000
0000
,
0001
0000
0010
0000
,
0001
0000
0000
0000
,
1000
0000
0100
0000
,
0001
0000
0000
0000
,
0001
0000
0010
0000
,
1000
0000
0000
0000
,
1000
0000
1000
0000
,
0100
0000
0100
0000
,
0010
0000
0010
0000
,
0001
0000
0000
0000
,
0001
0000
0001
0000
,
0100
0000
0100
0000
,
0010
0000
0010
0000
,
1000
0000
0000
0000
,
1001
0000
0000
0000
;

//--------------- dance-single - aboutblank ----------------
#NOTES:
     dance-single:
     aboutblank:
     Easy:
     5:
     0,0,0,0,0:
0000
0000
0000
0000
,
0000
0000
0000
0000
0000
0000
0000
1000
,
0000
0000
1000
0000
,
0100
0000
0100
0000
,
0010
0000
0010
0000
,
0001
1000
0001
0000
,
0100
0000
0100
0000
,
0010
0000
0010
0000
,
2000
0001
0001
3001
,
1001
0000
0000
0000
,
0001
1000
0100
0000
,
1000
0001
0100
0000
,
1000
0100
0001
0000
,
0001
0100
1000
0000
,
0100
0010
1000
0000
,
0100
0010
0001
0000
,
0010
0001
1000
0000
,
1001
0000
0110
0000
,
1000
0010
0100
0000
,
0001
0010
0100
0000
,
0010
0100
1000
0000
,
0001
1000
0100
0100
,
0010
0001
1000
0000
,
0010
1000
0100
0000
,
0010
0001
1000
0010
,
0100
0001
1000
0100
,
0020
0000
0032
0000
,
2003
0010
0010
3010
,
0002
0000
0203
0000
,
0320
1000
1000
1030
,
0002
0000
0000
1000
0000
0000
1003
0000
,
0020
0000
0000
1000
0000
0000
1030
0000
,
1001
0000
0110
0000
,
1001
0000
0110
0000
,
1000
0100
0010
0001
,
0010
0100
1000
0001
,
1000
0010
0100
0001
,
1000
0100
1000
0100
,
0010
1001
0000
0010
,
0100
1001
0000
1000
,
0001
0000
0100
0000
0010
0000
0000
1001
,
0000
0000
0000
0000
0000
0000
0000
0001
,
0000
1000
0100
0010
,
0001
0010
0100
1000
,
0010
0100
0001
1000
,
0100
0010
0001
1000
,
0001
0100
0001
0100
,
0010
1000
0010
1000
,
0001
0100
1000
0100
,
0001
0010
0110
0000
,
1000
0100
0010
0000
,
0001
1000
0100
0000
,
0010
0001
0100
0000
,
1000
0100
0001
0010
,
0100
0010
0001
0000
,
1000
0010
0100
0000
,
0001
1000
0001
1000
,
0010
0100
0010
0100
,
0001
0010
0001
0010
,
0100
1000
0100
1000
,
0010
0000
0100
0000
0010
0000
2000
0002
,
0000
0000
0000
0000
,
3003
0000
0000
0000
;

//--------------- dance-single - aboutblank ----------------
#NOTES:
     dance-single:
     aboutblank:
     Medium:
     10:
     0,0,0,0,0:
0000
0000
0000
0000
,
0000
0000
0000
0000
0000
0000
0000
1000
,
0000
0000
0100
0000
0010
0000
0000
1001
,
0000
0000
0001
0000
0100
0000
0000
1010
,
0000
0000
1000
0000
0100
0000
0000
0011
,
0000
0001
1000
0000
0001
0100
0010
1000
,
0000
0000
0001
0000
0010
0000
0000
1100
,
0000
0001
1000
0000
0100
0010
0100
2000
,
0000
0001
0001
3001
,
0100
0000
0000
0100
0000
0000
0100
0000
0000
0000
0000
0000
0001
0000
1000
0000
,
0000
0000
0100
0000
0100
0000
0010
0001
,
0000
0000
0100
0000
0100
0000
0001
0010
,
0000
0000
0100
0000
0100
1000
0000
0010
,
0000
0100
0000
0100
0000
0001
1000
0010
,
0000
0000
0010
0000
0010
1000
0000
0001
,
0000
0000
0010
0000
0010
0100
0000
1000
,
0000
0000
0010
0000
0010
0100
0000
0101
,
0000
0010
0000
1010
0000
0001
0010
0100
,
0000
0010
0001
0000
1000
0010
0100
0001
,
0000
0100
0001
0000
1000
0100
0010
0100
,
0000
1000
0010
0000
0100
0001
0000
0010
,
0000
1000
0010
0000
0001
0000
1000
0001
,
0000
0100
0010
0000
1000
0010
0100
0010
,
0000
1000
0001
0100
0000
0101
0000
1010
,
0000
0001
0010
0100
0000
0010
0000
1001
,
0000
2000
3200
0302
,
1003
1000
0010
0010
,
0001
0000
0000
0001
0000
0000
0001
0000
0000
0000
0000
0000
1001
0000
0000
0000
,
0001
0001
0100
0100
,
1000
0000
0000
1000
0000
0000
1000
0000
0000
0000
0000
0000
1001
0000
0000
0000
,
1000
0000
0100
0000
0010
0001
0010
0000
,
0001
0000
0100
0000
0010
1000
0010
0000
,
1010
0000
0100
0001
0000
1000
0100
0010
,
0000
0001
0100
0010
0000
1000
0100
0010
,
0001
0000
1001
0000
1000
0001
0100
0000
,
0010
0000
1000
0000
0100
0010
0001
0000
,
0010
0000
1000
0000
0010
0001
0100
0000
,
1000
0000
0100
0000
0010
1000
0010
0000
,
0100
0000
0101
0000
0001
0010
0100
0000
,
0010
0000
1001
0000
1000
0010
0100
0000
,
0001
0000
0000
0000
1001
0000
0000
0000
1000
0000
0000
1100
0000
0000
0011
0000
,
0000
0000
0000
0000
0000
0001
1000
0020
,
0000
0100
0130
0000
0001
0010
0100
0020
,
0000
0001
0031
0000
0001
0010
0100
2000
,
0000
0010
3010
0000
1000
0100
0001
0200
,
0000
0010
0310
0000
0001
1000
0100
2000
,
0000
0001
3001
0000
1000
0100
0010
0002
,
0000
1000
1003
0000
1000
0100
0010
2000
,
0000
3001
0100
0020
0000
0031
1000
0200
,
0300
0100
0010
1001
0000
0001
1000
0002
,
0000
0000
0010
0000
0013
0000
0000
0000
0110
0000
0000
0100
0000
0000
1001
0000
,
0000
0000
1000
0000
0010
0000
0000
0000
0110
0000
0000
0010
0000
0000
1001
0000
,
0000
0000
0001
0000
0010
0000
0000
0000
0110
0000
0000
0100
0000
0000
1100
0000
,
0000
0001
1000
0000
0100
0010
0001
1000
,
0000
0000
0001
0000
0010
0000
0000
0000
0011
0000
0000
0100
0000
0000
1100
0000
,
0000
0001
1000
0000
0100
0010
0100
2000
,
0000
0010
3010
0000
1000
0001
0000
0101
,
0000
0010
1000
0000
0001
0010
0100
2000
,
0000
0000
0001
0000
3001
0000
0002
1000
,
0000
0000
1000
0000
1003
0000
0200
0010
,
0000
0000
0010
0000
0310
0000
0010
0220
,
0000
0000
0000
0000
,
0000
0000
0330
0000
;

//--------------- dance-single - aboutblank ----------------
#NOTES:
     dance-single:
     aboutblank:
     Hard:
     13:
     0,0,0,0,0:
0000
0000
0000
0000
,
0000
0000
0000
0000
0000
0000
0000
1001
,
0000
0000
0000
0000
0001
0000
0000
0000
0010
0000
0000
1000
0000
0000
0110
0000
,
0000
0000
0000
0000
1000
0000
0000
0000
0100
0000
0000
0001
0000
0000
0110
0000
,
0000
0000
0100
0000
1000
0000
0000
0000
0001
0000
0000
0100
0000
0000
1010
0000
,
0000
0001
1000
0100
0100
0010
0001
1000
,
0000
0000
0010
0000
0100
0000
0000
0000
0001
0000
0000
1000
0100
0000
0011
0000
,
0000
0001
0200
1000
0000
0301
0000
1001
,
0000
0000
0001
0000
0010
0100
0010
0000
0100
1000
0100
0000
0010
0001
0010
0000
,
0110
0000
0000
0110
0000
0000
0110
0000
0000
0000
0001
0000
1000
0000
0200
0000
,
0000
0010
0310
0000
0001
0100
0001
0020
,
0000
0001
0031
0000
0101
1000
0200
0001
,
0000
1000
1300
0000
0100
0110
0000
0012
,
0000
1003
0000
0020
0000
0130
0100
0002
,
0000
0013
0100
1000
0001
1000
0100
2000
,
0000
3001
1000
0100
0010
0001
1000
0020
,
0000
0130
0001
0100
0010
2020
3030
0202
,
0303
2200
3300
0022
0033
1001
0001
2000
,
0000
0000
3100
0000
0010
0100
0010
0000
0001
0000
0100
0000
1000
0000
0002
0000
,
0000
0000
0013
0000
1000
0100
0000
1000
0100
0000
0010
0000
0001
0000
0200
0000
,
0000
0000
0001
0000
0301
0000
0000
1000
0001
0000
1100
0000
0000
0000
0011
0000
,
0000
0000
1000
0000
0010
0100
0000
0001
0100
0000
0001
0000
1000
0000
2002
0000
,
3003
0000
0001
0000
1000
0100
0010
0100
0010
0000
0001
0000
0100
0000
0220
0000
,
0330
0000
1000
0000
0001
0100
0010
0100
0010
0000
0110
0000
0000
0000
2002
0000
,
3003
0000
1000
0000
0100
0010
0001
0010
0001
0000
1000
0000
0001
0000
0202
0000
,
0303
0000
0010
0000
1000
0100
0010
0001
0200
0000
0300
0000
0020
0000
0030
0000
,
1002
0000
0000
0000
0013
0000
1000
0000
0002
0000
0000
0000
0103
0010
0100
0010
,
0002
0000
0000
1000
0000
0000
1003
0000
0101
0000
0000
0000
1010
0000
0000
0000
,
2000
0000
0000
0000
3001
0000
1000
0000
0100
0010
0100
0010
0001
1000
0001
1000
,
0200
0000
0000
0010
0000
0000
0310
0000
0001
0000
0100
0000
0010
0000
1000
0000
,
0002
0000
0100
0000
0103
0000
0001
0000
1000
0100
1000
0000
0001
0010
0001
0000
,
2000
0000
0010
0000
3010
0000
1000
0000
0001
0100
0001
0000
1000
0010
1000
0000
,
0101
0100
0010
1010
0000
0001
1000
1100
,
0000
0000
0100
0000
0010
0000
0011
0000
0000
0001
1000
0000
0100
0000
0120
0000
,
0000
0000
0031
0100
1000
0001
0010
0100
,
0010
1000
0100
0010
0001
1000
0010
0100
,
0001
1000
0100
0001
1000
0010
0001
0100
,
0010
1000
0010
0100
1000
0100
0001
0010
,
0100
1000
0001
0000
0110
0000
0000
0000
1000
0000
0010
0000
0100
0000
0001
0000
,
1000
0001
0100
0000
0110
0000
0000
0000
0001
0000
0010
0000
1000
0000
0010
0000
,
0001
0100
0010
0000
1001
0000
0000
0000
1100
0000
0000
0110
0000
0000
0011
0000
,
0000
0000
0000
0000
0000
1000
0100
0002
,
0000
0000
0103
0010
0001
0000
1000
0000
0001
0000
0100
0000
0010
0000
2000
0000
,
0000
0000
3001
0010
0100
0000
0010
0000
0001
1000
0001
1000
0001
0000
0200
0000
,
0000
0000
0310
0000
1000
0000
0001
1000
0100
0000
0010
0000
0100
0000
2000
0000
,
0000
0000
3010
0000
0100
0000
0001
1000
0100
0000
0010
0000
0010
0000
0002
0000
,
0000
0000
1003
0000
1000
0000
0001
0010
0100
0010
0001
0000
1000
0000
0020
0000
,
0000
0000
0130
0000
0001
0000
1000
0100
0010
0100
1000
0000
0010
0000
0200
0000
,
0000
0000
0301
0000
1000
0000
0100
0010
0001
1000
0100
0000
1000
0000
0020
0000
,
0000
0000
0130
0000
0001
0000
1001
0000
1000
0100
0010
0001
0100
0000
0020
0000
,
0000
0000
1000
0000
1030
0000
0001
0000
0010
0100
0000
0010
0100
0000
2002
0000
,
3003
0000
1000
0000
0001
0000
0100
0000
0010
1000
0000
0001
0100
0000
0202
0000
,
0303
0000
1000
0000
0100
0000
0010
0000
0001
1000
0000
0100
1000
0000
2200
0000
,
3300
0010
0001
0100
1000
0100
0001
1001
,
0000
0000
1000
0000
0010
0000
0100
0000
0001
0010
0000
0001
0100
0000
0220
0000
,
0330
0000
1000
0000
0100
0010
0100
0000
1000
0010
1000
0000
0001
0000
1002
0000
,
0000
0000
0100
0000
0103
0000
0000
0000
0001
1000
0001
0000
0100
0000
0220
0000
,
0330
0000
0010
0000
1000
0100
1000
0000
1001
0000
1000
0000
0200
0000
0002
0000
,
0300
0000
2000
0003
3020
0000
0032
2000
,
0003
0000
3002
0000
0023
0000
2030
0002
,
3000
0000
2003
0000
3020
0000
0032
2000
,
0000
0000
0000
0000
,
0000
0000
3003
0000
;
