#TITLE:SAKURA (DAM LA MIX);
#SUBTITLE:;
#ARTIST:Reven-G;
#TITLETRANSLIT:;
#SUBTITLETRANSLIT:;
#ARTISTTRANSLIT:;
#GENRE:;
#CREDIT:;
#MUSIC:Sakura -DAM LA MIX-.mp3;
#BANNER:;
#BACKGROUND:;
#CDTITLE:;
#SAMPLESTART:13.219;
#SAMPLELENGTH:19.190;
#SELECTABLE:YES;
#OFFSET:1.165;
#BPMS:0.000=150.017
,4.000=150.100
,5.000=150.320
,7.000=150.160
,8.000=149.700
,9.000=149.820
,10.000=150.000
,11.000=150.190
,12.000=150.240
,14.000=149.810
,15.000=150.280
,16.000=149.360
,17.000=150.820
,18.000=147.640
,19.000=152.280
,20.000=150.130
,21.000=150.460
,22.000=149.990
,23.000=149.710
,24.000=150.190
,26.000=150.160
,27.000=149.690
,28.000=149.800
,29.000=149.960
,30.000=150.040
,31.000=150.560
,32.000=149.680
,33.000=150.350
,34.000=150.300
,35.000=153.560
,36.000=150.850
,37.000=150.090
,38.000=148.430
,39.000=150.390
,40.000=150.900
,41.000=150.970
,42.000=149.910
,43.000=150.020
,44.000=149.650
,45.000=151.000
,46.000=150.050
,47.000=149.050
,48.000=149.710
,49.000=151.090
,50.000=150.070
,51.000=149.470
,52.000=150.790
,53.000=150.070
,54.000=149.990
,55.000=149.390
,56.000=150.620
,57.000=149.860
,58.000=149.910
,59.000=149.810
,60.000=150.580
,61.000=150.780
,62.000=149.920
,63.000=149.520
,64.000=150.180
,65.000=150.040
,66.000=148.630
,67.000=150.120
,68.000=152.100
,69.000=149.940
,70.000=149.570
,71.000=149.010
,72.000=151.240
,73.000=149.800
,74.000=149.610
,75.000=149.510
,76.000=151.940
,77.000=151.820
,78.000=148.110
,79.000=148.810
,80.000=150.560
,81.000=149.830
,82.000=150.390
,83.000=149.920
,84.000=150.590
,85.000=149.980
,86.000=149.970
,87.000=149.490
,88.000=149.710
,89.000=150.800
,90.000=149.400
,91.000=148.240
,92.000=147.800
,93.000=154.650
,94.000=150.410
,95.000=149.580
,96.000=149.810
,97.000=149.700
,98.000=151.100
,99.000=149.400
,100.000=145.430
,101.000=150.870
,102.000=149.850
,103.000=150.190
,104.000=150.120
,107.000=149.360
,108.000=150.170
,108.500=148.000
,109.000=153.000
,109.500=147.000
,110.000=142.640
,110.500=128.610
,111.000=132.000
,111.500=121.630
,112.000=124.720
,112.250=131.190
,112.500=108.300
,112.750=109.830
,113.000=100.000
,113.500=80.720
,114.000=57.210
,114.500=38.650
,115.000=40.580
,115.125=39.830
,115.188=39.130
,115.292=38.000
,115.500=41.000
,116.000=54.520
,116.979=58.550
,117.000=150.000
,150.000=320.000
,310.000=296.000
,310.500=298.000
,311.000=301.000
,311.500=300.000
,312.000=269.000
,312.500=268.000
,313.000=269.000
,313.500=273.000
,314.000=250.000
,315.000=252.000
,315.500=249.000
,316.000=229.000
,316.500=209.000
,317.000=182.000
,317.500=167.000
,318.000=141.000
,318.500=153.000
,319.000=139.000
,319.500=120.460
,320.000=100.430
,320.500=79.820
;
#STOPS:148.750=1.100;
#DISPLAYBPM:150.000:320.000;
#BGCHANGES:;
#FGCHANGES:;

//--------------- dance-single - about-blank ----------------
#NOTES:
     dance-single:
     about-blank:
     Beginner:
     5:
     0,0,0,0,0:
0000
0000
0000
0000
,
0000
0000
0000
0000
,
0000
0000
0000
0000
,
0000
0000
0000
0000
,
0000
0000
0000
0000
,
1000
0000
0000
0000
,
0100
0000
0000
0000
,
0001
0000
0000
0000
,
0010
0000
0000
0000
,
1000
0000
1000
0000
,
1000
0000
0000
0000
,
0010
0000
0010
0000
,
0110
0000
0000
0000
,
0001
0000
0001
0000
,
0001
0000
0000
0000
,
0100
0000
0100
0000
,
0100
0000
0000
0000
,
1000
0000
1000
0000
,
1000
0000
1000
0000
,
0001
0000
1000
0000
,
0100
0000
0000
0000
,
0001
0000
0100
0000
,
1000
0000
0100
0000
,
0001
0000
0001
0000
,
1000
0000
1000
0000
,
0110
0000
0000
0000
,
0010
0000
0000
0000
,
0100
0000
0001
0000
,
1000
0000
1001
0000
,
0000
0001
0000
0100
,
0000
1000
0000
0000
,
0000
1000
0000
0010
,
0000
0001
0000
0000
,
0000
1000
0000
0110
,
0000
0001
0000
0110
,
0000
1000
0000
0001
,
0000
1000
0000
0010
,
0000
0000
0001
0000
,
0100
0000
0001
0000
,
0000
0000
0001
0000
,
0000
0000
1000
0000
,
0000
0000
1000
0000
,
0100
0000
1000
0000
,
0000
0000
0001
0000
,
0000
0000
1000
0000
,
0000
0000
0010
0000
,
0010
0000
0100
0000
,
0000
0000
0001
0000
,
0000
0000
1000
0000
,
0000
0000
0100
0000
,
0100
0000
0010
0000
,
0000
0000
0001
0000
,
1000
0000
0001
0000
,
0000
0000
0010
0000
,
0000
0000
0100
0000
,
0000
0000
1000
0000
,
0000
0000
0001
0000
,
0000
0000
0000
0000
,
1001
0000
0000
0000
,
1001
0000
0000
0000
,
1001
0000
0000
0000
,
1001
0000
1000
0000
,
0000
0000
0001
0000
,
0000
0000
0010
0000
,
0000
0000
1000
0000
,
0000
0000
0000
0110
,
0000
0000
0000
0000
,
0110
0000
0000
0000
,
0110
0000
1001
0000
,
0000
0000
1000
0000
,
1000
0000
1000
0000
,
0000
0000
0001
0000
,
0001
0000
0001
0000
,
0000
0000
0010
0000
,
0010
0000
0010
0000
,
0000
0000
0100
0000
,
0100
0000
0100
0000
,
0000
0000
1001
0000
,
0000
0000
0000
0000
,
0000
0000
0110
0000
;

//--------------- dance-single - Nezemarth ----------------
#NOTES:
     dance-single:
     Nezemarth:
     Easy:
     10:
     0,0,0,0,0:
0000
0000
0000
0000
,
0000
0000
0000
0000
,
0000
0000
0000
0000
,
0000
0000
0000
0000
,
0000
0000
0000
0000
,
1000
0000
0000
1000
0000
0000
1000
0000
,
0001
0000
0000
0001
0000
0000
0001
0000
,
0001
0000
0000
0001
0000
0000
0001
0000
,
1000
0000
0000
1000
0000
0000
1000
0000
,
1001
0000
0001
0000
,
0010
0010
0001
0000
,
1000
0100
0010
0100
,
1000
0000
0001
0100
1000
0000
0000
0000
,
0101
0100
0010
0010
,
1000
1000
0100
0000
,
1000
0100
0010
0100
,
1000
0000
0001
0100
1000
0000
0000
0000
,
0100
1001
1000
1001
,
0010
0110
0100
0110
,
0001
0011
1000
1010
,
0001
0000
1001
1000
0100
0000
0010
0010
,
0011
1001
1000
1010
,
0001
1001
0001
0011
,
0120
0031
0120
1030
,
0110
0000
0110
0000
0001
0001
1000
1000
,
1001
1000
0010
0100
,
0001
0010
0100
1000
,
0010
0100
0001
1000
,
0100
0010
0002
0100
,
0000
0000
0000
1003
0000
0000
1000
0000
0000
0010
0000
0010
,
0000
0100
0001
1000
,
0000
0000
0000
0100
0000
0000
0010
0000
0000
0001
0000
0001
,
0000
1000
0010
0100
,
0000
1001
1000
0100
,
0000
0010
0001
0100
,
0000
0110
0010
0110
,
0000
1001
1001
0100
,
0000
0000
1000
0000
,
1000
0000
0010
0000
,
0010
0000
0100
0100
,
0001
0000
0010
0000
,
0010
0000
0100
0100
,
1000
0000
0010
0000
,
0010
0000
0100
0100
,
0001
0000
0010
0010
,
0010
0000
0001
0100
,
0001
0000
0100
0010
,
0100
0000
0010
1000
,
0010
0000
1000
0100
,
1000
0000
1100
0100
,
0010
0000
0010
0001
,
0010
0000
0001
1000
,
0010
0000
0100
0001
,
1001
0000
1000
0000
,
1000
0000
0100
0010
,
0001
0000
0001
0000
,
0001
0000
0100
0010
,
1000
0000
1000
0100
,
1000
0000
0001
0100
,
0001
0000
1000
0100
,
0010
0100
1000
0001
,
0001
0001
0100
0100
,
0000
0000
0010
0000
0010
0000
0000
0010
,
0000
0000
0000
0000
1000
0000
0000
1000
,
0000
0000
0100
0000
0010
0000
0000
0010
,
0000
0000
0001
0001
,
0100
0000
0010
0010
,
1000
0000
1000
0100
,
0010
0100
1000
0001
,
0001
0001
0100
0010
,
0100
0010
1000
0010
,
1000
0010
1000
0001
,
1000
0001
1000
0100
,
1000
0100
0010
0100
,
0010
0100
0010
0001
,
1000
0000
0001
0000
1000
0000
0000
1000
,
0000
0000
0010
0000
0100
0000
0000
0100
,
0000
0001
1000
0100
,
0010
0100
1000
0100
,
0001
0100
1000
0010
,
0100
0001
0000
0000
;

//--------------- dance-single - about-blank ----------------
#NOTES:
     dance-single:
     about-blank:
     Medium:
     12:
     0,0,0,0,0:
0000
0000
0000
0000
,
0000
0000
0000
0000
,
0000
0000
0000
0000
,
0000
0000
0000
0000
,
0000
0000
0000
0000
,
2000
0000
0000
3002
0000
0000
0023
0000
,
0200
0030
0000
2300
0000
0000
3002
0000
,
0200
0003
0000
0320
0000
0000
2030
0000
,
0002
3000
0000
0023
0000
0000
0230
0000
,
1000
0300
0001
0010
0100
0000
1000
0010
,
0100
0000
0001
1000
0010
0000
0100
0000
,
0001
0000
0000
0001
0010
0000
0000
0010
0100
0000
0000
0000
1100
0000
0000
0000
,
1001
0000
0000
1000
0010
0000
0001
0000
0010
0000
0100
0000
0100
0000
0001
0000
,
0110
0000
1000
0100
0010
0001
0110
0000
,
1001
0000
0001
0100
0010
1000
0110
0000
,
1001
0000
0000
1000
0001
0000
0000
0001
0010
0000
0000
0010
0100
0000
0000
0100
,
1000
0000
0000
0000
0010
0000
0100
0000
0001
0000
0001
1000
0001
0000
0000
0000
,
0011
0000
1100
0000
0001
1000
0100
0000
,
0101
0000
1010
0000
1000
0001
0100
0000
,
0001
0000
0000
0001
0010
0000
0000
0000
1000
0000
0000
1000
0100
0000
0000
0000
,
0010
0000
0000
0010
0100
0000
0000
0000
0010
0000
0001
0000
1000
0000
0001
0000
,
0020
0000
0031
0000
1000
0100
0001
0000
,
0001
0010
1000
0000
1000
0100
0001
0000
,
0011
0000
0000
0100
1000
0000
0000
0000
1010
0000
0000
0100
0001
0000
0000
0000
,
1000
0001
1000
0001
0100
0010
1000
0001
,
0200
0000
0320
0000
,
2030
0000
3002
0000
,
0013
0100
0010
0100
1000
0001
1000
0001
,
0010
0100
1000
0001
0100
0000
0010
0000
1020
0000
0000
0000
0001
0000
0000
0000
,
0000
0000
0000
1030
0000
0000
0001
0000
0000
0100
0000
0100
,
0001
0000
0001
0010
0000
0000
0100
0000
0000
1000
0000
0100
,
1000
0000
0000
1001
0000
0000
0001
0000
0000
0100
0000
0100
,
0010
0000
0010
1000
0000
0000
0100
0000
0000
0010
0000
0001
,
0100
0000
0000
0000
0010
0000
1000
0000
0000
0000
0000
0000
1100
0000
0000
0000
0000
0000
1000
0000
0000
0100
0000
0000
,
0010
0000
0001
0000
0101
0000
0001
0100
,
0010
0000
1001
0000
0010
0100
1001
0000
,
0100
0010
1001
0010
1001
0000
0001
0001
,
0100
0010
0100
0010
0000
0000
0000
0000
1000
0000
0000
0000
0010
0000
0000
0000
,
0100
0001
0010
0001
,
0100
0010
1000
0001
,
0010
0100
1000
0010
,
0100
0001
1000
0001
,
0010
0001
1000
0001
,
0100
0001
1000
0010
,
0100
0001
0010
0100
,
0110
0000
1000
0001
,
0010
0001
1000
0010
,
0100
1000
0100
0010
,
1000
0100
0010
0001
,
0100
0001
1000
0010
,
1000
0001
1000
0100
,
1000
0001
1000
0100
,
0010
0001
0100
0010
,
0110
0000
0000
0000
0001
0000
0000
0001
,
0100
0000
0000
0100
1000
0000
0000
1000
,
0010
0000
0000
0010
1000
0000
0000
1000
,
0100
0000
0000
0100
0001
0000
0000
0001
,
0100
0000
0000
0100
0010
0000
0000
0010
,
0002
0000
0000
0000
0103
0000
0000
0100
,
2000
0000
3001
0010
,
0200
0000
1300
0010
,
0100
0000
0001
0000
1000
0000
0000
0100
,
0000
0000
0001
0000
1000
0000
0000
0010
,
0000
0000
0001
0000
0001
0000
0000
0100
,
0000
0000
1000
0000
0001
0000
0000
0010
,
0000
0000
1000
0000
1000
0000
0000
0010
,
0000
0000
0001
0000
1000
0000
0000
0100
,
0000
0001
1000
0010
,
0001
0010
1000
0100
,
0001
0100
1000
0010
,
0100
0001
1000
0100
,
0010
0100
0010
0000
0001
0000
0100
0000
,
0010
1000
0001
0010
,
0100
0010
0100
0000
1000
0000
0010
0000
,
0100
0001
1000
0100
,
0010
0000
0001
0000
1001
0000
0000
0101
,
0000
0000
1010
0000
0101
0000
0000
1001
,
0000
0011
1000
0100
,
0001
0100
1000
0010
,
0001
0000
0010
0000
1000
0100
0010
0001
,
0100
0010
1000
0000
0000
0000
0000
0000
;

//--------------- dance-single - Nezemarth ----------------
#NOTES:
     dance-single:
     Nezemarth:
     Hard:
     12:
     0,0,0,0,0:
0000
0000
0000
0000
,
0000
0000
0000
0000
,
0000
0000
0000
0000
,
0000
0000
0000
0000
,
0000
0000
0000
0000
,
1000
0001
1000
0000
0001
0001
1000
0000
,
0001
1000
0001
0000
1000
1000
0001
0001
,
0100
0010
0100
0000
0001
1000
0001
0001
,
1000
1000
0100
0000
0010
0000
0100
0100
,
1000
0100
1000
0100
0001
0100
0001
0100
,
1000
0100
1000
0100
0010
0000
0000
0000
,
0001
0100
1000
0000
1000
0100
0001
0000
,
0001
0100
1000
0100
0001
0100
0010
0000
,
1000
0000
1000
0000
0001
0010
0100
0000
,
1000
0000
1000
0000
0010
0100
0001
0000
,
0001
0010
1000
0000
1000
0010
0001
0000
,
0001
0010
1000
0010
0001
0100
0001
0000
,
1000
0100
1000
0100
0010
0100
1100
0000
,
0001
0100
0001
0100
0010
0100
0101
0000
,
1000
0100
1000
0001
1000
0010
1000
0001
,
1000
0100
0001
0100
1000
0001
0001
0001
,
0101
0000
0100
0000
0010
1000
1100
0000
,
0010
0000
0001
0000
0100
0010
1010
0000
,
1001
0000
0000
0001
0100
0000
0000
0000
1001
0000
0000
1000
0100
0000
0000
0000
,
0110
0000
0000
0001
1000
0000
0000
0000
0010
0000
0100
0000
0001
0000
0010
0000
,
0100
1000
0100
1000
0010
1000
0100
0010
,
0001
0100
0001
0100
0001
0010
0001
0100
,
0010
1000
0100
0001
0100
1000
0010
0100
,
1000
0100
0001
1000
0200
0000
0001
0000
,
0000
0000
0000
1300
0000
0000
1010
0000
0000
0001
0000
0001
,
0000
0000
0010
0100
0000
0100
1000
0000
1000
0001
0000
0000
,
1001
0000
0000
0000
0000
0000
0001
0000
0000
0100
0000
0000
0101
0000
0000
0000
0000
0000
0001
0000
0000
0000
0001
0000
,
0000
0000
0010
0100
0001
0100
1000
0001
,
1001
0000
1010
0010
0100
0000
0100
0001
,
1000
0000
1000
0100
0010
0001
0100
0010
,
1010
0000
1001
0001
0010
0000
1001
1000
,
0010
0000
0110
0100
0110
0000
0001
0000
,
1000
1000
0000
0000
1000
0000
1000
0000
,
1000
0000
1000
0100
,
0010
0001
0100
0100
,
0100
0000
0100
0010
,
1000
0001
0100
0100
,
0100
0000
0100
0010
,
1000
0100
0010
0010
,
0010
0000
0010
0001
,
1000
0000
0110
0000
,
0100
0001
1000
0100
,
0010
0100
1000
1000
,
0001
0100
0010
0100
,
1000
0100
0101
0000
,
1000
0100
0001
0100
,
0010
0001
1000
0010
,
0100
1000
0100
0010
,
0110
0000
0010
1000
,
0010
1000
0100
0010
,
0001
0000
0001
0010
,
0001
0010
0100
1000
,
1000
0000
1000
0100
,
1000
0001
1000
0010
,
1000
0001
1000
0100
,
0010
0001
1000
0010
,
0010
0010
0100
0000
,
0001
0000
1000
1000
,
1100
0000
0010
0001
,
0100
0000
0010
0010
,
0110
0000
0010
1000
,
0001
1000
0010
1000
,
0001
0010
0100
1000
,
0100
0010
0001
1000
,
1000
0000
0000
0000
1000
0010
1000
0000
,
0001
0010
0100
1000
,
0001
1000
0010
0100
,
0001
0010
0001
0100
,
0010
1000
1001
0001
,
0010
1000
0010
0100
,
1000
0000
0010
0000
1010
0000
0000
0010
,
0000
0000
0100
0000
0101
0000
0000
0001
,
0000
0010
0100
1000
,
0010
0100
0001
0010
,
0100
0000
0100
1000
0010
0100
0001
1000
,
0100
0010
0001
0000
0000
0000
0000
0000
;

//--------------- dance-single - about-blank ----------------
#NOTES:
     dance-single:
     about-blank:
     Challenge:
     16:
     0,0,0,0,0:
0000
0000
0000
0000
,
0000
0000
0000
0000
,
0000
0000
0000
0000
,
0000
0000
0000
0000
,
0000
0000
0000
0000
,
1000
0100
1000
0000
0000
0000
0001
0010
0001
0000
0000
0000
0100
0000
0100
0000
,
0001
1000
0001
0000
0000
0000
0001
0010
0001
0000
0000
0000
0010
0000
0100
0000
,
1000
0001
0100
0000
0000
0000
0001
1000
0100
0000
0000
0000
0010
0000
0010
0000
,
0001
0100
0001
0000
0000
0000
1000
0000
0010
0000
0010
0000
0100
0000
0001
0000
,
1000
0100
0001
0100
2000
3010
0010
0100
,
0001
0010
1000
0010
0002
0000
1003
0000
,
0101
0000
0000
0000
1001
0000
0000
0000
1010
0000
0000
0001
1000
0000
0000
1000
,
0200
0000
0000
0000
0301
0000
1000
0000
0010
0000
0001
1000
0001
0000
0010
0000
,
1100
0000
1000
0000
1010
0000
1000
0000
1001
0000
1000
0100
0010
0000
0001
0000
,
0101
0000
0001
0000
1001
0000
0001
0000
0011
0000
0001
0010
0100
0000
1000
0000
,
0010
0000
0000
0010
0001
0000
0000
0001
1000
0000
0000
1000
0100
0000
0000
0100
,
0001
0000
0000
0000
0010
0000
0100
0000
1000
0000
0001
1000
0001
0000
0100
0000
,
1010
0001
0110
1000
0100
0011
2000
3001
,
0101
1000
0110
0001
0100
1010
0002
1003
,
0010
0000
0000
0010
1000
0000
0000
1000
0100
0000
0000
0100
0001
0000
0000
0001
,
0010
0000
0000
0000
1000
0000
0001
0000
0100
0000
0001
0010
0001
0000
0001
0000
,
2000
0000
3000
0000
1001
0000
1000
0010
0100
0000
0001
0000
1000
0000
0100
0000
,
0001
0100
1000
0010
0001
0010
2000
3000
,
0002
0000
0013
0100
1000
0000
0001
0000
1000
0000
0010
0100
0001
0000
1000
0000
,
0001
0010
0001
0010
0100
1000
0100
1000
0010
0100
0010
0100
0001
0010
0100
1000
,
0002
0013
2000
3100
,
0002
0103
2000
3010
,
0001
0100
0001
1000
0001
0010
0001
1000
,
0001
0010
0100
1000
0001
0000
1010
0000
0021
0000
0000
0000
1000
0000
0000
0000
,
0000
0000
0000
0031
0000
0000
1001
0000
0000
1000
0000
1000
,
0010
0000
0010
1000
0000
0001
0010
0000
0100
1000
0100
0010
,
0001
0000
0000
1010
0000
0000
0101
0000
0000
0001
0000
0001
,
0100
0000
0100
0010
0000
1000
0001
0000
0100
0001
0100
0010
,
1000
0000
0011
0000
1100
0000
0001
0100
,
0010
1000
0010
0000
1001
0000
0000
0000
1100
0000
0000
0000
1000
0000
0100
0000
,
0010
0001
0010
0000
1100
0000
0001
0000
0011
0000
0000
0000
0101
0000
1000
0000
,
1010
0000
0000
0000
1100
0000
0001
0000
0110
0000
1000
0000
0100
0010
0001
0010
,
1000
0001
0100
1000
0000
0000
0000
0000
1000
0000
0000
0000
0010
0000
0000
0000
,
0100
0001
1000
0100
,
0010
0001
0010
0000
1000
0000
0010
0000
,
0001
1000
0010
0100
,
0001
1000
0001
0000
0010
0000
0010
0000
,
0100
1000
0001
0100
,
1000
0100
0010
0000
1000
0010
1000
0010
,
1000
0000
0001
0000
0100
0001
0100
0001
,
0100
0000
0001
0000
0011
0000
0010
0001
,
0010
0100
1000
0010
,
0010
1000
0001
0000
0100
0001
0100
0000
,
0001
0010
0100
1000
,
0010
0100
0001
0000
1001
0000
1000
0001
,
1000
0010
0100
0001
,
1000
0100
1000
0100
0010
0000
0001
0000
,
0100
0001
0100
0000
0010
0000
1000
0000
,
0001
1000
0001
0000
0010
0000
0000
0010
,
0001
0000
0000
0001
1000
0000
0000
1000
,
0010
0000
0000
0010
0100
0000
0000
0100
,
0001
0000
0000
0001
1000
0000
0000
1000
,
0100
0000
0000
0100
0010
0000
0100
0000
,
2000
3010
0001
0010
,
2000
3100
0010
0100
,
2000
3010
0001
0010
,
2010
0000
3100
0000
0011
0000
0100
1000
,
0100
0000
0001
0000
1010
0000
0100
0001
,
0100
0000
0001
0000
0110
0000
1000
0010
,
1000
0000
0001
0000
0110
0000
0001
0100
,
0001
0000
1000
0000
0011
0000
0100
0001
,
2000
0000
3010
0000
1100
0000
0010
0001
,
2000
0000
3100
0000
0011
0000
0010
0100
,
1000
0000
0010
0100
0001
0000
0010
0100
,
1000
0100
0010
0001
1000
0010
1000
0000
,
0100
0010
0100
0000
0001
0100
0010
0000
,
0001
1000
0001
0000
1000
0010
1000
0000
,
0010
0100
0010
0000
0001
0010
0100
0000
,
0010
1000
0010
0000
1000
0001
0010
0000
,
0001
1000
0100
0000
0001
0100
1000
0100
,
0010
0001
0010
0100
1000
0000
0000
0101
,
0000
0000
1000
0001
1000
0000
0000
1010
,
0000
0000
0001
1000
0001
0010
0100
1000
,
0010
0100
1000
0100
0001
0010
1000
0010
,
0001
0010
0100
1000
0001
0100
0001
0100
,
0010
1000
0001
0000
0000
0000
0000
0000
;
