#TITLE:SAX and the CITY;
#SUBTITLE:;
#ARTIST:Studio Bongo Mango feat. Hitomi;
#TITLETRANSLIT:;
#SUBTITLETRANSLIT:;
#ARTISTTRANSLIT:;
#GENRE:;
#CREDIT:;
#MUSIC:SAX and the CITY.mp3;
#BANNER:;
#BACKGROUND:;
#CDTITLE:;
#SAMPLESTART:59.367;
#SAMPLELENGTH:15.000;
#SELECTABLE:YES;
#OFFSET:-0.072;
#BPMS:0.000=133.000;
#STOPS:;
#BGCHANGES:;
#FGCHANGES:;

//--------------- dance-single - forcednature ----------------
#NOTES:
     dance-single:
     forcednature:
     Beginner:
     2:
     0,0,0,0,0:
0000
0000
0000
0000
,
0000
0000
0000
0000
,
0000
0000
0000
0000
,
0000
0000
0000
0000
,
0000
0000
0000
0000
,
1001
0000
0000
0000
,
0001
0000
0000
0000
,
0100
0000
0000
0000
,
0010
0000
0010
0000
,
0010
0000
0000
0000
,
1000
0000
0000
0000
,
0100
0000
0000
0000
,
0010
0000
0000
0000
,
0100
0000
0000
0000
,
1000
0000
0000
0000
,
0001
0000
0000
0000
,
0100
0000
0100
0000
,
0110
0000
0000
0000
,
1000
0000
0000
0000
,
0001
0000
0001
0000
,
0001
0000
0000
0000
,
0110
0000
0000
0000
,
1000
0000
0000
0000
,
0010
0000
0010
0000
,
0010
0000
0000
0000
,
1001
0000
0000
0000
,
0000
0000
0000
0000
,
0010
0000
0000
0000
,
0100
0000
0000
0000
,
0110
0000
0000
0000
,
1000
0000
0000
0000
,
0001
0000
0000
0000
,
0010
0010
0010
0010
,
0110
0000
0000
0000
,
1000
0000
0000
0000
,
0001
0000
0100
0000
,
0001
0000
0000
0000
,
1000
0000
0000
0000
,
0100
0000
0000
0000
,
1000
0000
0010
0000
,
1000
0000
0000
0000
,
0001
0000
0010
0000
,
0001
0000
0000
0000
,
1000
0000
0100
0000
,
1000
0000
0000
0000
,
1001
0000
0000
0000
,
0001
0000
0100
0000
,
0001
0000
0000
0000
,
1000
0000
0100
0000
,
0110
0000
0000
0000
,
1000
1000
1000
0000
,
0110
0000
0000
0000
,
0001
0001
0001
0000
,
1001
0000
0000
0000
,
0100
0100
0100
0000
,
1001
0000
0000
0000
,
0010
0010
0010
0000
,
0110
0000
0000
0000
,
0000
0000
0000
0000
,
1001
0000
0000
0000
;

//--------------- dance-single - forcednature ----------------
#NOTES:
     dance-single:
     forcednature:
     Easy:
     5:
     0,0,0,0,0:
0000
0000
0000
0000
,
0000
0000
0000
0000
,
0000
0000
0000
0000
,
0000
0000
0000
0000
,
0000
0000
0000
0000
,
1000
0001
0000
0001
,
1000
0001
0000
0001
,
1000
0001
0000
0001
,
1000
0001
0000
0001
,
0001
1000
0010
0100
,
0001
0010
0100
1000
,
0010
0100
0000
0100
,
0000
0100
0000
0100
,
0010
1000
0001
0010
,
0001
1000
0010
0100
,
0001
0010
0000
0010
,
0000
0010
0100
1000
,
0010
0010
0010
0000
,
0100
0100
0100
0000
,
0001
1000
0100
1000
,
0001
1000
0100
0000
,
0010
0001
1000
0000
,
0001
0100
0010
0000
,
1000
0100
0010
0100
,
1000
0010
0100
0000
,
2002
0000
0000
0000
,
0000
0000
0000
3003
,
0220
0000
0000
0000
,
0000
0000
0000
0330
,
0101
1000
0000
1000
,
0000
0001
0000
0001
,
0000
0110
0000
1001
,
0000
0110
0110
0110
,
1001
0001
1000
0010
,
1000
0100
0010
0001
,
0100
0010
0000
0010
,
0000
0010
0000
0010
,
1000
0001
0010
0001
,
1000
0010
0100
0001
,
0010
0100
0000
0100
,
0000
0100
1000
0010
,
1000
1000
1000
1000
,
0001
0001
0001
0010
,
0100
0100
0100
0100
,
0010
0010
0010
0001
,
1001
1000
0010
0100
,
0001
0010
0100
1000
,
0010
0100
0001
0010
,
0100
0010
0001
1000
,
1001
0001
0100
0000
,
1001
1000
0100
0000
,
1001
0001
0010
0000
,
1001
1000
0010
0000
,
0110
1000
0001
0000
,
0110
0001
1000
0000
,
0110
1000
0001
0000
,
0110
0001
1000
0000
,
2002
0000
0000
3003
,
0000
0000
0100
0000
0000
0100
0000
0000
0100
0000
0000
0100
0000
0000
0100
0000
;

//--------------- dance-single - forcednature ----------------
#NOTES:
     dance-single:
     forcednature:
     Medium:
     7:
     0,0,0,0,0:
0000
0000
0000
0000
,
0000
0000
0000
0000
,
0000
0000
0000
0000
,
0000
0000
0000
0000
,
0000
0000
0000
0000
,
0001
0000
0001
0000
1000
0000
0010
1000
,
0001
0000
0001
0000
1000
0000
0010
1000
,
0001
0000
0001
0000
1000
0000
0010
1000
,
0001
0000
0001
0000
1000
0000
0010
1000
,
0001
0000
0010
0000
0100
1000
0000
0010
,
0000
0100
0001
0000
1000
0100
0000
0010
,
0000
0001
0100
0002
0000
0000
0000
0000
,
0000
0000
0000
0003
0000
0000
0000
0000
,
0010
0000
0100
0000
1000
0001
0000
1000
,
0000
0010
0100
0000
0001
1000
0000
0100
,
0000
0010
0100
2000
0000
0000
0000
0000
,
0000
3000
0000
0000
0010
0100
0000
0002
,
0000
0000
0000
0000
,
0000
0000
0003
0000
1000
0100
0010
0001
,
0000
0100
0010
2000
0000
0000
0000
0000
,
0000
3000
0000
0000
0001
0010
0000
0001
,
1001
0000
0110
0000
0001
0100
1000
0000
,
1001
0000
0110
0000
1000
0100
0001
0000
,
1001
0000
0110
0000
0001
0010
1000
0000
,
1001
0000
0110
0000
1000
0010
0001
0000
,
2002
0000
0000
3003
,
0100
0100
0000
0000
0000
0000
0000
0000
,
0220
0000
0000
0330
,
1000
0000
1000
0000
0000
0000
0000
0000
0001
0000
0001
0000
0000
0001
0000
0000
,
1001
0000
0000
0000
0100
0100
0100
0000
,
0010
0000
0010
0000
0000
0000
0000
0000
0000
0000
1000
0000
0000
1000
0000
0000
,
1001
0000
0001
0000
0010
0100
1000
0000
,
1001
0000
0110
0000
0100
0100
0100
0000
,
1001
0000
0001
0000
0100
0010
0000
1000
,
0000
0001
1000
0000
0100
0010
0000
0100
,
0000
1000
0001
0200
0000
0000
0000
0000
,
0000
0000
0000
0300
0000
0000
0000
0000
,
0010
0000
1000
0000
0001
0010
0000
0100
,
0000
0010
0001
0000
1000
0010
0000
0100
,
0000
0001
1000
0200
0000
0000
0000
0000
,
0000
0300
0000
0000
0010
0001
0000
0100
,
0000
0000
0010
0000
0000
0010
0000
0000
0010
0000
0000
0010
0000
0000
0010
0000
,
0000
0000
1000
0000
0000
1000
0000
0000
1000
0000
0000
1000
0000
0000
1000
0000
,
0000
0000
0100
0000
0000
0010
0000
0000
0100
0000
0000
0010
0000
0000
0100
0000
,
0000
0000
1000
0000
0000
0001
0000
0000
1000
0000
0000
0001
0000
0000
1000
0000
,
0000
0000
0001
0000
0000
0100
0000
0000
0010
0000
0000
1000
0000
0000
0001
0000
,
0000
0000
1000
0000
0000
0100
0000
0000
0010
0000
0000
0001
0000
0000
0100
0000
,
0000
0000
0010
0000
0000
0001
0000
0000
0010
0000
0000
1000
0000
0000
0010
0000
,
0000
0000
0100
0000
0000
1000
0000
0000
0100
0000
0000
0001
0000
0000
0100
0000
,
0010
0000
0110
0000
0001
0100
1000
0000
,
0010
0000
0110
0000
1000
0100
0001
0000
,
0010
0000
0110
0000
0001
0100
1000
0000
,
0010
0000
0110
0000
1000
0100
0001
0000
,
1100
0000
0000
1100
0000
0000
0000
0000
0001
0000
0100
0000
1000
0000
0000
0000
,
0101
0000
0000
0101
0000
0000
0000
0000
1000
0000
0100
0000
0001
0000
0000
0000
,
0110
0000
0000
0110
0000
0000
0000
0000
0001
0000
0010
0000
1000
0000
0000
0000
,
0100
0100
0100
0000
0010
0010
0010
0000
,
2002
0000
0000
3003
,
0000
0000
0100
0000
0000
0100
0000
0000
0100
0000
0000
0100
0000
0000
0100
0000
,
0010
0000
0000
0010
0000
0000
0000
0000
0000
0000
0000
0000
0000
0000
0000
0000
;

//--------------- dance-single - forcednature ----------------
#NOTES:
     dance-single:
     forcednature:
     Hard:
     10:
     0,0,0,0,0:
0000
0000
0000
0000
,
0000
0000
0000
0000
,
0000
0000
0000
0000
,
0000
0000
0000
0000
,
0000
0000
0000
0000
,
1100
0000
0101
0000
1000
0100
0001
0000
,
0100
0100
0010
0000
0001
1000
0010
0000
,
0101
0000
1100
0000
0001
0100
1000
0000
,
0100
0000
0100
0000
0010
0000
0000
0000
1000
0000
0001
0000
0010
0001
0000
0000
,
1001
0000
0110
0000
1000
0010
0100
0001
,
0000
0010
0100
0000
0010
0001
1000
0010
,
0000
0100
0001
2000
0000
0000
0000
0000
,
0000
0000
0000
3000
0000
0000
0000
0000
,
0110
0000
1001
0000
0001
1000
0010
0100
,
0000
0001
0010
0000
0001
0100
0010
1000
,
0000
0100
1000
0020
0000
0000
0000
0000
,
0000
0030
0000
0000
0100
0001
0000
1000
,
0100
0000
0110
0000
0001
0010
1100
0000
,
1000
0010
0100
0001
0100
0010
1000
0001
,
0010
0000
1001
0000
0100
1000
0010
0000
,
0100
0001
1000
0010
1000
0001
0010
0100
,
0010
0000
0001
0000
0000
0100
0000
0000
1000
0000
0000
0100
0000
0000
0001
0000
,
0000
0000
1000
0000
0000
0100
0000
0000
0001
0000
0000
0100
0000
0000
1000
0000
,
0000
0000
0001
0000
0000
0010
0000
0000
1000
0000
0000
0010
0000
0000
0001
0000
,
0000
0000
1000
0000
0000
0010
0000
0000
0001
0000
0000
0010
0000
0000
1000
0000
,
1001
0000
0000
0000
1000
0100
1000
0000
,
0001
0000
0001
0000
0000
0100
0000
0000
0010
0000
0000
1000
0000
0000
1000
0000
,
0000
0000
0100
0000
0000
0100
0000
0000
0010
0000
0000
0001
0000
0000
0100
0000
,
0010
0000
0010
0000
0000
1000
0000
0000
0001
0000
0010
0000
0001
0010
0000
0000
,
1001
0000
0000
0000
0000
0000
0000
0000
1000
0000
1000
0000
0010
1000
0000
0000
,
0001
0000
0001
0000
0000
0010
0000
0000
0100
0000
0000
0010
0000
0000
0010
0001
,
1000
0110
0001
0110
,
0100
0100
1001
0010
1001
0110
1001
0000
,
0101
0000
1100
0000
0001
0010
0100
1000
,
0010
0100
0001
0000
0010
0010
0100
0010
,
0001
1000
0010
0100
0001
0000
1001
0000
,
1000
0100
1000
0000
0010
0100
0001
0000
,
0010
0000
0110
0000
0100
1000
0001
0100
,
0010
1000
0001
0000
0010
0100
0010
0001
,
0100
0010
1000
0100
0010
0000
0110
0000
,
0100
1000
0001
0000
0100
0001
1000
0010
,
0100
0000
0001
0000
0000
0010
0000
0000
0100
0000
0000
1000
0000
0000
0010
0000
,
0000
0000
1000
0000
0000
0010
0000
0000
0100
0000
0000
0001
0000
0000
0010
0000
,
0000
0000
0100
0000
0000
0001
0000
0000
0100
0000
0000
1000
0000
0000
0100
0000
,
0000
0000
0010
0000
0000
1000
0000
0000
0010
0000
0000
0001
0000
0000
1000
0000
,
1001
0000
0001
0000
0000
0100
0000
0000
0010
0000
0000
0010
1000
0000
0001
0000
,
0000
0000
1000
0000
0000
0100
0000
0000
0010
0000
0000
0010
0001
0000
0100
0000
,
0000
0000
1010
0000
0000
0100
0000
0000
1010
0000
0000
0100
0000
0000
0001
0000
,
0000
0000
0011
0000
0000
0100
0000
0000
0011
0000
0000
0100
0000
0000
1000
0000
,
1001
0000
0000
1000
0100
0000
0110
0000
0000
0110
0000
0000
1001
0000
0000
0000
,
1001
0000
0000
0001
0100
0000
0110
0000
0000
0110
0000
0000
1001
0000
0000
0000
,
1001
0000
0000
1000
0010
0000
0110
0000
0000
0110
0000
0000
1001
0000
0000
0000
,
1001
0000
0000
0001
0010
0000
0110
0000
0000
0110
0000
0000
1001
0000
0000
0000
,
1100
0000
0000
1100
0000
0000
0110
0000
0000
0110
0000
0000
1001
0000
0000
0000
,
0101
0000
0000
0101
0000
0000
0110
0000
0000
0110
0000
0000
1001
0000
0000
0000
,
1010
0000
0000
1010
0000
0000
0110
0000
0000
0110
0000
0000
1001
0000
0000
0000
,
0011
0000
0000
0011
0000
0000
0110
0000
0000
0110
0000
0000
1001
0000
0000
0000
,
0220
0000
0000
0330
,
0000
0000
0100
0000
0000
1000
0000
0000
0100
0000
0000
0001
0000
0000
0100
0000
,
0010
0000
0000
0010
0000
0000
0000
0000
0000
0000
0000
0000
0000
0000
0000
0000
;

//--------------- dance-single - forcednature ----------------
#NOTES:
     dance-single:
     forcednature:
     Challenge:
     14:
     0,0,0,0,0:
0000
0000
0000
0000
,
0000
0000
0000
0000
,
0000
0000
0000
0000
,
0000
0000
0000
0000
,
0000
0000
0000
0000
,
1001
0000
0001
0000
0100
0000
0000
0010
1000
0000
0000
0001
0000
0000
1000
0000
,
0000
0000
0100
0000
0010
0001
0000
0000
0100
0000
0000
0010
0000
0000
1000
0000
,
1001
0000
0001
0000
0010
0100
0000
0000
0010
0000
0000
0001
0000
0000
1000
0000
,
0010
0000
0010
1000
0001
1000
0000
0000
0100
0000
0100
0010
0001
0100
0010
1000
,
0002
0000
0000
0000
0003
0000
0000
0000
0000
0001
0000
0000
0200
0000
0000
0000
0300
0000
0000
0000
0000
0010
0000
0000
2000
0000
0000
0000
3000
0000
0000
0000
0002
0000
0000
0000
0003
0000
0000
0000
0000
0000
0000
0000
0020
0000
0000
0000
,
0030
0000
0000
0200
0000
0300
2000
0000
3000
0000
0000
0000
0020
0000
0030
0200
0000
0300
0000
0000
0000
0002
0000
0003
,
0000
0000
0000
0020
0000
0030
0200
0000
0300
2000
0000
0000
0000
0000
0000
0000
0000
0000
0010
0000
0000
0000
0000
0000
,
0001
0000
0100
3000
0001
1000
0010
0000
,
0200
0000
0000
0000
0300
0000
0000
0000
0000
0100
0000
0000
0002
0000
0000
0000
0003
0000
0000
0000
0000
0001
0000
0000
0020
0000
0000
0000
0030
0000
0000
0000
0200
0000
0000
0000
1300
0000
0000
0000
0000
0000
0000
0000
0002
0000
0000
0000
,
0003
0000
0000
0200
0000
0300
0020
0000
0030
0000
0000
0000
2000
0000
3000
2000
0000
3000
0001
0000
0000
0020
0000
0030
,
0000
0000
0000
0200
0000
0300
2000
0000
3000
0002
0000
0000
0000
0000
0000
0000
0000
0000
0100
0000
0000
0000
0000
0000
,
1000
0000
0000
0000
0000
0000
0000
0000
0000
0000
0000
0000
0003
0000
0000
0000
0000
0000
0000
0000
0000
0000
0000
0000
0010
0000
0000
0000
0000
0000
0000
0000
0000
0000
0000
0000
0001
0000
0000
0000
0000
0000
0000
0000
0000
0000
0000
0000
2000
0000
0000
0000
0000
0000
0000
0000
3000
0000
0000
0000
0000
0000
0000
0000
0002
0000
0000
0000
0000
0000
0000
0000
0003
0000
0000
0000
0000
0000
0000
0000
0000
0000
0000
0000
0000
0000
0000
0020
0000
0000
0000
0000
0000
0030
0000
0000
,
0100
0000
1000
0000
0010
0000
0000
1000
0001
0000
0100
0000
0001
0000
0000
0000
,
0010
0000
0000
0000
0000
0000
0100
0000
0000
0000
0000
0000
0010
0000
0000
0000
0000
0000
0000
0000
0000
0001
0000
0000
2000
0000
0000
0000
3000
0000
0020
0000
0000
0000
0030
0000
0200
0000
0000
0000
0300
0000
0002
0000
0000
0000
0003
0000
,
0020
0000
0030
0200
0000
0300
2000
0000
3000
0200
0000
0000
0000
0000
0000
0001
0000
0000
1000
0000
0000
0000
0300
0000
,
0100
0000
0100
0000
0010
0000
0000
0000
0001
0000
0010
0100
1000
0000
0001
0100
,
0010
0000
1010
0000
0000
1001
0000
0000
1100
0000
0000
1001
0000
0000
1010
0000
,
0000
0000
0000
0000
0000
0000
0101
0000
0000
0000
0000
0000
0000
0000
0000
1001
0000
0000
0000
0000
0000
0000
0000
0000
0002
0000
0000
0000
0003
0000
0002
0000
0000
0000
0003
0000
0020
0000
0000
0000
0030
0000
0200
0000
0000
0000
0300
0000
,
2000
0000
0000
0000
3000
0000
0020
0000
0000
0000
0030
0000
0200
0000
0000
0000
0300
0000
0002
0000
0000
0000
0003
0000
0011
0000
0000
0000
0000
0000
0000
0000
0000
0110
0000
0000
0000
0000
0000
0000
0000
0000
1100
0000
0000
0000
0000
0000
,
0000
0000
0101
0000
0000
1010
0000
0000
0001
0100
0010
1000
0001
1000
0100
0010
,
0001
0000
0000
0000
0000
0000
0000
0000
0000
0000
0000
0000
0000
0000
1000
0100
1000
0100
1000
0100
0000
0000
0000
0000
,
0110
0110
0000
0000
0000
0000
0000
0000
,
1001
0000
0000
0000
0001
0000
0100
0000
0000
0000
0000
0000
0000
0000
0000
0000
0000
0000
0000
0000
0000
0000
0000
0000
0000
0000
0000
0000
0000
0000
0000
0000
0000
0000
0000
0000
0010
0000
0000
1000
0000
0000
0100
0000
0000
0000
0000
0000
,
1001
0000
1001
0000
0000
0000
1001
0000
1001
0000
0110
0000
0000
0110
0000
0000
,
1001
0000
0000
0000
0000
0000
0000
0000
0000
0000
0000
0000
0000
0000
0000
0000
0000
0000
0000
0000
0000
1000
0000
0000
0100
0000
0000
0010
0000
0000
0001
0000
0000
0100
0000
0000
0010
0000
1000
0000
0010
0000
1000
0000
0000
0000
0000
0000
,
1001
0000
0000
0000
0000
0000
1001
0000
0000
0000
0000
0000
0000
0000
0000
0000
0000
0000
0000
0000
0000
0000
0000
0000
0000
0000
0000
0000
0000
0000
0000
0000
0000
0000
0000
0000
0001
0000
0010
0000
0001
0000
0100
0000
0000
0010
0000
0000
,
2000
3000
0110
0000
0002
0003
0110
0000
,
1001
0000
0000
1001
0000
0000
0120
0000
0000
0130
0000
0000
0210
0000
0000
0310
0000
0000
1001
0000
0000
1000
0100
0010
,
0001
0000
0100
0001
1000
0000
0010
0000
1000
0000
0001
0010
0100
0000
0010
0000
,
0000
0000
0001
1000
0010
0000
0100
0000
0001
1000
0100
0000
0010
0000
0110
0000
,
0000
0000
1100
0000
1100
0000
1001
0000
0001
0000
0000
0001
0100
0000
0010
0000
,
1000
0000
0000
0000
0000
0000
0000
0000
0000
1000
0000
0000
0100
0000
0000
0000
0000
0000
0010
0000
0000
0000
0000
0000
0100
0000
0000
0000
0000
0000
0000
0000
0000
0100
0000
0000
1000
0000
0000
0000
0000
0000
0000
0000
0001
0000
0100
0000
,
0001
0000
0100
0010
1000
0000
0100
0000
0010
0000
0001
1000
0010
0000
0100
0000
,
0000
0000
0001
0010
0100
0000
0010
0000
0001
1000
0010
0000
0100
0000
0010
1000
,
0001
0000
0101
0000
0101
0000
1001
0000
0000
0000
0001
1000
0100
0000
0000
0010
,
0001
0000
0000
0000
0000
0000
0000
0000
0000
0000
0000
0000
1000
0000
0000
0000
0000
0000
0000
0000
0000
0000
0000
0000
0010
0000
0000
0000
0000
0000
0000
0000
0000
0000
0000
0000
0010
0000
0000
0000
0000
0000
0000
0000
0000
0000
0000
0000
2000
0000
0000
0000
0000
0000
0000
0000
3000
0000
0000
0000
0000
0000
0000
0000
2000
0000
0000
0000
0000
0000
0000
0000
3100
0000
0000
0000
0000
0000
0000
0000
0000
0000
0000
0000
0000
0000
0000
0020
0000
0000
0000
0000
0000
0030
0000
0000
,
0001
0000
1010
0000
0000
1001
0000
0000
0110
0000
0000
1001
0000
0000
0011
0000
,
0000
0000
1100
0000
0000
0101
0000
0000
0010
1000
0100
0000
0010
0100
1000
0000
,
0010
0000
1010
0000
0000
0101
0000
0000
0110
0000
0000
1001
0000
0000
0011
0000
,
0000
0000
1100
0000
0000
0101
0000
0000
0010
0100
1000
0000
0001
0100
0010
0000
,
1001
0000
1000
0010
0000
1000
0100
0000
0010
0001
0010
0100
0010
0001
1000
0000
,
0000
0000
0001
0100
0000
0010
0100
0000
0001
1000
0001
0000
0010
0000
0100
1000
,
0010
0000
0100
0001
0000
1000
0001
0000
1100
0000
0000
2000
0001
0000
0100
3000
,
1000
0000
0001
0010
0000
0100
1000
0000
0110
0000
1000
0001
0100
0010
1000
0001
,
1000
0000
1000
0100
0000
0100
0001
0000
0001
0010
0000
0000
1001
0000
0000
0000
,
0001
0000
0001
0100
0000
0100
1000
0000
1000
0010
0000
0000
1001
0000
0000
0000
,
1100
0000
0001
0100
0010
0000
1000
0001
0000
0010
0100
0000
0110
0000
0000
0010
,
0001
0000
0000
0000
0000
0000
0001
0000
0000
1000
0000
0000
0010
0000
0000
0000
0000
0000
0000
0000
0000
0100
0000
0000
0001
0000
1000
0000
0001
0000
1000
0000
0000
0100
0000
0000
0010
0000
0000
0000
0000
0000
0001
0000
0000
0001
0000
0000
,
0200
0000
0000
0300
0000
0000
0000
0000
0000
0000
0000
0000
0220
0000
0000
0330
0000
0000
0000
0000
0000
0000
0000
0000
1000
0000
0000
0000
0000
0000
0000
0000
0101
0000
0000
0000
0000
0000
0000
0000
0000
0000
0000
0000
1000
0000
0000
0000
0100
0000
0000
0000
0001
0000
0000
0000
0100
0000
0000
0000
0010
0000
0000
0000
,
0001
1000
0001
0000
0000
0000
0000
0000
0110
0000
0000
0000
0001
0000
1000
0000
0010
0000
0000
0000
1000
0000
0100
0000
0010
0000
0010
0000
0001
0000
0000
0000
,
2002
0000
0000
3003
0000
0000
0000
0000
0000
0000
0000
0000
0202
0000
0000
0303
0000
0000
0000
0000
0000
0000
0000
0000
1000
0000
0000
0000
0000
0000
0000
0000
0010
0000
0000
0000
1000
0000
0000
0000
0000
0000
0000
0000
0001
0000
0000
0000
0010
0000
0000
0000
0100
0000
0000
0000
1000
0000
0000
0000
0010
0000
0000
0000
,
0100
0000
0000
0010
1000
0000
0001
0000
0010
0000
0100
0010
0001
0000
0000
0000
,
2002
0000
0000
3003
0000
0000
0000
0000
0000
0000
0000
0000
0002
0000
0000
0003
0000
0000
0000
0000
0000
0000
0000
0000
0000
0000
0000
0000
0000
0000
0000
0000
0000
0000
0000
0000
0000
0000
0000
0000
0000
0000
0000
0000
0100
0000
0000
0000
0001
0000
0000
0000
0100
0000
0000
0000
0001
0000
0000
0000
0010
0000
0000
0000
,
0000
0000
0100
0000
0000
0100
0000
0000
1000
0000
0000
1000
0000
0000
0010
0000
,
0220
0000
0000
0330
0000
0000
0000
0000
0000
0000
0000
0000
2002
0000
0000
3003
0000
0000
0000
0000
0000
0000
0000
0000
0000
0000
0000
0000
0000
0000
0000
0000
0000
0000
0000
0000
0000
0000
0000
0000
0000
0000
0000
0000
0000
0000
0000
0000
0000
0000
0000
0000
0000
0000
0000
0000
0000
0000
0000
0000
0000
0000
0000
0000
;
