#TITLE:Run Away;
#SUBTITLE:;
#ARTIST:Smashtrax;
#TITLETRANSLIT:;
#SUBTITLETRANSLIT:;
#ARTISTTRANSLIT:;
#GENRE:;
#CREDIT:;
#MUSIC:Run Away.mp3;
#BANNER:;
#BACKGROUND:;
#CDTITLE:;
#SAMPLESTART:62.512;
#SAMPLELENGTH:14.400;
#SELECTABLE:YES;
#OFFSET:2.288;
#BPMS:0.000=100.000;
#STOPS:;
#BGCHANGES:;
#FGCHANGES:;

//--------------- dance-single - aboutblank ----------------
#NOTES:
     dance-single:
     aboutblank:
     Beginner:
     1:
     0,0,0,0,0:
0000
0000
0000
0000
,
0000
0000
0000
0000
,
0000
0000
0000
0000
,
0000
0000
0000
0000
,
0000
0000
0000
0000
,
1000
0000
1000
0000
,
0001
0000
0001
0000
,
0100
0000
0100
0000
,
0010
0000
0010
0000
,
1001
0000
0000
0000
,
1001
0000
0000
0000
,
1001
0000
0000
0000
,
0110
0000
0000
0000
,
1001
0000
0000
0000
,
1001
0000
0000
0000
,
1001
0000
0000
0000
,
0110
0000
0000
0000
,
1000
0000
0000
0000
,
0001
0000
0000
0000
,
0100
0000
0000
0000
,
0010
0000
0000
0000
,
1000
0000
0000
0000
,
0001
0000
0000
0000
,
0100
0000
0000
0000
,
0010
0000
0000
0000
,
1000
0000
0000
0000
,
0001
0000
0000
0000
,
0110
0000
0000
0000
,
1001
0000
0000
0000
,
0110
0000
0000
0000
,
1001
0000
0000
0000
,
0001
0000
0000
0000
,
1000
0000
0000
0000
,
0001
0000
0000
0000
,
1000
0000
0000
0000
,
0010
0000
0000
0000
,
1000
0000
0000
0000
,
0100
0000
0000
0000
,
0001
0000
0000
0000
,
1001
0000
0010
0000
,
0000
0000
0001
0000
,
0000
0000
0100
0000
,
0000
0000
1000
0000
,
1000
0000
0000
0000
,
0100
0000
0000
0000
,
0110
0000
0000
0000
,
1001
0000
0000
0000
,
0001
0000
0000
0000
,
0100
0000
0000
0000
,
0110
0000
0000
0000
,
1001
0000
0000
0000
;

//--------------- dance-single - aboutblank ----------------
#NOTES:
     dance-single:
     aboutblank:
     Easy:
     5:
     0,0,0,0,0:
0000
0000
0000
0000
,
0000
0000
0000
0000
,
0000
0000
0000
0000
,
0000
0000
0000
0000
,
0000
0000
0000
0000
,
1000
1000
0100
0110
,
0001
0001
0100
0110
,
1000
1000
0100
0110
,
0001
0001
0100
0110
,
1000
1000
0100
0100
,
0001
0001
0100
0100
,
1000
1000
0100
0100
,
0002
0003
0001
0001
,
1000
1000
0010
0010
,
0001
0001
0010
0010
,
1000
1000
0010
0010
,
0002
0003
0001
0001
,
0100
0100
0001
0001
,
0100
0100
1000
1000
,
0110
0000
0001
0001
,
0110
0000
1000
1000
,
0110
0000
0001
0001
,
0110
0000
1000
0001
,
1100
0000
1000
1000
,
0101
0000
0001
0001
,
1010
0000
1000
1000
,
0011
0000
0001
1000
,
0010
0010
0001
0010
,
1000
1000
0001
0100
,
1000
1000
0001
0010
,
2000
3000
1000
1000
,
0002
0013
1000
0010
,
0001
0001
1000
0100
,
0001
0001
1000
0010
,
0002
0003
0001
0001
,
2000
0100
0100
3100
,
0002
0010
0010
0013
,
2000
0010
0010
3010
,
0002
0100
0100
0103
,
1001
0000
2000
3100
,
0002
0010
1000
0013
,
2000
0100
0001
3100
,
0002
0010
0100
0013
,
1001
0000
0100
0000
2000
3000
0002
0003
,
1001
0000
0100
0000
0002
0003
2000
3000
,
1001
0000
0010
0000
0002
0003
0200
0300
,
1010
1000
0001
0010
,
1100
0000
0001
0000
2000
3000
0020
0030
,
0101
0000
1000
0000
0002
0003
0020
0030
,
1100
0000
0001
0000
0200
0300
0020
0030
,
1001
0000
0000
0000
;

//--------------- dance-single - aboutblank ----------------
#NOTES:
     dance-single:
     aboutblank:
     Medium:
     7:
     0,0,0,0,0:
0000
0000
0000
0000
,
0000
0000
0000
0000
,
0000
0000
0000
0000
,
0000
0000
0000
0000
,
0000
0000
0000
0000
,
0010
0000
1001
0000
0001
1000
0010
0000
,
0010
0000
1001
0000
1000
0001
0010
0000
,
0100
0000
1001
0000
1000
0001
0100
0000
,
0100
0000
1001
0000
1000
0001
0100
0000
,
0001
0000
0001
0000
0001
0010
0001
0000
,
1000
0000
1000
0000
1000
0100
1000
0000
,
0001
0000
0001
0000
0001
0010
0001
0000
,
1000
0000
1000
0000
0001
0100
1000
0100
,
0001
0000
0001
0000
0001
0100
0001
0000
,
1000
0000
1000
0000
1000
0010
1000
0000
,
0001
0000
0001
0000
0001
0100
0001
0000
,
1000
0000
1000
0010
0001
0010
1000
0000
,
1001
0000
0001
0000
0100
0001
0010
0000
,
1001
0000
1000
0000
0100
1000
0010
0000
,
0100
0000
0100
0000
0100
1000
0100
0000
,
1000
0000
1000
0000
1000
0010
1000
0000
,
0010
0000
0010
0000
0010
0001
0010
0000
,
0001
0000
0001
0000
0001
0100
0110
0000
,
1000
0000
1000
0000
1000
0100
1000
0000
,
0100
0000
0100
0000
0100
0001
0100
0000
,
0001
0000
0001
0000
0001
0010
0001
0000
,
0010
0000
0010
0000
0010
1000
1010
0000
,
2000
0000
3100
0000
1000
0100
0001
0000
,
0002
0000
0103
0000
0001
0100
1000
0000
,
2000
0000
3100
0000
1000
0100
0001
0000
,
0002
0000
1003
0000
0001
1000
0001
0000
,
0002
0000
0013
0000
0001
0010
1000
0000
,
2000
0000
3010
0000
1000
0010
0001
0000
,
0002
0000
0013
0000
0001
0010
1000
0000
,
2000
0000
3001
0000
1000
0001
1000
0000
,
0210
0001
0010
0301
,
0120
1000
0100
1030
,
2001
0100
0001
3100
,
1002
0100
1000
0103
,
0022
0000
0033
0000
0001
0010
0100
0000
,
2010
0000
3010
0000
1000
0010
0100
0000
,
0201
0000
0301
0000
0001
0100
0010
0000
,
2100
0000
3100
0000
1000
0100
0001
0100
,
2000
0000
3010
0000
0010
0100
0010
0000
,
0002
0000
0013
0000
0010
0100
0010
0000
,
2000
0000
3010
0000
0010
0100
0010
0000
,
0002
0000
1003
0000
0110
0000
1000
0001
,
2000
0000
3100
0000
0010
0001
0100
0010
,
2000
0000
3001
0000
0100
0001
0010
0100
,
2000
0000
3100
0000
0010
0001
0100
0010
,
2000
0000
0000
0000
0000
0000
3000
0000
0000
0001
0000
0000
0000
0000
1000
0000
0000
0000
0000
0000
0000
0000
0000
0000
;

//--------------- dance-single - aboutblank ----------------
#NOTES:
     dance-single:
     aboutblank:
     Hard:
     13:
     0,0,0,0,0:
0000
0000
0000
0000
,
0000
0000
0000
0000
,
0000
0000
0000
0000
,
0000
0000
0000
0000
,
0000
0000
0000
0000
,
1000
0000
0000
0100
0000
0000
0001
0000
0000
0100
0000
0000
1000
0000
0000
0000
0000
0001
0100
0000
0000
0100
0000
0000
,
0001
0000
0000
0010
0000
0000
1000
0000
0000
0010
0000
0000
0001
0000
0000
0000
0000
1000
0100
0000
0000
0010
0000
0000
,
0001
0000
0000
1000
0000
0000
0010
0000
0000
1000
0000
0000
0001
0000
0000
0000
0000
0100
0001
0000
0000
0001
0000
0000
,
1000
0000
0000
0001
0000
0000
0010
0000
0000
0001
0000
0000
1000
0000
0000
0000
0000
0100
1000
0000
0100
0010
0000
0000
,
0002
0000
0000
0000
0000
0000
1003
0000
0000
0100
0000
0000
0001
0000
0000
0000
0001
0000
1000
0000
0000
0000
1000
0000
,
0020
0000
0000
0000
0000
0000
0031
0000
0000
0100
0000
0000
1000
0000
0000
0000
1000
0000
0001
0000
0000
0000
0001
0000
,
0020
0000
0000
0000
0000
0000
1030
0000
0000
0100
0000
0000
0001
0000
0000
0000
0001
0000
1000
0000
0000
0000
1000
0000
,
0020
0000
0000
0000
0000
0000
0031
0000
0000
0100
0000
0000
0010
0000
0000
0000
0000
0100
0001
0000
1000
0010
0000
0000
,
2000
0000
0000
0000
0000
0000
3001
0000
0000
0010
0000
0000
1000
0000
0000
0000
1000
0000
0001
0000
0000
0000
0001
0000
,
0200
0000
0000
0000
0000
0000
1300
0000
0000
0010
0000
0000
0001
0000
0000
0000
0001
0000
1000
0000
0000
0000
1000
0000
,
0200
0000
0000
0000
0000
0000
0301
0000
0000
0010
0000
0000
1000
0000
0000
0000
1000
0000
0001
0000
0000
0000
0001
0000
,
0200
0000
0000
0000
0000
0000
1300
0000
0000
0100
0000
0000
0010
0000
0000
0000
0000
0001
0100
0000
0001
1000
0000
0000
,
0010
0000
0000
0100
0000
0000
0001
0000
0000
0100
0000
0000
0010
0000
0000
0000
0000
0100
0001
0000
0010
0001
0000
0000
,
0010
0000
0000
0100
0000
0000
1000
0000
0000
0100
0000
0000
0010
0000
0000
0000
0000
0100
1000
0000
0010
1000
0000
0000
,
1001
0000
0000
0000
0000
0000
0001
0000
0000
0100
0000
0000
0001
0000
0000
1000
0000
0100
0010
0000
0000
0010
0000
0000
,
0001
0000
0000
0000
0000
0000
1000
0000
0000
0001
0000
0000
0100
0000
0000
0010
0000
1000
0100
0000
0000
0100
0000
0000
,
0001
0000
0000
0000
0000
0000
0100
0000
0000
0010
0000
0000
0001
0000
0000
1000
0000
0010
1000
0000
0000
1000
0000
0000
,
0001
0000
0000
0000
0000
0000
0100
0000
0000
0001
0000
0000
1000
0000
0000
0001
0000
0100
0001
0000
1000
0010
0000
0000
,
0101
0000
0000
0000
0000
0000
0001
0000
0000
1000
0000
0000
0100
0000
0000
0001
0000
0100
0010
0000
0000
0010
0000
0000
,
0001
0000
0000
0000
0000
0000
1000
0000
0000
0001
0000
0000
0100
0000
0000
1000
0000
0100
0010
0000
0000
0010
0000
0000
,
1000
0000
0000
0000
0000
0000
0001
0000
0000
0010
0000
0000
0100
0000
0000
1000
0000
0100
0010
0000
0000
0011
0000
0000
,
1100
0000
0000
0000
0000
0000
0001
0000
0000
1000
0000
0010
0000
0000
0100
0000
0000
0001
1000
0000
0000
0110
0000
0000
,
1001
0000
0000
0000
0000
0000
1000
0000
0000
0010
0000
1000
0010
0000
0000
0100
0000
0000
0001
0000
0000
1100
0000
0000
,
0011
0000
0000
0000
0000
0000
0001
0000
0000
1000
0000
0001
1000
0000
0000
0010
0000
0000
0100
0000
0000
0101
0000
0000
,
1010
0000
0000
0000
0000
0000
0001
0000
0000
0010
0000
0000
0100
0000
0000
1000
0000
0100
0010
0000
0000
0011
0000
0000
,
1010
0000
0000
0000
0000
0000
0010
0000
0000
0100
0000
0000
0001
0000
1000
0000
0000
0001
1000
0000
0000
0010
0000
0100
,
0001
0000
0000
0000
0000
0000
1000
0000
0000
0100
0000
0000
0001
0000
0000
0100
0000
0010
0100
0000
0000
0010
0000
0001
,
1000
0000
0000
0010
0000
0000
0100
0000
0000
0010
0000
0000
1000
0000
0000
0100
0000
0010
0100
0000
0000
0010
0000
0001
,
1000
0000
0000
0100
0000
0000
0010
0000
0000
0100
0000
0000
1000
0000
0000
0001
0000
1000
0100
0000
0000
0100
0000
0010
,
0001
0000
0000
1000
0000
0000
0001
0000
0000
0010
0000
0000
0001
0000
0100
0000
0000
0010
1000
0000
0010
0100
0000
0001
,
2000
0000
0000
0000
0000
0000
0100
0000
0000
0000
0000
0000
0100
0000
0000
0000
0000
0010
0000
0000
0000
3100
0000
0000
,
0002
0000
0000
0000
0000
0000
0100
0000
0000
0000
0000
0000
0100
0000
0000
0000
0000
0010
0000
0000
0000
0103
0000
0000
,
2000
0000
0000
0000
0000
0000
0010
0000
0000
0000
0000
0000
0010
0000
0000
0000
0000
0100
0000
0000
0000
3010
0000
0000
,
0002
0000
0000
0000
0000
0000
0010
0000
0000
0000
0000
0000
0010
0000
0000
0000
0000
0100
0000
0000
0000
0013
0000
0000
,
2002
0000
3003
0000
1000
0100
0001
0100
,
0010
0000
0000
0010
0000
0001
1000
0000
0000
0010
0000
0000
0100
0000
0000
0001
0000
0000
0100
0000
0000
1000
0000
0000
,
0100
0000
0000
0010
0000
1000
0001
0000
0000
0010
0000
0000
0100
0000
0000
1000
0000
0000
0100
0000
0000
0010
0000
0000
,
0001
0000
0000
0100
0000
0001
1000
0000
0000
1010
0000
0000
0010
0000
0000
0100
0000
0001
0000
1000
0000
0100
0000
0010
,
0000
0001
0000
2000
0000
0000
0000
0000
0000
0000
0000
0000
3010
0000
0000
0000
0010
0000
0100
0000
0000
0000
0100
0000
,
0002
0000
0000
0000
0000
0000
1003
0000
1000
0010
0000
0010
,
0200
0000
0000
0000
0000
0000
0000
0000
0000
0000
0000
0000
0000
0000
0000
0302
0000
0000
0000
0000
0000
0000
0000
0000
1003
0000
0000
0000
0000
0000
0000
0000
1000
0000
0000
0000
0001
0000
0000
0000
0000
0000
0000
0000
0001
0000
0000
0000
,
0020
0000
0000
0000
0000
0000
2030
0000
0000
0100
0000
0000
3002
0000
0100
0000
0000
0000
1003
0000
0010
0000
1000
0000
,
0002
0000
0000
0013
0000
0000
0011
0000
1000
0100
0000
0100
,
0020
0000
0000
0000
0000
0000
0000
0000
0000
0000
0000
0000
0031
0000
0000
0000
0000
0000
0000
0000
0000
1000
0000
0000
0001
0000
0000
0000
0000
0000
0000
0000
0100
0000
0000
0000
0010
0000
0000
0000
0000
0000
0000
0000
0010
0000
0000
0000
,
1000
0001
1000
0100
0000
0000
0010
0000
0010
0001
0000
0001
,
2000
0000
0000
3000
0000
0110
0000
1001
0000
0000
0000
0000
;
