#TITLE:Rippin' 2 Tripin';
#SUBTITLE:;
#ARTIST:Fracus;
#TITLETRANSLIT:;
#SUBTITLETRANSLIT:;
#ARTISTTRANSLIT:;
#GENRE:;
#CREDIT:;
#MUSIC:Rippin' 2 Tripin'.mp3;
#BANNER:;
#BACKGROUND:;
#CDTITLE:;
#SAMPLESTART:60.076;
#SAMPLELENGTH:18.000;
#SELECTABLE:YES;
#OFFSET:2.924;
#BPMS:0.000=80.000;
#STOPS:;
#BGCHANGES:;
#FGCHANGES:;

//--------------- dance-single - aboutblank ----------------
#NOTES:
     dance-single:
     aboutblank:
     Beginner:
     3:
     0,0,0,0,0:
0000
0000
0000
0000
,
0000
0000
0000
0000
,
0000
0000
0000
0000
,
0000
0000
0000
0000
,
0000
0000
0000
0000
,
1000
0000
1000
1000
,
0001
0000
0001
0001
,
0100
0000
0100
0100
,
0010
0010
1000
1000
,
0001
0000
0010
0100
,
1000
0000
0010
1001
,
0001
0001
1000
1000
,
0100
0010
0100
0100
,
1000
0000
0010
0010
,
0100
0000
0001
0001
,
1000
0000
0100
0100
,
0010
0000
0001
0010
,
0100
0100
1000
1000
,
0010
0010
0200
0301
,
0001
0001
0010
0010
,
1100
0001
1000
0100
,
0010
0010
0001
0001
,
0100
0100
1000
1000
,
0010
0010
1000
1000
,
0100
0100
0001
0001
,
0010
1000
0100
0001
,
0100
1000
0010
0001
,
0100
0001
0010
1000
,
0100
0001
0101
1000
,
0010
0010
0100
0100
,
0010
0010
0100
0100
,
0001
0001
1000
1000
,
1100
0000
0001
0000
1000
0100
0001
0000
,
0010
0000
0000
0000
;

//--------------- dance-single - aboutblank ----------------
#NOTES:
     dance-single:
     aboutblank:
     Easy:
     7:
     0,0,0,0,0:
0000
0000
0000
0000
,
0000
0000
0000
0000
,
0000
0000
0000
0000
,
0000
0000
0000
0000
,
0000
0000
0000
0000
,
1000
0000
0100
0000
0010
0001
1000
0000
,
0001
0000
0100
0000
0010
1000
0001
0000
,
0010
0000
0100
0000
0010
0001
0100
0000
,
1000
0100
0001
0000
1000
0100
0010
0001
,
0100
0100
0010
0000
1000
0100
0010
0000
,
0001
0001
1000
0000
0001
0010
0110
0000
,
1000
0100
0001
0100
1000
0100
0001
0100
,
1000
0010
0001
0010
1000
0010
0100
0000
,
0001
1000
0100
0000
0010
0010
0001
0100
,
1000
0100
0010
0000
0100
0100
1001
0000
,
0001
0010
0100
0010
0001
0100
0001
0100
,
0010
1000
0100
0000
0001
0100
0010
0001
,
1000
0010
0100
0000
1000
0100
0001
0000
,
0001
0010
0100
0000
0001
0100
1000
0000
,
1000
0100
0010
0000
1000
0010
0001
0000
,
0001
0100
0010
0000
0110
0110
1001
1001
,
0001
0010
0100
1000
0001
0010
0001
0010
,
0100
1000
0100
0010
0001
1000
0001
1000
,
0001
0100
0010
1000
0001
0010
0100
1000
,
0001
0010
1000
0010
0001
0100
0010
0010
,
0001
0010
0001
0010
1000
0100
1000
0100
,
0001
0100
0001
0100
0010
0001
0010
0100
,
1000
0100
0010
0001
0100
0001
1000
0010
,
0200
0301
1001
0000
0001
0010
0100
1000
,
0001
0001
0100
0100
0001
0001
0100
0100
,
0010
0010
1000
1000
0010
1000
0200
1000
,
1300
1000
0100
0100
0010
0010
0001
0001
,
2000
0000
3010
0100
0010
0000
0100
0010
0100
0000
0001
0000
1001
0000
0110
0000
,
1001
0000
0000
0000
;

//--------------- dance-single - aboutblank ----------------
#NOTES:
     dance-single:
     aboutblank:
     Medium:
     9:
     0,0,0,0,0:
0000
0000
0000
0000
,
0000
0000
0000
0000
,
0000
0000
0000
0000
,
0000
0000
0000
0000
,
0000
0000
0000
0000
,
1000
0000
0100
0000
0010
0001
0000
0000
0100
0000
0000
0000
1001
0000
0000
0000
,
0001
0000
0100
0000
0010
1000
0000
0000
0100
0000
0000
0000
1001
0000
0000
0000
,
1000
0000
0100
0000
0001
0100
0000
0000
0001
0000
0100
0000
1000
0000
0000
0000
,
1000
0000
0100
0000
0010
0001
0000
1000
0001
0000
1000
0000
0110
0000
0000
0000
,
0002
0000
1000
0000
1003
0001
0000
0000
1000
0000
0001
0000
0110
0000
0000
0000
,
0020
0000
1000
0000
1030
0010
0000
0000
1000
0100
1000
0000
0001
0000
0001
0000
,
2000
0000
0100
0000
3100
1000
0000
1000
0002
0000
0010
0000
0013
0001
0000
1000
,
0001
0000
1000
0000
0100
0010
0100
0000
0010
0100
0010
0000
1001
0000
0000
0000
,
1000
0000
0010
0000
0200
1000
0000
0000
1000
0000
1000
0000
0301
0000
0000
0000
,
0001
0000
0010
0000
0200
0001
0000
0000
0001
0000
0001
0000
1300
0000
0000
0000
,
1000
0000
0200
0000
0001
0010
0000
0000
1000
0000
1000
0000
0310
0000
0000
0000
,
0001
0000
0020
0000
1000
0100
0000
0000
0100
0000
0100
0000
0031
0000
0000
0000
,
1000
0000
0001
0000
0010
0100
0010
0000
1100
0000
0100
0000
0101
0000
0000
0000
,
0001
0000
1000
0000
0010
0100
0010
0000
0110
0000
0100
0000
1001
0000
0000
0000
,
0001
0000
1000
0000
0001
0100
0001
0000
1100
0000
0010
0000
0011
0000
0000
0000
,
0001
0000
1000
0100
1000
0000
0001
0010
0010
0100
0000
1000
0001
0000
0110
0000
,
1000
0000
0100
0000
0010
0001
0000
0000
0010
0000
0100
0000
1000
0000
0000
0000
,
0001
0000
1000
0000
0100
0010
0000
0000
0001
0000
1000
0000
0010
0000
0000
0000
,
0100
0000
0001
0000
0100
0010
0000
0000
1000
0000
0010
0000
0110
0000
0000
0000
,
0001
0000
1000
0000
0100
0001
0000
0000
0100
0000
0010
0000
1001
0000
0000
0000
,
0001
0000
1000
0000
0010
0100
0000
0000
1000
0000
0100
0000
0110
0000
0000
0000
,
0001
0000
0010
0000
0100
0010
0000
0000
0001
0000
1000
0000
1001
0000
0000
0000
,
0001
0000
0100
0000
0010
1000
0000
0001
1000
0000
0100
0000
0110
0000
0000
0000
,
0001
0000
0010
0100
0010
0000
0001
1000
0002
0000
0000
0000
0100
0000
0103
0000
,
1000
0000
0100
0000
0010
0000
0001
1000
0100
0000
1000
0000
1001
0000
0000
0000
,
1000
0000
0001
0000
0100
0000
0010
1000
0010
0000
0100
0000
0101
0000
0000
0000
,
0001
0000
0010
0000
0100
0000
1000
0100
0001
0000
0100
0000
0110
0000
0000
0000
,
0010
0000
0001
1000
0001
0000
0010
0010
0100
0000
1000
0100
0010
0000
0110
0000
,
1001
0000
0000
0000
;

//--------------- dance-single - aboutblank ----------------
#NOTES:
     dance-single:
     aboutblank:
     Hard:
     12:
     0,0,0,0,0:
0000
0000
0000
0000
,
0000
0000
0000
0000
,
0000
0000
0000
0000
,
0020
2030
3200
0302
,
0023
0032
0203
2300
,
3001
0000
1000
0000
0100
0000
0000
0010
0001
0000
0100
0000
1000
0000
0000
0000
,
0001
0000
0010
0000
1000
0000
0000
1000
0100
0000
0010
0000
1000
0000
1000
0000
,
1010
0000
0010
0000
0001
0000
0000
0100
0001
0000
0100
0000
0010
0000
0000
0000
,
1000
0000
0100
0000
0001
0000
0000
0100
0010
0000
0001
0000
2000
0000
0000
0000
,
3001
0010
0100
0000
0011
0000
0001
0000
1000
0000
1000
0000
0010
0000
0010
0000
,
1000
0100
0010
0000
1100
0000
0001
0000
1000
0100
0001
0000
0110
0000
0000
0000
,
0001
0000
1000
0000
1100
0000
0010
0000
0100
0010
0001
0000
0110
0000
1000
0000
,
0001
0100
0010
0000
1100
0000
0001
0000
1000
0100
0010
0010
0001
0100
0010
1000
,
0100
0010
0200
0300
1100
0000
0001
0000
1000
0100
0001
0100
1000
0000
0010
0000
,
0100
0001
0020
0030
1100
0000
0001
0000
1000
0100
0010
0000
0110
0000
0001
0000
,
1000
0010
0200
0300
1100
0000
0001
0000
0100
0010
1000
0001
1001
0000
0001
0000
,
2000
0000
3010
0000
0002
0000
0103
0000
1000
0001
0010
0010
0100
0010
0001
1000
,
0020
0100
0130
0000
0110
0000
0001
0000
1000
0100
0010
0100
1000
0100
0010
0001
,
0200
0001
0301
0000
0101
0000
0001
0000
0010
0100
0010
0001
1000
0010
0100
0001
,
2000
0010
3010
0000
0101
0000
0001
1000
0010
0100
0010
1000
0001
0100
0010
1000
,
0002
0000
0000
0000
0103
0000
0010
0000
1010
0000
0000
0000
0001
0100
0001
0100
0010
0000
1000
0000
0001
0000
0000
0000
0011
0000
0000
0000
1100
0000
1000
0000
,
0001
0010
1000
0000
0011
0000
1010
0000
1000
0100
0001
0000
1100
0000
0101
0000
,
0001
0010
1000
0000
0011
0000
1010
0000
1000
0100
0010
0100
2000
0000
3001
0000
,
1000
0010
0100
0000
1100
0000
0101
0000
0001
0010
0100
0000
0101
0000
1100
0000
,
1000
0100
0010
0000
1010
0000
0011
0000
0001
1000
0001
1000
0010
0100
0010
0100
,
0010
1000
0100
0000
1100
0000
0011
0000
0010
0001
0100
0000
0101
0000
1010
0000
,
0100
0001
0010
0000
0011
0000
1100
0000
0100
1000
0010
0000
1010
0000
0101
0000
,
1000
0001
0100
0000
1001
0000
0110
0000
0001
1000
0100
0000
1001
0000
0110
0000
,
0001
0010
0100
1000
0001
0000
0101
0000
0010
1000
0000
1100
0000
0011
0000
1000
,
0001
0010
0001
1000
0001
0100
0001
1000
0010
0100
0010
1000
0001
0100
0010
1000
,
0001
0010
0100
1000
0001
0010
0001
0010
0100
1000
0001
1000
0100
0010
0001
1000
,
0010
0100
0010
1000
0010
0100
0001
1000
0001
0100
0001
0100
0010
1000
0010
1000
,
0002
0000
0000
0000
1003
0100
1000
0100
2000
0000
0000
0000
3001
0010
0001
0010
0001
0000
1000
0100
0010
0000
0001
0000
1001
0000
0000
0000
0110
0000
0000
0000
,
1001
0000
0000
0000
;
