#TITLE:Return My Heart;
#SUBTITLE:;
#ARTIST:Big Idea feat. Ernesto Rico;
#TITLETRANSLIT:;
#SUBTITLETRANSLIT:;
#ARTISTTRANSLIT:;
#GENRE:;
#CREDIT:;
#MUSIC:Return My Heart.mp3;
#BANNER:;
#BACKGROUND:;
#CDTITLE:;
#SAMPLESTART:47.323;
#SAMPLELENGTH:9.750;
#SELECTABLE:YES;
#OFFSET:-0.073;
#BPMS:0.000=120.000;
#STOPS:;
#BGCHANGES:;
#FGCHANGES:;

//--------------- dance-single - eataninja ----------------
#NOTES:
     dance-single:
     eataninja:
     Beginner:
     1:
     0,0,0,0,0:
0000
0000
0000
0000
,
0000
0000
0000
0000
,
0000
0000
0000
0000
,
0000
0000
0000
0000
,
1000
0000
1000
0000
,
0010
0000
0010
0000
,
0100
0000
0100
0000
,
0001
0000
0001
0000
,
0010
0000
0000
0000
,
0100
0000
0000
0000
,
1000
0000
0001
0000
,
1000
0000
0000
0000
,
0010
0000
0000
0000
,
0100
0000
0000
0000
,
0001
0000
1000
0000
,
0100
0000
0000
0000
,
1000
0000
0000
0000
,
0010
0000
0000
0000
,
0100
0000
0100
0000
,
0001
0000
1000
0000
,
0001
0000
0000
0000
,
0010
0000
0000
0000
,
0100
0000
0100
0000
,
1000
0000
0001
0000
,
0100
0000
0000
0000
,
0010
0000
1000
0000
,
0100
0000
0000
0000
,
0010
0000
0001
0000
,
0100
0000
0000
0000
,
0100
0000
0001
0000
,
0010
0000
0000
0000
,
0100
0000
1000
0000
,
0020
0000
0000
0000
,
0030
0000
0000
0000
,
1000
0000
0000
0000
,
0001
0000
0000
0000
,
0020
0000
0000
0000
,
0030
0000
0000
0000
,
0001
0000
0000
0000
,
1000
0000
0000
0000
,
0010
0000
0100
0000
,
0110
0000
0000
0000
;

//--------------- dance-single - eataninja ----------------
#NOTES:
     dance-single:
     eataninja:
     Easy:
     4:
     0,0,0,0,0:
0000
0000
0000
0000
,
0000
0000
0000
0000
,
0000
0000
0000
0000
,
0000
0000
0000
0000
,
1000
0100
1000
1000
,
0001
0100
0001
0001
,
1000
0010
1000
1000
,
0001
0010
0001
0001
,
1000
0010
0000
0000
,
0001
0100
0000
0000
,
2000
3001
0010
0010
,
0200
0300
0000
0000
,
1000
0100
0000
0000
,
0001
0010
0000
0000
,
1000
0010
0001
0010
,
0200
0300
0000
0000
,
0100
0100
0001
0000
,
0010
0000
0010
0000
,
0100
0001
0100
1000
,
0001
1000
0010
0000
,
0100
0100
0001
0000
,
0010
0000
0010
0000
,
1000
0010
0001
0100
,
1000
0000
0100
0000
,
0001
0001
1000
0000
,
1001
0000
1000
0100
,
2000
0000
3001
0000
,
1001
0000
0001
0100
,
0002
0000
0013
0000
,
1001
0000
1000
0100
,
2000
0000
3010
0000
,
1001
0001
0010
0100
,
0200
0000
0000
0000
,
0000
0000
0300
0000
,
1000
0001
0100
0000
,
0100
0100
0001
0000
,
1000
0001
0010
0000
,
0010
0010
0001
0000
,
1000
0010
0001
0010
,
0100
0100
0010
0010
,
1000
0100
0001
0100
,
0110
0000
0000
0000
;

//--------------- dance-single - eataninja ----------------
#NOTES:
     dance-single:
     eataninja:
     Medium:
     8:
     0,0,0,0,0:
0000
0000
0000
0000
,
0000
0000
0000
0000
,
0000
0000
0000
0000
,
0000
0000
0000
0000
,
1000
0000
0100
0000
0001
0100
1000
0000
,
0001
0000
0100
0000
1000
0100
0001
0000
,
1000
0000
0100
0000
0001
0100
1000
0000
,
0001
0000
0100
0000
0010
1000
0100
0010
,
0001
0000
0000
0001
0000
0000
0000
0000
1000
0000
0000
0000
1100
0000
0000
0000
,
0001
0000
0000
0001
0000
0000
0000
0000
1000
0000
0000
0000
1010
0000
0000
0000
,
0010
0000
0000
0100
0000
0000
0002
0000
0000
0000
1000
0000
1003
0000
0000
0000
,
0002
0000
0013
0000
1000
0010
0001
0000
,
1000
0000
0000
1000
0000
0000
0000
0000
0001
0000
0000
0000
0101
0000
0000
0000
,
1000
0000
0000
1000
0000
0000
0000
0000
0001
0000
0000
0000
0011
0000
0000
0000
,
0020
0000
0130
0000
2000
0000
3010
0010
,
0001
0010
1000
0000
0001
0000
1001
0000
,
0010
0000
0000
0100
0000
0000
1000
0000
0000
0000
0001
0000
0001
0000
0000
0000
,
1000
0000
0010
0000
0100
0010
0100
0000
,
0001
0010
0100
0000
1000
0100
0010
0000
,
0001
0100
0010
0000
1000
0010
0100
0000
,
0100
0000
0000
0010
0000
0000
1000
0000
0000
0000
0001
0000
0001
0000
0000
0000
,
1000
0000
0100
0000
0010
1000
0010
0000
,
0001
1000
0010
0000
1000
0001
0010
0000
,
0001
1000
0100
0000
1000
0001
0100
0010
,
1000
0000
1010
0000
0001
1000
0001
0000
,
1000
0000
0000
0000
1000
0000
0000
0000
0001
0000
0000
0010
0000
0000
0100
0000
,
2000
0000
3001
0000
0100
0100
0100
0000
,
0010
0000
0001
0000
0010
1000
0001
0000
,
0010
0000
0011
0000
1000
1000
0001
0000
,
0100
0000
0000
0010
0000
0000
1000
0000
1000
0000
0000
0000
0001
0000
0010
0000
,
0200
0000
1300
0000
0001
0001
1000
0000
,
0010
0000
0000
0100
0000
0000
0001
0000
0001
0000
0000
0000
1000
0000
0001
0000
,
0020
1000
0100
0031
,
0200
1000
0010
0301
,
1000
0000
1010
0000
0100
0001
0100
0000
,
0001
0000
0011
0000
0100
0100
1000
0000
,
0001
0000
0110
0000
0010
0100
0001
0000
,
1000
0000
0110
0000
0010
0001
0100
0000
,
0001
0100
1000
0000
1000
0100
0001
0000
,
1000
0100
0001
0000
0001
0100
1000
0000
,
0001
1000
0001
0100
0010
1000
0100
0010
,
0001
0000
0000
0000
;

//--------------- dance-single - eataninja ----------------
#NOTES:
     dance-single:
     eataninja:
     Hard:
     12:
     0,0,0,0,0:
0000
0000
0000
0000
,
0000
0000
0000
0000
,
0000
0000
0000
0000
,
0000
0000
0000
0000
,
1000
0000
0001
0100
0000
0010
0000
0100
0000
0001
0000
0010
0000
0100
0000
0100
,
1000
0000
0001
0100
0000
0010
0000
0001
0000
0010
0000
1000
0000
0100
0000
0100
,
1000
0000
0001
0100
0000
0010
0000
0100
0000
0001
0000
0010
0000
0100
0000
0100
,
1000
0000
0001
0100
0000
0010
0000
0001
0000
0010
0000
1000
0000
0100
0000
0010
,
0001
0000
0000
1000
0010
0000
0100
0000
0001
0000
0000
1000
0010
0000
0010
0000
,
1000
0000
0000
0001
0010
0000
0100
0000
1000
0000
0000
0001
0010
0000
0010
0000
,
0100
0000
0000
0001
0000
0000
0100
0000
1000
0000
0000
1000
0001
0000
0100
0000
,
0010
0000
0000
0010
0000
0000
1000
0000
0100
0000
1000
0000
0001
0100
0000
0000
,
0110
0000
0000
0010
0100
0000
0001
0000
1000
0000
0000
0010
1000
0000
1000
0000
,
0100
0000
0000
0010
0100
0000
1000
0000
0001
0000
0000
0010
0001
0000
0001
0000
,
0200
0000
1300
0100
0002
0000
0013
0100
,
0001
0000
0100
0000
1000
0000
0000
0000
0010
0000
0100
0000
0001
1000
0001
0000
,
0010
0000
0000
0100
0000
0000
1000
0000
0000
0000
0010
0000
0100
0000
0010
0000
,
1000
0000
0000
0001
0000
0000
0000
0000
0010
0000
0000
1000
0000
0000
0010
0000
,
0011
0000
0000
0001
1000
0000
0010
0000
0100
0000
0000
0100
0010
0000
1000
0000
,
0001
0000
0000
0001
0010
0000
0100
0000
1000
0000
0000
0000
0001
0100
0000
0000
,
0010
0000
0000
0100
0000
0000
0001
0000
0000
0000
0010
0000
0100
0000
0010
0000
,
0001
0000
0000
0000
0000
0000
0000
0000
0000
1000
0000
0000
0000
0000
0000
0000
0000
0000
0000
0000
0000
0000
0000
0000
0100
0000
0000
0000
0000
0000
0000
0000
0001
0000
0000
0000
0000
0000
0000
0000
0101
0000
0000
0000
0000
0000
0000
0000
,
1100
0000
0000
1000
0001
0000
0100
0000
0010
0000
0000
0010
0100
0000
0001
0000
,
1000
0000
0000
1000
0100
0000
0010
0000
0001
0000
1000
0000
0010
0000
0100
0000
,
1000
0000
0000
0100
0000
0000
0001
0000
0000
0000
0001
0000
0010
0000
0100
0000
,
0110
0000
0000
1001
0000
0000
1000
0000
0010
0000
0000
0100
0000
0000
0001
0000
,
1000
0000
0000
1000
0100
0000
0001
0000
0100
0000
0000
0100
0010
0000
0001
0000
,
1000
0000
0000
0010
0000
0000
0100
0000
0000
0000
2000
0000
0000
3200
0000
0000
,
0301
0000
1000
0100
0000
0010
0000
0001
0000
0001
0000
0001
0100
0000
0010
0000
,
1000
0000
0001
0100
0000
0010
0000
0100
0000
0001
0000
0010
0100
0000
1000
0000
,
0001
0000
1000
0010
0000
0100
0000
0001
0000
0001
0000
0001
0010
0000
0100
0000
,
1000
0000
0010
0100
0000
0001
0000
1000
0000
0100
0000
0001
0100
0000
1000
0000
,
1002
0100
0010
1003
,
2000
0100
0010
3001
,
0002
0000
0000
0103
0000
1000
0000
0100
0000
0001
0000
0010
0100
0000
1000
0000
,
0002
0000
0000
1003
0000
0010
0000
0100
0001
0000
1000
0001
1000
0000
0100
0010
,
0002
0000
0000
0013
0000
0100
0000
0010
0000
0001
0000
1000
0010
0000
0100
0000
,
0002
0000
0000
0013
0000
1000
0000
0010
0000
0000
0000
0100
1000
0000
0000
0000
,
2001
0000
0000
3010
0000
0100
0000
0010
0000
1000
0000
0001
0010
0000
0100
0000
,
2000
0000
0000
3100
0000
0001
0000
0100
0000
0000
0000
0010
0001
0000
1000
0000
,
0001
0000
0100
1000
0000
0100
0000
0010
0000
0001
0000
0010
0000
0100
0000
0001
,
1000
0000
0000
0000
;
