#TITLE:Reaching for the Stars;
#SUBTITLE:;
#ARTIST:serena;
#TITLETRANSLIT:;
#SUBTITLETRANSLIT:;
#ARTISTTRANSLIT:;
#GENRE:;
#CREDIT:;
#MUSIC:Reaching for the Stars.ogg;
#BANNER:;
#BACKGROUND:;
#CDTITLE:;
#SAMPLESTART:93.553;
#SAMPLELENGTH:15.319;
#SELECTABLE:YES;
#OFFSET:-0.202;
#BPMS:0.000=188.000;
#STOPS:;
#BGCHANGES:;
#FGCHANGES:;

//--------------- dance-single - about-blank ----------------
#NOTES:
     dance-single:
     about-blank:
     Beginner:
     2:
     0,0,0,0,0:
0000
0000
0000
0000
,
0000
0000
0000
0000
,
0000
0000
0000
0000
,
0000
0000
0000
0000
,
0000
0000
0000
0000
,
0000
0000
0000
0000
,
0000
0000
0000
0000
,
0000
0000
0000
0000
,
0000
0000
0000
0000
,
0000
0000
0000
0000
,
0001
0000
0000
0000
,
0000
0000
0000
0000
,
1000
0000
0000
0000
,
0000
0000
0000
0000
,
0010
0000
0000
0000
,
0000
0000
0000
0000
,
0100
0000
0000
0000
,
0000
0000
0000
0000
,
0001
0000
0000
0000
,
0001
0000
0000
0000
,
1000
0000
0000
0000
,
1000
0000
0000
0000
,
0010
0000
0000
0000
,
0010
0000
0000
0000
,
0100
0000
0000
0000
,
0100
0000
0000
0000
,
1001
0000
0000
0000
,
0000
0000
0000
0000
,
0110
0000
0000
0000
,
0000
0000
0000
0000
,
1001
0000
0000
0000
,
0000
0000
0000
0000
,
0001
0000
0001
0000
,
1000
0000
1000
0000
,
0010
0000
0000
0000
,
0000
0000
0000
0000
,
0100
0000
0000
0000
,
0000
0000
0000
0000
,
0001
0000
0000
0000
,
0000
0000
0000
0000
,
1000
0000
0000
0000
,
1001
0000
0000
0000
,
0002
0000
0000
0003
,
0001
0000
0000
0000
,
0002
0000
0000
0003
,
0001
0000
0000
0000
,
2000
0000
0000
3000
,
1000
0000
0000
0000
,
2000
0000
0000
3000
,
1000
0000
0000
0000
,
0020
0000
0000
0030
,
0010
0000
0000
0000
,
0020
0000
0000
0030
,
0010
0000
0000
0000
,
0200
0000
0000
0300
,
0100
0000
0100
0000
,
0002
0000
0000
0003
,
0001
0000
0001
0000
,
1000
0000
1000
0000
,
1000
0000
0000
0000
,
0001
0000
0001
0000
,
0001
0000
0000
0000
,
1000
0000
1000
0000
,
1000
0000
0000
0000
,
0001
0000
0001
0000
,
0001
0000
0000
0000
,
0010
0000
0010
0000
,
0010
0000
0000
0000
,
0100
0000
0100
0000
,
0100
0000
0000
0000
,
1001
0000
0000
0000
,
0110
0000
0000
0000
,
1001
0000
0000
0000
,
0000
0000
0000
0000
,
1000
0000
0100
0000
,
1000
0000
0000
0000
,
0001
0000
0001
0000
,
0001
0000
0000
0000
,
0001
0000
0100
0000
,
0001
0000
0000
0000
,
1000
0000
1000
0000
,
1000
0000
0000
0000
,
0010
0000
1000
0000
,
0010
0000
0000
0000
,
0100
0000
0100
0000
,
0100
0000
0000
0000
,
0100
0000
0001
0000
,
0100
0000
0000
0000
,
0001
0000
1000
0000
,
1001
0000
0000
0000
;

//--------------- dance-single - about-blank ----------------
#NOTES:
     dance-single:
     about-blank:
     Easy:
     7:
     0,0,0,0,0:
0000
0000
0000
0000
,
0000
0000
0000
0000
,
0000
0000
0000
0000
,
0000
0000
0000
0000
,
0000
0000
0000
0000
,
0000
0000
0000
0000
,
0000
0000
0000
0000
,
0000
0000
0000
0000
,
0000
0000
0000
0000
,
0000
0000
0000
0000
,
0000
0000
0001
0000
,
0000
0000
0001
0000
,
0000
0000
1000
0000
,
0000
0000
1000
0000
,
0000
0000
0010
0000
,
0000
0000
0010
0000
,
0000
0000
0100
0000
,
0000
0000
0100
0000
,
0001
1000
0001
0000
,
0000
0000
0100
0000
,
0001
1000
0001
0000
,
0000
0000
0010
0000
,
0100
1000
0100
0000
,
0000
0000
0010
0000
,
0010
0001
0010
0000
,
0000
0000
0001
1000
,
0010
0000
0000
0010
0000
0000
0010
0000
,
0000
0000
0000
0000
,
0100
0000
0000
0100
0000
0000
0100
0000
,
0000
0000
0000
0000
,
0001
0000
0000
0001
0000
0000
0001
0000
,
0000
0000
0000
0000
,
1000
0000
0000
0100
0000
0100
0000
0010
,
0000
0010
0000
0001
0000
0000
0000
1000
,
0000
0010
0100
0000
,
0001
0010
0100
0000
,
1000
0100
0010
0000
,
0001
1000
0010
0000
,
0100
0001
1000
0000
,
0001
0010
0100
0000
,
1000
0100
1000
0100
,
0010
0001
0010
0001
,
2000
0000
3100
0000
,
0002
0000
0103
0000
,
2000
0000
3010
0000
,
0002
0000
0013
0000
,
1000
0100
0001
0000
,
0001
0100
1000
0000
,
0110
0000
1001
0000
,
0101
0000
1100
0000
,
0001
0100
1000
0000
,
1000
0100
0001
0000
,
0001
0010
1000
0000
,
0001
0100
1000
0100
,
0010
0001
1000
0000
,
0010
1000
0001
0000
,
1000
0100
0010
0001
,
0100
0010
1000
0000
,
0101
0000
1000
0000
,
1000
0000
1000
0000
,
0010
0000
0010
0000
,
0100
0000
0100
0001
,
1000
0000
1000
0000
,
0100
0000
0100
0000
,
0010
0000
0010
0000
,
0010
0001
1000
0001
,
0100
0000
0100
0000
,
0001
0000
0001
0000
,
0010
0000
0010
0000
,
0100
0000
1100
0011
,
1000
0010
0100
1000
,
0100
0001
0010
0100
,
2000
0000
0000
0001
0000
0001
0000
3001
,
0000
0000
0000
0000
,
0001
0000
0000
1000
0000
0010
0000
0110
,
0000
0100
0001
0000
,
1000
0100
0010
0000
,
0010
0100
1000
0000
,
0001
0000
0000
1000
0000
0010
0000
0110
,
0000
0001
0010
0000
,
0100
1000
0001
0000
,
0100
0001
1000
0000
,
0001
0000
0000
0001
0000
0010
0000
0110
,
0000
1000
0100
0000
,
0010
0001
0100
0000
,
0010
1000
0100
0000
,
1100
0000
0000
0001
0000
1000
0000
1001
,
0000
0001
0010
0000
,
0110
0000
0000
1001
0000
0000
2200
0000
,
0000
0000
0000
0000
,
3300
0000
0000
0000
;

//--------------- dance-single - about-blank ----------------
#NOTES:
     dance-single:
     about-blank:
     Medium:
     10:
     0,0,0,0,0:
0000
0000
0000
0000
,
0000
0000
0000
0000
,
0000
0000
0000
0000
,
0000
0000
0000
0000
,
0000
0000
0000
0000
,
0000
0000
0000
0000
,
0000
0000
0000
0000
,
0000
0000
0000
0000
,
0000
0000
0000
0000
,
0000
0000
1000
0010
,
0200
0000
0000
0000
0301
0000
0000
1000
,
0000
0100
0010
0000
,
0002
0000
0000
0000
0013
0000
0000
0100
,
0000
1000
0010
0000
,
0200
0000
0000
0000
1300
0000
0000
0001
,
0000
0010
1000
0000
,
0001
1000
0000
0000
1001
0000
0000
1000
,
0000
0100
0010
0010
,
0002
0000
1003
0010
0000
0000
0010
0100
,
0000
0100
0001
0000
1000
0000
0001
0000
,
2000
0000
3001
0010
0000
0000
0010
0100
,
0000
0100
1000
0000
0001
1000
0001
0000
,
0200
0000
0310
1000
0000
0000
1000
0100
,
0000
0100
0001
0000
0100
0010
0100
0000
,
0020
0000
0031
0100
0000
0000
0100
0010
,
0000
0010
1000
0000
0001
1000
0001
0000
,
0011
0000
0000
0110
0000
0000
2200
0000
,
0000
0000
3300
0000
0001
1000
0001
0000
,
1010
0000
0000
0110
0000
0000
0202
0000
,
0000
0000
0303
0000
1000
0001
1000
0000
,
0001
0000
0000
0101
0000
0000
2020
0000
,
0000
0000
0000
0000
3030
0000
0000
0000
0001
0000
0000
0010
0000
0000
0100
0000
,
1000
0000
0000
0010
0000
0010
0000
0100
,
0000
0100
0000
0001
0000
1000
0000
0002
,
0000
0000
0103
0001
0100
0000
0010
1000
,
0000
0001
0010
0100
,
2000
0000
3100
1000
0100
0000
0010
0001
,
0000
1000
0001
0100
,
0020
0000
1030
0001
0100
0000
0010
1000
,
0000
0001
0010
0100
,
2000
0000
3010
1000
0100
0000
0100
0010
,
0001
1000
0010
0100
,
0002
0000
0000
0010
0000
0000
0013
0000
,
2000
0000
0000
0100
0000
0000
3100
0000
,
0020
0000
0000
0100
0000
0000
0130
0000
,
0002
0000
0000
1000
0000
0000
1003
0000
,
0001
0100
0010
0001
,
1000
0100
0010
1000
,
0001
0000
0000
0010
0000
0000
0100
0000
,
0000
1000
0000
0010
0000
0110
0000
0000
,
0002
0000
2003
0000
,
3010
0100
0010
1000
,
0002
0000
0103
0000
,
2000
0000
0010
3010
,
0001
1000
0001
0000
,
0100
0001
0100
0010
,
1000
0100
0010
0001
,
1000
0000
0001
0000
0100
0010
0100
0010
,
2000
3100
0001
0100
,
1000
0100
0001
0100
,
0010
0001
0100
0001
,
0010
0001
0100
0001
,
1000
0010
0001
0010
,
1000
0010
0001
0010
,
0100
0001
0010
0001
,
0100
0001
0010
0001
,
1000
0100
0010
0100
,
1000
0100
0010
0001
,
0100
0010
0100
0001
,
0010
0100
0010
0010
,
1001
0000
0000
0000
0001
0000
1000
0020
,
0000
0130
1000
0100
,
0001
0000
0000
1001
0000
1001
0000
1001
,
0000
0000
0000
0000
,
0001
0000
0000
1000
0000
0100
0000
0001
,
0000
1000
0010
0000
0001
0000
1000
0000
,
0001
0000
0000
0110
0000
0000
1000
0000
,
0000
0110
0000
0000
0001
0000
1000
0000
,
0001
0000
0010
1000
0000
0001
0000
0100
,
0000
1000
0010
0000
0100
0000
0001
0000
,
1000
0000
0000
0110
0000
0000
0001
0000
,
0000
0101
0000
0000
0010
0000
1000
0000
,
0001
0000
0010
0100
0000
1000
0010
0100
,
0000
0001
1000
0000
0001
0000
0010
0000
,
0100
0000
0000
1001
0000
0000
0001
1000
,
0000
0001
0000
0010
0000
0100
0000
1000
,
0010
0000
0000
0110
0000
0101
0000
1001
,
0000
0000
0001
0000
0100
0010
1000
0000
,
0001
0000
0000
0011
0000
0000
1100
0000
,
1000
0100
0100
0010
0001
1000
0010
0100
,
0001
0000
0000
0000
;

//--------------- dance-single - about-blank ----------------
#NOTES:
     dance-single:
     about-blank:
     Hard:
     13:
     0,0,0,0,0:
0000
0000
0000
0000
,
0000
0000
0000
0000
,
0000
0000
0000
0000
,
0000
0000
0000
0000
,
0000
0000
0000
0000
,
0000
0000
0000
0000
,
0000
0000
0000
0000
,
0000
0000
0000
0000
,
0000
0000
0000
0000
,
0000
0000
0000
0000
1000
0000
0100
0010
,
0002
0000
0100
0000
1003
0000
0000
0001
,
0000
0001
0000
0000
1000
0100
0000
0100
,
0002
0000
1003
0000
0010
0000
0000
0001
,
0000
0001
0000
0000
0100
0001
0100
0010
,
2000
0000
0100
0000
3001
0000
0000
1000
,
0000
1000
0000
0000
0110
0000
0000
0000
,
0001
0100
0001
0000
1001
0000
1000
0010
,
0000
0010
0100
0000
0101
0000
1000
1000
,
0020
0000
1030
0001
0100
0001
0100
1000
,
0000
0100
0001
0000
0100
0001
0100
0010
,
2000
0000
3001
1000
0100
1000
0100
0001
,
0000
0000
1000
0000
0010
0000
0000
0010
0001
0000
1000
0000
0001
0000
0000
0000
,
2000
0000
3010
0100
0001
0100
0010
0001
,
0000
0000
0010
0000
1000
0000
0000
1000
0100
0000
0010
0000
0001
0000
0000
0000
,
0020
0000
0031
1000
0010
1000
0010
0001
,
0000
0000
0010
0000
1000
0000
0000
0000
0001
0000
1000
0100
0010
0000
0001
0000
,
1100
0000
0000
1010
0000
0000
2002
0000
,
3003
0000
0000
0000
0001
0001
1000
0000
,
0011
0000
0000
0101
0000
0000
2002
0000
,
3003
0000
0000
0000
0000
0000
1000
0001
1000
0001
0000
0000
,
1100
0000
0000
0110
0000
0000
0022
0000
,
0033
0000
0000
0000
1000
0100
1000
0100
1000
0000
0000
0001
0000
0000
0100
0000
,
0101
0000
0000
1001
0000
1001
0000
1100
,
0000
0110
0000
0011
0000
1010
0000
0202
,
0303
1000
0001
0000
0100
0001
0100
0000
,
0010
1000
0010
0000
1000
0100
1000
0000
,
0001
0010
0100
0000
0010
0100
1000
0000
,
0001
1000
0100
0000
0010
0001
1000
0000
,
1000
0100
0001
0000
0001
0100
1000
0000
,
0010
0100
0001
0000
0010
0001
1000
0000
,
0010
0100
0010
1000
0010
0100
0001
0000
,
1000
0100
0100
0010
0001
0100
0010
1000
,
0200
0000
0000
0010
0000
0000
0310
0000
,
0002
0000
0000
0100
0000
0000
0103
0000
,
2000
0000
0000
0010
0000
0000
3010
0000
,
0001
1000
0100
0010
0001
0100
0010
0001
,
0020
0000
1030
0001
0200
0000
1300
0100
,
0002
0000
0013
0100
2000
0000
3001
0100
,
0000
0010
1000
0100
0000
0010
0001
1000
,
0000
0010
0000
0110
0000
1001
0000
0000
,
0001
2000
0000
3100
2000
0000
3100
0010
,
0001
0010
0001
0100
0001
1000
0010
0100
,
0001
0000
0010
0001
1000
0000
0010
0100
,
0000
0101
0000
1100
0000
0011
0000
0000
,
0000
1000
0000
0100
0020
0000
0031
0000
,
1000
0100
1000
0010
0100
0001
0010
0001
,
0100
0001
2000
3000
0010
1000
0002
0003
,
0100
0001
2000
3000
0001
0010
0100
1000
,
0002
0000
0103
0010
0100
0000
0001
0010
,
0000
0010
0000
0100
0000
0100
0000
2000
,
0000
0000
3001
0000
1000
0000
1000
0100
,
0000
0100
0000
0010
0000
0010
0000
0002
,
0000
0000
0103
0010
0100
0000
0001
0100
,
0000
0100
0000
0010
0000
0010
0000
2000
,
0000
0000
3010
0000
0010
0000
1000
0001
,
0000
0001
0000
0010
0000
0010
0000
0000
,
0110
0000
0100
1000
0100
0000
1000
0001
,
0000
0001
0000
0100
0000
0100
0000
0020
,
0000
1030
0010
0100
,
0001
0000
0001
0000
1000
0000
0001
0000
0010
0000
0000
0010
0001
0000
1000
0000
,
0020
0000
1030
0001
0100
0000
0010
0110
,
0000
1100
0000
0011
0000
0001
1000
0001
,
0100
0002
0000
0010
0000
0100
0000
1003
,
0000
0000
0000
0000
,
0001
0100
1000
0001
0010
1000
0100
0001
,
0000
0000
0100
0000
0010
0000
0000
0010
0001
0000
1000
0000
0001
0000
0000
0000
,
0100
1000
0100
0001
0000
0010
1000
0010
,
0001
2000
3000
0020
0030
0200
0300
0002
,
1003
0100
0001
1000
0010
0001
0100
1000
,
0000
0000
0100
0000
0010
0000
0000
0010
1000
0000
0100
0000
1000
0000
0000
0000
,
0001
0010
1000
0010
0000
0001
0100
1000
,
0100
0002
0003
0020
0030
0200
0300
2000
,
3001
0100
0010
0001
1000
0100
0010
1000
,
0000
0000
0001
0000
0010
0000
0000
0100
1000
0000
0100
0000
0010
0000
0001
0000
,
0100
0001
1000
0010
0000
0010
1000
0001
,
0100
0002
0003
2000
3000
0200
0300
0020
,
0031
0000
1000
1100
0000
0110
0000
0011
,
0000
0000
1000
0000
0001
0000
0000
1000
0100
0000
1000
0000
0001
0000
0000
0000
,
0101
1000
0000
0110
0000
0001
0000
2002
,
0000
0000
0000
3003
;
