#TITLE:Ramiel;
#SUBTITLE:;
#ARTIST:青龍;
#TITLETRANSLIT:;
#SUBTITLETRANSLIT:;
#ARTISTTRANSLIT:;
#GENRE:;
#CREDIT:;
#MUSIC:Ramiel.ogg;
#BANNER:;
#BACKGROUND:;
#CDTITLE:;
#SAMPLESTART:71.400;
#SAMPLELENGTH:15.000;
#SELECTABLE:YES;
#OFFSET:-12.684;
#BPMS:0.000=188.000;
#STOPS:;
#BGCHANGES:;
#FGCHANGES:;

//--------------- dance-single - forcednature ~FINAL ROUND MODE~ ----------------
#NOTES:
     dance-single:
     forcednature ~FINAL ROUND MODE~:
     Beginner:
     8:
     0,0,0,0,0:
2000
0000
0100
0000
,
0100
0000
3100
0000
,
0002
0000
0100
0000
,
0100
0000
0103
0000
,
1002
0000
0013
0000
,
2001
0000
3010
0000
,
1001
1000
1001
0001
,
0200
0000
0310
0000
,
0100
0100
0100
0000
,
0001
0000
1000
0000
,
0100
0100
0100
0000
,
1000
0000
0001
0000
,
0010
0010
0010
0000
,
0001
0000
1000
0000
,
0010
0010
0010
0000
,
1000
0000
0001
0000
,
1000
1000
1000
0000
,
0001
0001
0001
0000
,
0100
0100
0100
0100
,
0100
0100
0100
0000
,
0010
0010
0010
0000
,
1000
1000
1000
0000
,
0001
0001
1000
1000
,
0100
0010
0100
0000
,
2002
0000
0000
0000
,
0000
0000
0000
0000
,
0000
0000
0000
0000
,
0000
0000
0000
0000
,
3003
0000
0000
0000
,
0000
0000
0000
0000
,
0000
0000
0000
0000
,
1001
0000
0001
0000
,
0100
0010
0100
0000
,
1001
0000
1000
0000
,
0100
0010
0100
0000
,
0110
0000
0001
0000
,
1000
0001
1000
0000
,
0110
0000
1000
0000
,
0001
1000
0001
0000
,
0110
0000
1000
1000
,
1000
0000
0001
0001
,
0001
0000
1000
0000
,
0010
0010
0100
0100
,
0001
1000
0100
0010
,
0002
0000
0000
0000
,
0000
0000
0000
0003
,
1000
0001
0100
0010
,
1000
0001
0010
0000
,
0100
1000
0010
0100
,
0010
1000
0001
0010
,
0100
1000
0001
0100
,
0010
1000
0001
0000
,
0010
0100
1000
0100
,
0010
0001
0100
0100
,
0110
0000
0001
0000
,
1000
0010
1000
0000
,
0110
0000
1000
0000
,
0001
0010
0001
0000
,
0110
0000
0001
0000
,
1000
0100
1000
0000
,
0110
0000
1000
0000
,
0001
0100
0001
0000
,
1001
0000
1000
0000
,
1000
0000
1000
0001
,
0100
0000
0100
0000
,
0100
0000
0100
0010
,
1000
0000
1000
0000
,
1000
0000
1000
0100
,
0010
0000
0010
0000
,
0001
1000
0010
0100
,
0001
0000
0001
0001
,
0001
0000
1000
1000
,
1000
0000
0001
0000
,
0100
0010
0100
0000
,
0001
0000
1000
1000
,
1000
0000
0001
0001
,
0001
1000
0001
1000
,
0200
0000
0310
0000
,
0001
0100
0010
1000
,
0010
0100
0001
0000
,
1000
0100
0010
0001
,
0010
0100
1000
0000
,
0010
0100
0001
1000
,
0010
0100
0001
0000
,
0010
0100
1000
0001
,
0010
0100
1000
0000
,
0010
0100
0001
0001
,
0010
0100
1000
1000
,
0010
0100
0001
1000
,
0100
0010
0001
1000
,
0010
0100
0001
1000
,
0200
0000
0000
0000
,
0000
0000
0000
0300
,
0110
1000
0001
0100
,
0010
1000
0001
0000
,
1001
0001
0100
0010
,
1000
0100
0010
0001
,
0110
1000
0001
0100
,
0010
1000
0001
0000
,
1001
1000
0010
0100
,
0001
0010
0100
1000
,
0010
0010
0100
0100
,
0010
0100
0001
0000
,
0010
0010
0100
0100
,
0010
0100
1000
0000
,
0010
0010
0100
0100
,
0010
0100
0001
0000
,
0010
0010
0100
0100
,
1000
0001
0100
0010
,
2002
0000
0000
0000
,
0000
0000
0000
0000
,
3003
0000
0000
0000
;

//--------------- dance-single - forcednature ~FINAL ROUND MODE~ ----------------
#NOTES:
     dance-single:
     forcednature ~FINAL ROUND MODE~:
     Easy:
     12:
     0,0,0,0,0:
0002
0100
0100
0100
,
0203
0010
0010
0000
,
0320
1000
1000
1000
,
2030
0001
0001
0001
,
3002
0010
1000
0100
,
2003
0010
0001
3100
,
1100
1001
0101
1001
,
0100
0010
0100
0000
0020
0000
0130
0000
,
1001
0010
1001
0010
,
0001
0010
0100
0000
1000
0001
0100
0000
,
1010
0001
1010
0001
,
1000
0010
0100
0000
0001
0010
0100
0000
,
0110
0001
0110
0001
,
1000
0001
0100
0000
0001
1000
0010
0000
,
1100
0010
1100
0010
,
1000
0100
0010
0000
0001
0100
0010
0000
,
1000
0010
1000
0000
1000
0100
0010
0000
,
0001
0010
0001
0000
0001
0100
0010
0000
,
1000
0100
1000
0000
0001
0100
0001
0000
,
0010
0100
1000
0000
0020
0000
0130
0000
,
0001
0010
0001
0000
0001
0100
0010
0000
,
1000
0100
1000
0000
1000
0010
0100
0000
,
0011
0000
0000
1000
0000
0000
0100
0000
1010
0000
0000
0001
0000
0000
0100
0000
,
0001
0001
1000
1000
0010
0100
0010
0000
,
2002
0000
0000
0000
,
0000
0000
0000
0000
,
0000
0000
0000
0000
,
0000
0000
0000
0000
,
3003
0000
0000
0000
,
0000
0000
0000
0000
,
0000
0000
0000
0000
,
0110
0001
1000
0010
,
0100
0001
0100
0010
2000
0000
3000
0000
,
1100
0001
0010
0100
,
1000
0001
1000
0010
0200
0000
0301
1000
,
0001
0011
0011
0011
,
0001
0100
0010
1000
0002
0000
0003
0000
,
1000
1010
1010
1010
,
1000
0001
0100
0010
1000
0001
2000
0000
,
3001
0010
0100
1000
0010
0010
0010
0000
,
1000
0010
0100
0001
0010
0010
0010
0000
,
0100
0100
0100
0000
1000
1000
1000
0000
,
0001
0001
0001
0000
0100
0100
0100
0000
,
0010
1000
0001
0010
,
1001
0000
0000
0110
0000
0000
2002
0000
,
0000
0000
0000
3003
,
0110
0000
0001
0100
0010
1000
0100
0000
,
0010
0100
1000
0001
0200
0000
0300
0000
,
0110
0000
0010
1000
0001
0010
0100
0000
,
0010
0001
1000
0001
0200
0000
0310
1000
,
0001
0000
1000
0100
0010
0100
1000
0000
,
0010
0100
0001
0010
0200
0000
0300
0000
,
0110
0000
0010
0001
1000
0001
0200
0000
,
0310
1000
0001
0100
0010
0010
0010
0000
,
1000
0100
1000
0000
0001
0100
0001
0000
,
1000
0100
0010
0001
0200
0000
0300
0000
,
0001
0010
0001
0000
1000
0010
1000
0000
,
0001
0010
0100
1000
0020
0000
0130
0001
,
0100
0010
0100
0000
0001
1000
0001
0000
,
0010
0100
1000
0010
0200
0000
0300
0000
,
0001
1000
0001
0000
0010
0100
0010
0000
,
0100
1000
0010
1000
0100
0010
0001
0000
,
0101
0100
0010
0010
,
1000
0000
1000
0000
0001
0000
0001
0010
,
0100
0100
1000
1000
,
0010
0010
0100
0100
,
0110
0010
1000
1000
,
0001
0000
0001
0000
0010
0000
0010
0100
,
1000
1000
0010
0010
,
0100
0001
0100
0000
0020
0000
1030
0000
,
0002
0010
0010
0010
,
1000
1000
1000
1000
,
0100
0100
1000
1000
,
0013
0001
0010
0000
0200
0000
1300
0000
,
2000
0010
0010
0010
,
0001
0001
0001
0001
,
0100
0100
0001
0001
,
3010
1000
0010
0000
0200
0000
0301
0000
,
1001
0110
0110
1001
,
1000
0001
0100
0010
2000
0000
3000
0000
,
1001
0110
0110
1001
,
0001
1000
0100
0010
0002
0000
0103
0010
,
0110
1001
1001
0110
,
1000
0001
0100
0010
2000
0000
3000
0000
,
0110
1001
1001
0110
,
0001
1000
0100
0010
0001
0100
0001
0000
,
1000
0100
0010
0001
1000
1000
1000
0000
,
0001
0100
0010
1000
0001
0001
0001
0000
,
0010
0010
0010
0000
0100
0100
0100
0000
,
1000
1000
1000
0000
0001
0001
0001
0000
,
0100
0010
1000
0001
,
1001
0000
0000
0110
0000
0000
2002
0000
,
0000
0000
0000
3003
,
0110
0000
0001
0100
1000
0100
0010
1000
,
0001
0010
0100
1000
0020
0000
0030
0000
,
0110
0000
1000
0100
0001
0100
0010
0001
,
1000
0001
0100
0010
2000
0000
3001
0010
,
0100
0000
1000
0001
0100
0010
1000
0001
,
0010
1000
0010
0001
0200
0000
0300
0000
,
0110
0000
0010
0001
0010
1000
0001
0100
,
0010
1000
0001
0010
0100
1000
0010
0000
,
0110
0100
0001
0001
,
0010
0100
1000
0010
0200
0000
0300
0000
,
1001
1000
0010
0010
,
0100
0001
0010
0100
2000
0000
3010
0100
,
0010
0010
1000
1000
,
0001
0010
0100
1000
0002
0000
0003
0000
,
0110
0100
1001
0001
,
0010
0100
1000
0001
0100
0010
0100
0000
,
2002
0000
0000
0000
,
0000
0000
0000
0000
,
3003
0000
0000
0000
;

//--------------- dance-single - forcednature ~FINAL ROUND MODE~ ----------------
#NOTES:
     dance-single:
     forcednature ~FINAL ROUND MODE~:
     Medium:
     15:
     0,0,0,0,0:
2100
0100
0001
0010
,
0100
0100
0001
3010
,
0102
0100
1000
0010
,
0100
0100
1000
0013
,
2100
0100
0001
3010
,
0102
0100
1000
0013
,
1100
0011
0101
1010
,
1000
0001
2000
0000
3100
0010
0001
0000
,
0101
1010
0101
1010
,
0001
0010
0100
1000
0001
0100
0010
0000
,
1100
0011
1100
0011
,
1000
0010
0100
0001
1000
0100
0010
0000
,
0110
1001
0110
1001
,
0001
0100
1000
0100
0010
1000
0001
0000
,
0011
1100
1010
0101
,
0001
0010
0002
0000
0103
0010
1000
0000
,
0100
1000
0010
1000
0100
0001
0100
1000
,
0100
1000
0010
1000
0100
0001
0100
1000
,
0001
0100
0010
0100
1000
0100
0010
0100
,
0001
1000
0002
0000
0013
0100
1000
0000
,
0001
0010
0001
0100
1000
0100
0001
0100
,
0001
0010
0001
0100
1000
0100
0001
0100
,
0110
0000
0000
1000
0000
0000
0001
0000
0110
0000
0000
0001
0000
0000
1000
0000
,
0001
0010
0001
0000
0100
0000
0010
0000
1000
0000
0001
0000
0010
0000
0000
0000
,
2002
0000
0000
0000
,
0000
0000
0000
0000
,
0000
0000
0000
0000
,
0000
0000
0000
0000
,
3003
0000
0000
0000
,
0000
0000
0000
0000
,
0000
0000
0000
0000
,
0101
0000
0001
1000
0100
1000
0010
1000
,
0100
0010
0001
0100
0020
0000
0030
0000
,
1100
0000
1000
0001
0100
0001
0010
0001
,
0100
0010
1000
0001
0020
0000
0130
1000
,
0010
1010
1001
1100
,
1000
0100
0001
0100
0020
0000
0030
0000
,
0011
1001
0101
1001
,
0001
0100
1000
0100
0010
1000
0001
0000
,
1000
0000
0100
0000
0010
0000
0001
0000
1000
0100
1000
0100
1000
0000
0000
0000
,
0001
0000
0100
0000
0010
0000
1000
0000
0001
0100
0001
0100
0001
0000
0000
0000
,
1000
0100
1000
0010
0100
0001
0010
0001
,
0100
1000
0100
0001
0010
1000
0010
0001
,
0100
0101
1100
0110
,
1001
0000
0000
0110
0000
0000
2002
0000
,
0000
0000
0000
3003
,
1100
0000
0001
0100
1000
0100
0010
1000
,
0001
0010
0001
0000
0100
0000
0010
0000
2000
0000
0000
0000
3000
0000
0000
0000
,
0101
0000
1000
0100
0001
0100
0010
0001
,
1000
0010
1000
0000
0001
0000
0010
0100
0010
0100
0010
0000
0001
0000
1000
0000
,
0000
1000
1001
0001
0010
0100
1000
0001
,
0100
0010
0100
0000
0001
0000
0010
0000
0200
0000
0000
0000
0300
0000
0000
0000
,
1100
0000
1000
0001
0100
0010
1000
0100
,
1000
0010
1000
0000
0001
0010
0001
0000
0100
0010
0100
0010
1000
0000
0000
0000
,
0100
0001
0100
0010
0100
1000
0100
0001
,
0100
0010
0001
1000
0020
0000
0030
0000
,
0100
1000
0100
0010
0100
0001
0100
1000
,
0100
0010
1000
0001
0010
0100
1000
0000
,
0110
0000
0001
0100
1000
0100
0010
0100
,
0001
0010
0100
1000
0020
0000
0030
0000
,
1001
0000
1000
0010
1000
0001
0010
0001
,
1000
0100
1000
0000
0001
0100
0001
0000
0010
0000
0010
0000
0010
0000
0000
0000
,
1001
0000
1000
0100
1000
0000
0001
0000
,
0100
0000
0010
1000
0001
0000
0010
0100
,
1000
0000
0010
0100
0001
0000
0010
0000
,
0100
0000
0010
0001
1000
0000
0010
0100
,
0110
0000
0001
1000
0001
0000
0100
0000
,
0010
0000
1000
0100
0010
0000
0100
1000
,
0010
0000
0100
0001
0010
0000
0100
0000
,
1000
0001
2000
0000
3010
0100
0001
0000
,
0011
0000
0010
0000
1000
0001
0100
0010
,
1000
0000
1000
0000
0001
1000
0010
0100
,
0001
0010
0100
1000
,
0010
0100
0020
0000
1030
0001
0010
0000
,
0110
0000
0100
0000
1000
0001
0100
0010
,
1000
0000
0001
0000
0010
0100
1000
0001
,
0100
0010
0100
0010
0100
0010
0100
0010
,
1000
0001
2000
0000
3100
0010
0001
0000
,
0101
0101
1010
1010
,
0101
1010
0101
0000
,
1100
1100
0011
0011
,
1100
0000
0011
0000
1100
0000
0010
0100
,
1001
1001
0110
0110
,
1001
0110
1001
0000
,
0110
0110
1001
1001
,
1000
0001
0100
0010
1000
1000
0001
0000
,
1000
0000
0100
0000
0010
0000
0001
0000
1000
0100
1000
0100
0010
0000
0000
0000
,
0001
0000
0100
0000
0010
0000
1000
0000
0001
0100
0001
0100
0010
0000
0000
0000
,
1000
0100
1000
0100
0010
0000
0000
0000
0001
0100
0001
0100
0010
0000
0000
0000
,
1000
0010
1000
0010
0100
0000
0000
0000
0001
0010
0001
0010
0100
0000
0000
0000
,
1000
0001
0100
0010
,
1001
0000
0000
0110
0000
0000
2002
0000
,
0000
0000
0000
3003
,
1100
0000
0000
0000
0001
0010
0001
0000
0100
0000
0010
0000
1000
0000
0001
0000
,
0010
0100
0010
0000
0001
0000
1000
0000
0020
0000
0100
0000
0130
0000
0000
0000
,
0101
0000
0000
0000
1000
0010
1000
0000
0001
0000
0010
0000
1000
0000
0010
0000
,
0100
1000
0100
1000
0100
0000
0010
0000
0001
1000
0001
1000
0010
0000
0100
0000
,
0101
0000
0000
0000
1000
0010
1000
0000
0001
0000
0010
0000
0100
0000
1000
0000
,
0010
0100
0010
0100
0010
0000
1000
0000
0002
0000
0010
0000
0013
0000
0000
0000
,
0110
0000
0000
0000
0100
1000
0100
0000
0010
0000
0001
0000
0100
0000
0010
0000
,
1000
0100
1000
0000
0001
0100
0001
0000
1000
0100
0010
0001
0100
0000
0000
0000
,
0010
1000
0010
0100
0001
0010
0001
0100
,
0010
1000
0100
0010
0001
0100
0100
0000
,
0001
0010
0100
1000
0010
0100
0010
1000
,
0001
0000
1000
0000
0100
0010
0100
0000
1000
0000
0001
0000
0001
0000
0100
0000
,
0000
0010
1000
0010
0100
0001
0100
0010
,
1000
0100
0001
0100
0010
0001
0001
0000
,
1001
0000
0001
0100
1000
0100
0010
0000
,
1000
0001
1000
0000
0001
1000
0001
0000
1000
0010
0100
0001
0010
0000
0000
0000
,
2002
0000
0000
0000
,
0000
0000
0000
0000
,
3003
0000
0000
0000
;

//--------------- dance-single - forcednature ~FINAL ROUND MODE~ ----------------
#NOTES:
     dance-single:
     forcednature ~FINAL ROUND MODE~:
     Hard:
     18:
     0,0,0,0,0:
2000
0100
0000
0100
0000
0001
0000
0001
,
0000
0010
0000
0010
0000
3001
0000
1000
,
0002
0100
0000
0100
0000
1000
0000
1000
,
0000
0010
0000
0010
0000
1003
0000
0001
,
2001
0100
0000
0100
0000
0001
0000
3010
,
1002
0100
0000
0100
0000
1000
0000
0013
,
0101
1010
1100
0011
,
0001
1000
0001
0000
0200
0000
0000
0000
0310
0000
0010
0000
1000
0000
0000
0000
,
1100
1000
0001
0100
0001
0001
1000
0100
,
0010
0001
0010
0000
0200
0000
0000
0000
1300
0000
1000
0000
0001
0000
0000
0000
,
0100
0100
0001
1000
0100
0100
1000
0001
,
0100
0010
0100
0000
0002
0000
0000
0000
0013
0000
0010
0000
0100
0000
0000
0000
,
1010
0010
0100
0001
0010
0010
0100
1000
,
0001
0100
0001
0000
0020
0000
0000
0000
0130
0000
0100
0000
1000
0000
0000
0000
,
0001
0001
1000
0100
1000
1000
0001
0100
,
0010
1000
0010
0000
0200
0000
0000
0000
0301
0000
0001
0000
0010
0000
0000
0000
,
0100
1000
0100
0000
0010
0001
0010
0000
0100
0000
0100
0000
1000
0000
0010
0000
,
0100
0001
0100
0000
0010
1000
0010
0000
0100
0000
0100
0000
0001
0000
0010
0000
,
0100
1000
0100
0000
0010
0001
0010
0000
0001
0100
0001
0000
1000
0010
1000
0000
,
0001
0010
0001
0000
0200
0000
0000
0000
0310
0000
0010
0000
1000
0000
0000
0000
,
0001
0010
0001
0000
1000
0100
1000
0000
0010
1000
0001
0000
0100
0001
1000
0000
,
0010
1000
0010
0000
0100
0001
0100
0000
0001
0010
0100
0000
1000
0010
0100
0000
,
0101
0000
0000
1001
0000
0000
0011
0000
1100
0000
0000
1001
0000
0000
1010
0000
,
0001
1000
0001
0000
0100
0000
0101
0000
0010
0000
1010
0000
0001
1000
0001
0000
,
0220
0000
0000
0000
,
0000
0000
0000
0000
,
0000
0000
0000
0000
,
0000
0000
0000
0000
,
0330
0000
0000
0000
,
0000
0000
0000
0000
,
0000
0000
0000
0000
,
1002
0000
0000
0000
0103
0001
1000
0010
0100
0000
0001
0000
0010
0000
0001
0000
,
0100
0010
1000
0100
0010
0000
0001
0000
2000
0000
0000
0000
3010
0000
0000
0000
,
2001
0000
0000
0000
3100
1000
0001
0010
0100
0000
1000
0000
0010
0000
1000
0000
,
0100
0010
0001
0100
0010
0000
1000
0000
0002
0000
0000
0000
0013
0000
0100
0000
,
1200
0000
0000
0000
0310
0001
0100
0001
1000
0000
0010
0000
0100
0000
0010
0000
,
1000
0100
0010
0001
0100
0000
0010
0000
2000
0000
0000
0000
3001
0000
0000
0000
,
0201
0000
0000
0000
0310
1000
0100
1000
0001
0000
0010
0000
0100
0000
0010
0000
,
0001
0000
0100
0000
1000
0000
0100
0000
0001
0010
0100
1000
0010
0000
0000
0000
,
1010
0000
1000
0000
0001
0000
1000
0000
0100
0010
0001
1000
0100
0000
0000
0000
,
0011
0000
0001
0000
1000
0000
0001
0000
0100
0010
1000
0001
0100
0000
0000
0000
,
0010
1000
0010
1000
0001
1000
0100
0000
0010
0001
0010
0001
1000
0001
0100
0000
,
0010
1000
0010
1000
0001
0010
0001
0010
0100
1000
0001
0100
0010
1000
0001
0010
,
0200
1000
0010
0001
,
0310
0000
0000
0110
0000
0000
2002
0000
,
0000
0000
0000
3003
,
1100
0000
0000
0000
1000
0001
0010
0001
0100
0000
0010
0000
0001
0000
0010
0000
,
1000
0100
0010
0001
1000
0000
0001
0000
0010
0000
0110
0000
1001
0000
0000
0000
,
0101
0000
0000
0000
0001
1000
0010
1000
0100
0000
0001
0000
0100
0000
1000
0000
,
0010
1000
0100
0010
0001
0100
0001
0100
0010
0100
1000
0100
0010
0000
1000
0000
,
0001
0000
0000
0000
1000
0010
0100
0010
1000
0000
0100
0000
0001
0000
0100
0000
,
0010
0001
1000
0001
0100
0010
1000
0001
0010
0000
0110
0000
1001
0000
0000
0000
,
1100
0000
0000
0000
0001
0100
0010
1000
0100
0000
0100
0000
0010
0000
0010
0000
,
0001
0100
0001
0100
0010
1000
0010
1000
0001
0010
0100
1000
0010
0000
0000
0000
,
0110
0000
0001
0100
0001
0000
1000
0000
0010
0000
1000
0100
1000
0000
0010
0000
,
0100
0001
0100
0000
1000
0000
0100
0000
0010
0000
0110
0000
1001
0000
0000
0000
,
0110
0000
1000
0100
1000
0000
0001
0000
0010
0000
0001
0100
0001
0000
0010
0000
,
0100
1000
0100
1000
0001
0100
0010
1000
0001
0000
0001
0010
0100
0000
0100
0000
,
0000
0000
0110
0000
1000
0010
0100
0001
1000
0000
0001
0000
0010
0100
0010
0000
,
0001
0100
0010
1000
0001
0000
0010
0000
0100
0000
0110
0000
1001
0000
0000
0000
,
1100
0000
0001
0100
0010
1000
0001
0000
0101
0000
1000
0100
0010
0001
1000
0000
,
0001
0100
0001
0100
0010
1000
0010
0000
0100
0001
0010
0100
1000
0000
0000
0000
,
1001
0000
1000
0100
0001
0100
0010
0100
,
1000
0100
0001
0100
0010
0001
1000
1000
,
0001
0000
0001
0100
1000
0100
0010
0100
,
0001
0100
1000
0100
0010
1000
0001
0001
,
1001
0000
1000
0010
0001
0010
0100
0010
,
1000
0010
0001
0010
0100
0001
1000
1000
,
0001
0000
0001
0010
0100
0010
1000
0010
,
0001
1000
0001
0000
0200
0000
0000
0000
0310
0000
0010
0000
1000
0000
0000
0000
,
0001
0010
0001
0010
0100
0100
1000
1000
,
0001
0100
0001
0100
0010
0010
1000
1000
,
0001
0010
0100
1000
0001
0100
0010
1000
,
0100
0010
0100
0000
2000
0000
0000
0000
3010
0000
0010
0000
0100
0000
0000
0000
,
2001
0001
0000
0001
0000
0010
0000
0010
,
0000
0100
0000
0100
0000
0100
0000
0100
,
3002
0010
0000
0010
0000
1000
0000
1003
,
0001
0100
0001
0000
0020
0000
0000
0000
0130
0000
1000
0000
1000
0000
0000
0000
,
0101
0000
0000
0000
0001
0010
0100
1000
0010
0000
0100
0000
0001
0000
0100
0000
,
0010
1000
0001
1000
0100
0000
0010
0000
0001
0000
0000
0000
0101
0000
0000
0000
,
1100
0000
0000
0000
1000
0010
0100
0001
0010
0000
0100
0000
1000
0000
0100
0000
,
0010
0001
1000
0001
0100
0000
0010
0000
2000
0000
0000
0000
3100
0000
0010
0000
,
0011
0000
0000
0000
0001
0100
0010
1000
0100
0000
0010
0000
0001
0000
0010
0000
,
0100
1000
0001
1000
0010
0000
0100
0000
0001
0000
0000
0000
0011
0000
0000
0000
,
1010
0000
0000
0000
1000
0100
0010
0001
0100
0000
0010
0000
1000
0000
0010
0000
,
0100
0000
1000
0000
0100
0001
0100
0000
0010
1000
0100
0010
0001
0000
0000
0000
,
1100
0000
1000
0000
0001
0000
0001
0000
0100
1000
0100
0001
0100
0000
0000
0000
,
0101
0000
0001
0000
1000
0000
1000
0000
0100
0001
0100
1000
0100
0000
0000
0000
,
0010
0001
1000
0100
0010
0001
1000
0000
0010
1000
0001
0100
0010
1000
0001
0000
,
1000
0100
0010
0001
0100
0010
1000
0100
0010
0001
0100
0010
1000
0100
0010
0001
,
0100
0101
1100
0110
,
1001
0000
0000
0110
0000
0000
2002
0000
,
0000
0000
0000
3003
,
1100
0000
0000
0000
0001
0100
0010
0100
1000
0000
0100
0000
0010
0000
1000
0000
,
0001
0010
0100
1000
0001
0100
0010
1000
0001
0000
0110
0000
1001
0000
0000
0000
,
0101
0000
0000
0000
1000
0100
0010
0100
0001
0000
0100
0000
0010
0000
0001
0000
,
1000
0010
0100
0001
1000
0100
0010
0001
1000
0100
0010
0100
0001
0000
0100
0010
,
0001
0000
0000
0000
1000
0010
0100
0010
0001
0000
0010
0000
0100
0000
0001
0000
,
0010
0100
1000
0001
0100
0010
1000
0001
0010
0000
0100
1000
0001
0000
0000
0000
,
0011
0000
0000
0000
0001
0010
0100
0010
1000
0000
0010
0000
0100
0000
1000
0000
,
0001
0100
0010
1000
0100
0010
0001
0010
1000
0010
0001
1000
0001
0000
0000
0000
,
0110
0000
0001
0100
0001
0000
0010
0000
1000
0000
0010
0001
0010
0000
0100
0000
,
1000
0001
1000
0010
0100
0000
0001
0000
0010
0000
0110
0000
1001
0000
0000
0000
,
0110
0000
1000
0100
1000
0000
0010
0000
0001
0000
0010
1000
0010
0000
0100
0000
,
0001
0010
0100
0000
1000
0010
0100
0001
0010
0100
1000
0100
0010
0000
0001
0000
,
0000
0000
0100
0010
1000
0000
0001
0000
1000
0000
0100
0010
0100
0000
1000
0000
,
0001
0100
0010
1000
0001
0000
0010
0000
0100
0000
0110
0000
1001
0000
0000
0000
,
1100
0000
0001
0010
0100
1000
0100
0010
0001
0000
1000
0010
0100
0001
0100
0010
,
1000
0100
1000
0001
0100
0010
1000
0000
0001
0100
1000
0100
0010
0000
0100
0000
,
2002
0000
0000
0000
,
0000
0000
0000
0000
,
3003
0000
0000
0000
;
