#TITLE:落書き;
#SUBTITLE:;
#ARTIST:NM;
#TITLETRANSLIT:;
#SUBTITLETRANSLIT:;
#ARTISTTRANSLIT:;
#GENRE:;
#CREDIT:;
#MUSIC:rakugaki.mp3;
#BANNER:rakugaki.png;
#BACKGROUND:;
#CDTITLE:;
#SAMPLESTART:55.954;
#SAMPLELENGTH:19.726;
#SELECTABLE:YES;
#OFFSET:3.224;
#BPMS:0.000=73.000;
#STOPS:;
#BGCHANGES:;
#FGCHANGES:;

//--------------- dance-single - about-blank ----------------
#NOTES:
     dance-single:
     about-blank:
     Beginner:
     1:
     0,0,0,0,0:
0000
0000
0000
0000
,
0000
0000
0000
0000
,
0000
0000
0000
0000
,
0000
0000
0000
0000
,
0000
0000
0000
0000
,
1000
1000
1000
0000
,
0001
0001
0001
0000
,
0010
0000
0000
0000
,
0100
0000
0000
0000
,
1001
0000
1000
0000
,
1001
0000
0001
0000
,
0100
0100
0100
0000
,
0010
0010
0010
0000
,
0110
0000
1000
0000
,
0110
0000
0001
0000
,
0001
0100
1000
0000
,
1000
0010
0001
0000
,
0000
0000
0000
0000
,
0110
0001
0100
1000
,
0010
0010
0000
0001
,
0110
1000
0100
0001
,
0010
0010
0000
0110
,
1001
0000
0100
0000
,
1001
0000
0010
0000
,
1000
1000
1000
0000
,
0001
0001
0001
0000
,
0100
0001
0010
1000
,
0100
0000
1000
0010
,
0001
0000
1000
0100
,
0001
0000
1000
0000
,
1001
0000
0110
0000
,
0001
0010
0100
1000
0001
0010
0100
1000
,
0001
0000
0110
0000
,
1000
0100
0001
0010
1000
0100
0001
0000
;

//--------------- dance-single - about-blank ----------------
#NOTES:
     dance-single:
     about-blank:
     Easy:
     3:
     0,0,0,0,0:
0000
0000
0000
0000
,
0000
0000
0000
0000
,
0000
0000
0000
0000
,
0000
0000
0000
0000
,
0000
0000
0000
0000
,
1001
0000
0100
0000
,
1001
0000
0010
0000
,
1000
0100
0000
0100
,
0010
0000
0001
0000
,
0001
0100
0000
0001
,
0011
1010
0101
0000
,
1000
0001
1000
0000
,
1010
0011
1100
0000
,
1000
0100
0010
0000
,
0001
0010
0100
0000
,
1000
0100
0001
0000
,
0001
0010
1000
0000
,
0000
0000
0000
0000
,
0110
0000
1001
0000
0001
0100
1000
0100
,
0001
0001
0000
0000
,
0110
0000
1001
0000
1000
0100
0001
0100
,
1000
1000
0000
0010
,
1010
0000
0101
0000
,
0011
0000
1100
0000
,
0001
1000
0100
0010
,
0001
0000
0100
0010
,
1001
1010
0101
0011
,
0110
0000
1100
0110
,
0011
0000
1010
0110
,
0101
0000
1000
0001
,
0101
0000
1010
0000
,
1100
0000
0110
0000
0011
0110
1100
0110
,
0022
0000
0000
0033
2200
0000
0000
3300
,
1000
0100
0001
0010
1000
0100
0001
0000
;

//--------------- dance-single - about-blank ----------------
#NOTES:
     dance-single:
     about-blank:
     Medium:
     5:
     0,0,0,0,0:
0000
0000
0000
0000
,
0000
0000
0000
0000
,
0000
0000
0000
0000
,
0000
0000
0000
0000
,
0000
0000
0000
0000
,
0001
0000
0011
0000
1100
0000
0000
0001
,
1000
1010
0101
0000
,
0001
0010
0100
1000
0000
0001
0100
0010
,
1000
0000
0000
0100
0100
0000
0000
0000
,
1000
0001
0100
0010
0000
1000
0100
0010
,
0001
1000
0001
0101
0000
0000
0100
0010
,
1000
0000
0011
0000
1100
0000
0100
0010
,
0001
0000
0010
0100
0000
0000
0000
0000
0000
0000
0000
0000
0000
0000
0000
0000
,
1000
0000
0000
0000
0001
0000
1000
0100
0000
0000
0010
0000
0000
0000
0000
0000
,
0001
0000
0000
0000
1000
0000
0001
0100
0000
0000
0010
0000
0000
0000
0000
0000
,
1000
0010
1000
0001
0000
0001
0010
0001
,
1000
0000
0000
0010
0110
0000
0000
0000
,
0000
0000
0000
1000
,
0001
0000
0000
0100
0000
0000
0010
0000
1000
0000
0100
0000
0001
0000
0010
0000
,
1000
0000
0000
1001
0000
0000
0000
0000
0000
0000
0000
0000
1000
0000
0000
0000
,
1000
0000
0000
0010
0000
0000
0100
0000
0001
0000
0010
0000
1000
0000
0100
0000
,
0001
0000
0000
1001
0000
0000
0000
0000
0000
0000
0001
0000
1000
0000
0001
0000
,
1000
0000
1010
0000
1100
0000
0000
1000
,
0001
0011
0101
0000
,
0002
0000
0003
0000
0010
0100
0010
0100
,
2000
0000
3000
0000
0010
0100
0001
1000
,
1001
0000
0110
0000
1000
0100
0001
0010
,
2000
0000
0000
0000
3001
0100
1000
0010
,
0002
0000
0000
0000
1003
0010
0001
0100
,
2000
0000
3002
0000
0103
0010
0100
0010
,
2002
3003
0220
0330
,
1000
1000
0001
0001
0010
0010
0100
0100
,
0020
0000
0000
1000
0002
0000
0030
0000
,
1003
0100
1000
0100
0010
0100
0010
0100
0010
0001
0010
0001
0100
0000
0000
0000
;

//--------------- dance-single - about-blank ----------------
#NOTES:
     dance-single:
     about-blank:
     Hard:
     9:
     0,0,0,0,0:
0000
0000
0000
0000
,
0000
0000
0000
0000
,
0000
0000
0000
0000
,
0000
0000
0000
0000
,
0000
0000
0000
0000
,
2000
0000
0000
0000
3200
0000
0000
0000
0302
0000
0000
0000
0003
1000
1000
0000
,
0002
0023
2030
3000
,
0001
1000
0001
0100
0000
0010
1000
0200
,
0001
0000
0000
0000
0000
0000
1000
1300
0000
0000
0000
0000
0000
0000
0000
0000
,
0101
0100
0010
1000
0000
0001
1000
0100
,
0010
0000
0001
0000
0100
0000
1000
0100
0000
0000
0000
0000
0001
0000
1000
0000
,
0001
0000
0011
0000
1100
1000
0100
0010
,
0002
0000
1000
1003
0000
0000
0000
0000
0000
0000
0000
0000
0000
0000
0000
0000
,
0001
0000
0010
0000
0100
0000
0001
0100
0000
0100
1000
0000
0000
0000
0000
0000
,
1000
0000
0010
0000
0100
0000
0001
0100
0000
0100
0010
0000
0000
0000
1000
0000
,
0100
0010
0001
1000
0000
0001
0100
0010
,
1000
0000
0001
0001
0000
0000
2000
0000
0200
0000
0000
0000
0000
0000
0000
0000
,
3300
0000
0000
0000
0000
0001
1000
0001
,
0010
0000
0001
0100
0000
0100
1000
0000
0001
0000
0010
0000
1000
0000
0001
0000
,
2000
0000
0100
0200
0000
0000
3300
0000
0000
0000
1000
0000
0001
0000
0010
0000
,
0100
0000
1000
0100
0000
0100
0001
0000
0100
0000
1000
0000
0010
0000
0100
0000
,
0002
0000
1000
2000
0000
0000
3003
0000
0000
0000
0001
0000
1000
0000
0001
0000
,
0020
0000
0000
0000
2030
0000
0000
0000
3200
0000
0000
0000
0000
0000
0301
0010
,
0100
0000
0000
0000
1000
0000
0001
0100
0000
1000
0010
0000
0000
0000
1001
0000
,
0220
0000
0330
0001
0001
0010
1000
0100
,
0002
0000
0000
1003
1000
0010
0001
0100
,
2000
0000
0100
0000
3002
0000
0100
0000
0013
0100
0010
0100
1000
0010
0100
0002
,
2000
0000
0000
0000
3003
0000
0001
1000
0100
0000
0110
0000
0011
0000
1100
0000
,
0202
0000
0000
0000
0303
0000
1000
0001
0100
0000
0010
1000
0001
0000
0100
0000
,
0020
0000
0000
0000
2030
0000
0000
0000
3001
0010
0100
0000
0001
0000
0100
0000
,
2000
0000
0000
0001
0002
0000
3003
0000
,
0001
0000
0001
0010
0000
0010
0100
0000
0100
1000
0000
1000
0001
0100
0001
0100
0001
0100
0010
1000
0010
1000
0010
2000
,
0002
0000
3003
0010
0220
0330
1001
0000
,
1000
0000
0000
0100
0000
0000
1000
0000
0000
0100
0000
0000
0001
0000
0000
0100
0000
0000
0001
0000
0000
0100
0000
0000
0010
0000
0000
0001
0000
0000
0100
0000
0010
0000
2000
0000
0002
0000
0000
0000
0000
0000
0000
0000
0000
0000
0000
0000
,
3003
0000
0000
0000
;
