#TITLE:Racing with Time (NAOKI's 999 remix);
#SUBTITLE:;
#ARTIST:jun feat.Godis (Heather Twede);
#TITLETRANSLIT:;
#SUBTITLETRANSLIT:;
#ARTISTTRANSLIT:;
#GENRE:;
#CREDIT:;
#MUSIC:Racing with Time (NAOKI's 999 remix).ogg;
#BANNER:Racing with Time (NAOKI's 999 remix).png;
#BACKGROUND:Racing with Time (NAOKI's 999 remix)-bg.png;
#CDTITLE:./CDTITLES/DanceDanceRevolution HOTTEST PARTY 2.png;
#SAMPLESTART:49.272;
#SAMPLELENGTH:15.000;
#SELECTABLE:YES;
#OFFSET:0.000;
#BPMS:0.000=157.000;
#STOPS:;
#BGCHANGES:;
#FGCHANGES:;

//--------------- dance-single - eataninja ----------------
#NOTES:
     dance-single:
     eataninja:
     Beginner:
     3:
     0,0,0,0,0:
0000
0000
0000
0000
,
0000
0000
0000
0000
,
0000
0000
0000
0000
,
0000
0000
0000
0000
,
0000
0000
0000
0000
,
1000
0000
1000
0000
,
0100
0000
0010
0000
,
0001
0000
0001
0000
,
0100
0100
0100
0000
,
0010
0000
0000
0000
,
0100
0000
0010
0000
,
2000
0000
0000
0000
,
3000
0000
0000
0000
,
0100
0000
0000
0000
,
0100
0000
0010
0000
,
0001
0000
1000
0000
,
1000
0000
0000
0000
,
0010
0000
0100
0000
,
0010
0000
0010
0000
,
1000
0000
0001
0000
,
0010
0000
0100
0000
,
1000
0000
0001
0000
,
1000
0000
1000
0000
,
0010
0000
0100
0000
,
0100
0100
0100
0000
,
0001
0000
1001
0000
,
1000
0000
1001
0000
,
0100
0000
0010
0000
,
0001
0001
1000
0000
,
0010
0000
0110
0000
,
0100
0000
0110
0000
,
0001
0000
1000
0000
,
1001
1001
0000
0000
,
1000
0000
0010
0000
,
0001
0000
0010
0000
,
0100
0000
0001
0000
,
0010
0000
0100
0000
,
1000
1000
1000
0000
,
0001
0001
0001
0000
,
0100
0000
1000
0000
,
0100
0010
0100
0000
,
0001
0000
0000
0000
,
1000
0000
0000
0000
,
0100
0000
0001
0000
,
0100
0000
1000
0000
,
0001
0001
0001
0000
,
1000
1000
1000
0000
,
0010
0000
0100
0000
,
1001
0000
0000
0000
,
1000
0000
0100
0000
,
0001
0000
0100
0000
,
1000
0000
0100
0000
,
0010
0000
0001
0000
,
0100
0000
1000
0000
,
0100
0000
0010
0000
,
1000
0000
0001
0000
,
0010
0000
0100
0000
,
1000
0000
2002
0000
,
3003
0000
0000
0000
;

//--------------- dance-single - eataninja ----------------
#NOTES:
     dance-single:
     eataninja:
     Easy:
     6:
     0,0,0,0,0:
0000
0000
0000
0000
,
0000
0000
0000
0000
,
0000
0000
0000
0000
,
0000
0000
0000
0000
,
0000
0000
0000
0000
,
1001
1000
0010
0100
,
0100
0001
0010
0100
,
2000
0000
0000
0001
3001
0000
0000
0000
,
1000
0010
0001
0100
,
1000
0001
0010
0100
,
1000
1000
0010
0100
,
0020
0000
0000
1000
1030
0000
0000
0000
,
0001
0010
0000
0000
,
0100
1000
0001
1000
,
0010
0010
0100
1000
,
0200
0000
0000
0301
0000
0000
1000
0000
,
0001
0010
0011
0000
,
0100
0100
1000
0001
,
0100
1000
0100
0001
,
2000
0000
0000
0100
3100
0000
0000
0000
,
0002
0000
0000
1000
1003
0000
0000
0000
,
0010
0100
0001
1000
,
0100
0100
0010
0001
,
2001
0000
0000
0010
3010
0000
0000
0000
,
1000
0010
0001
0100
,
1000
0001
0100
0100
,
0001
1000
0100
0100
,
0010
0001
1000
1000
,
0010
0001
0010
1000
,
0001
1000
0100
0100
,
0010
0001
1000
1000
,
0010
0001
0010
0010
,
0110
2002
0000
3003
,
1000
0010
0100
0101
,
0001
0010
0100
1100
,
0002
1000
1000
1003
,
0100
0001
0100
1000
,
0010
0000
0100
0000
0001
0001
0001
0000
,
0010
0000
0100
0000
1000
1000
1000
0000
,
0001
1000
0100
0010
,
0001
0100
1001
0000
,
1000
0000
0000
0010
0100
0000
0000
0001
,
0000
0001
0000
1000
0100
0000
0000
0000
,
1000
0010
0001
0010
,
0200
0001
0001
0301
,
1000
0000
0001
0000
0010
0010
0010
0000
,
0100
0000
1000
0000
0001
0001
0001
0000
,
1000
0010
0001
0000
,
0110
0000
0000
0000
,
0110
0100
0001
1000
,
0100
0010
0001
1000
,
1001
0001
0100
0010
,
1000
0001
1000
0100
,
1100
0001
1000
0010
,
0100
0010
0100
0001
,
0101
1000
0001
0010
,
0100
1000
0001
0100
,
0010
0000
0000
0100
0200
0000
0000
0000
,
0300
0000
0000
0000
;

//--------------- dance-single - eataninja ----------------
#NOTES:
     dance-single:
     eataninja:
     Medium:
     10:
     0,0,0,0,0:
0000
0000
0000
0000
,
0000
0000
0000
0000
,
0000
0000
0000
0000
,
0000
0000
0000
0000
,
0000
0000
0000
0000
,
1000
0000
0001
0100
0001
0000
0010
0100
,
2000
0000
3010
0100
0002
0000
1003
0000
,
1100
0000
0000
0001
0002
0000
0003
0000
,
1000
0010
0100
0001
1000
0100
0010
0001
,
1000
0000
0010
0000
0100
0000
0010
0100
,
0100
0001
0010
0100
,
2000
0000
0000
0001
3001
0000
1000
0010
,
0100
0000
0100
0000
0000
0000
0010
0100
,
0010
0000
1000
0000
0001
0000
1000
0100
,
0100
0010
0001
1000
,
0020
0000
0000
0100
0000
0000
1030
0000
,
0001
0000
0000
1000
0000
0000
0100
0000
0100
0000
0000
0000
0000
0000
0000
0000
,
0010
0000
0000
0001
1002
0000
1003
0000
,
0010
0010
0100
0001
,
1000
0000
0000
0001
0021
0000
0130
1000
,
0001
0000
0100
0010
0200
0000
0301
0000
,
1001
0000
1000
0100
0010
0000
0001
0000
,
1000
1000
0010
0100
,
0001
0000
0000
0010
0012
0000
1003
0000
,
0100
0010
0001
1000
0010
0100
0001
1000
,
0000
0000
0100
0000
0000
0010
0000
0000
0001
0000
0000
0001
0000
0000
0001
0000
,
0000
0000
1000
0000
0000
0010
0000
0000
0100
0000
0000
0100
0000
0000
0100
0000
,
0000
0000
0001
0000
0000
1000
0000
0000
0001
0000
0000
0001
0000
0000
0010
0000
,
0100
0000
0001
0000
0100
0000
1000
0010
,
0000
0000
0100
0000
0000
0010
0000
0000
1000
0000
0000
1000
0000
0000
0001
0000
,
0000
0000
0010
0000
0000
0100
0000
0000
1000
0000
0000
1000
0000
0000
0001
0000
,
0100
0001
1000
0000
0100
0010
0001
0000
,
1001
0220
0000
0330
,
0100
0001
1000
0001
0010
0100
1000
0000
,
0100
1000
0001
1000
0100
0010
0001
0000
,
0200
0000
0310
1000
0002
0000
0013
0000
,
0200
0000
0301
0100
2000
0000
3001
0000
,
1000
0010
1000
0010
0100
0001
1000
0000
,
0001
0010
0001
0010
0100
1000
0001
0000
,
2000
0000
3010
0000
0001
0010
1000
0000
,
0001
0000
0000
1000
0000
0000
1000
0000
0100
0000
0000
0000
0000
0000
0000
0000
,
2200
0000
3300
0000
0100
0010
0001
0000
,
0202
0000
0303
0000
0100
0010
1000
0000
,
0001
0010
0100
0000
1000
0001
1000
0000
,
0020
0000
0130
0001
0002
0000
1003
0000
,
0100
0001
0100
1000
0100
0010
0001
0000
,
0100
1000
0100
0001
0010
0100
1000
0000
,
0020
0100
0001
1030
,
1100
0000
0000
0002
0000
0000
0000
0000
0000
0000
0000
0000
0003
0000
0000
0000
,
1000
0000
0000
0001
0000
0000
1000
0000
0000
0001
0000
0000
0010
0000
0000
0000
,
0001
0000
0000
1000
0000
0000
0001
0000
0000
1000
0000
0000
0010
0000
0000
0000
,
0100
0000
0000
0001
0000
0000
0100
0000
0000
0001
0000
0000
1000
0000
0000
0000
,
0100
0000
0000
1000
0000
0000
0100
0000
0000
1000
0000
0000
0001
0000
0000
0000
,
0100
0000
0000
0010
0000
0000
0100
0000
0000
0001
0000
0000
1000
0000
0000
0000
,
0100
0000
0000
0010
0000
0000
0100
0000
0000
1000
0000
0000
0001
0000
0000
0000
,
0100
0000
0000
1000
0000
0000
0100
0000
0000
0001
0000
0000
1000
0000
0000
0000
,
0100
0000
0000
0001
0000
0000
0100
0000
0000
1000
0000
0000
0001
0000
0000
0000
,
0100
0000
0000
0110
0220
0000
0000
0000
,
0330
0000
0000
0000
;

//--------------- dance-single - eataninja ----------------
#NOTES:
     dance-single:
     eataninja:
     Hard:
     12:
     0,0,0,0,0:
0000
0000
0000
0000
,
0000
0000
0000
0000
,
0000
0000
0000
0000
,
0000
0000
0000
0000
,
0000
0000
0000
0000
,
1001
0000
0001
0100
0010
0000
0100
0001
,
0020
0000
0130
1000
0002
0000
0103
0000
,
0110
0000
0000
0000
0000
0000
1000
0001
2000
0000
0000
0000
3000
0000
0000
0000
,
0001
0010
0100
1000
0010
0100
0001
1000
,
0010
0000
0000
0100
0000
0000
0010
0000
1000
0000
0000
0001
0000
0000
0010
0000
,
0100
0000
0000
0000
0100
0000
0000
0000
0001
0000
0000
0100
0000
0000
1000
0000
,
0002
0000
0000
1000
1003
0000
0010
0100
,
0001
0000
1000
0000
0000
1000
0100
0010
,
0001
0000
0000
1000
0000
0000
0001
0000
0100
0000
0000
0010
0000
0000
1000
0000
,
0001
0000
0000
0000
0001
0000
0000
0000
0010
0000
0000
0100
0000
0000
1000
0000
,
0020
0000
0000
0001
0000
0130
0001
0001
,
1000
0000
0000
0100
0000
0000
0010
0000
0011
0000
0000
0000
0000
0000
0000
0000
,
1000
0000
0000
0010
0000
0000
0100
0000
0001
0000
0000
0010
0000
0000
0100
0000
,
1000
0000
0000
0000
1000
0000
0000
0000
0001
0000
0000
1000
0000
0000
0010
0000
,
0110
0000
0000
0000
0000
0000
0100
0001
0200
0000
0000
0000
0300
0000
0000
0000
,
0101
0000
0000
0000
0000
0000
1000
0001
2000
0000
0000
0000
3100
0000
0010
0000
,
0001
0000
0000
1000
0000
0000
0001
0000
0100
0000
0000
0010
0000
0000
1000
0000
,
0010
0000
0000
0000
0010
0000
0000
0000
0001
0000
0000
0010
0000
0000
1000
0000
,
0002
0000
0000
0010
0013
0000
0100
0000
,
1000
0001
1000
0010
0100
0001
1000
0001
,
0010
0000
0100
0000
0010
0100
0000
0000
1000
0000
0000
1000
0000
0000
1000
0000
,
0010
0000
0100
0000
0010
0100
0000
0000
0001
0000
0000
0001
0000
0000
0001
0000
,
1000
0000
0100
0000
1000
0100
0000
0000
0010
0000
0000
0010
0000
0000
0010
0000
,
0001
0000
0100
0000
0001
0100
0000
0000
0010
0000
0000
0010
0000
0000
0010
0000
,
1000
0000
0001
0000
0010
0100
0000
0000
1000
0000
0000
1000
0000
0000
1000
0000
,
0001
0000
0100
0000
0010
0100
0000
0000
0001
0000
0000
0001
0000
0000
0001
0000
,
0010
0000
1000
0000
0010
1000
0000
0010
0100
0000
0000
1000
0000
0000
0001
0000
,
0100
0202
0000
0303
,
1000
0001
0010
0100
0001
0100
0020
0000
,
0031
1000
0010
0100
1000
0100
0020
0000
,
1030
0000
0001
0010
0100
1000
0001
0000
,
1002
0000
0000
1000
1000
0000
0103
0000
,
0001
0100
1000
0100
0010
1000
0100
0010
,
0001
0010
1000
0010
0100
1000
0010
0100
,
0001
0000
1001
0001
2000
0000
3100
0000
,
0010
0000
0000
0001
0000
0000
0100
0000
0100
0000
0000
0000
0001
0000
0000
0000
,
2000
0000
0000
0010
0010
0000
3001
0000
,
0200
0000
0000
0010
0010
0000
0301
0000
,
0010
0100
1000
0001
0100
0010
1000
0000
,
0010
0100
0001
1000
2000
0000
3001
0000
,
0001
0010
1000
0001
0100
0010
0001
1000
,
0001
0100
1000
0001
0010
0100
0001
1000
,
0100
0010
0001
0100
0010
1000
0001
0000
,
0011
0000
0000
0210
0000
0000
0000
0000
0001
0000
0000
0000
1300
0000
0000
0000
,
0100
0000
0000
0100
0010
0000
0001
0000
1000
0010
0000
0000
0100
0000
0010
0000
,
0100
0000
0000
0100
0010
0000
1000
0000
0001
0010
0000
0000
0100
0000
0010
0000
,
0001
0000
0000
0001
1000
0000
0100
0000
0010
0100
0000
0000
1000
0000
0001
0000
,
1000
0000
0000
1000
0001
0000
0100
0000
0010
0000
0100
0000
0001
0000
1000
0000
,
0100
0000
0000
0100
0010
0000
0001
0000
1000
0010
0000
0000
0100
0000
0001
0000
,
0100
0000
0000
0100
0010
0000
1000
0000
0001
0010
0000
0000
0100
0000
1000
0000
,
0010
0000
0000
0010
0001
0000
0010
0000
0100
0001
0000
0000
1000
0000
0001
0000
,
0010
0000
0000
0010
1000
0000
0010
0000
0100
1000
0000
0000
0001
0000
1000
0000
,
0010
0000
0000
1001
2002
0000
0000
0000
,
3003
0000
0000
0000
;

//--------------- dance-single - eataninja ----------------
#NOTES:
     dance-single:
     eataninja:
     Challenge:
     15:
     0,0,0,0,0:
0000
0000
0000
0000
,
0000
0000
0000
0000
,
0000
0000
0000
0000
,
0000
0000
0000
0000
,
0000
0000
0000
0000
,
1100
0000
0100
0010
0100
0100
1000
0001
,
0200
0000
1300
0100
0020
0000
1030
0001
,
0011
0000
0000
0000
0000
0000
0010
0100
0020
0000
0000
0000
0030
0000
0000
0000
,
0001
0010
0001
0010
0100
1000
0001
1000
0010
0100
0010
0100
0001
1000
0010
1000
,
0001
0000
0000
0010
0000
0000
0100
0000
1000
0000
0000
0001
0000
0000
1000
0000
,
0010
0000
0000
0000
0010
0000
0000
0000
0110
0000
0000
0100
0000
0000
0001
0000
,
2000
0000
0000
0100
3100
0000
0010
0001
,
0100
0000
0000
0000
0010
1000
0001
0010
,
0100
0000
0000
1000
0000
0000
0001
0000
1000
0000
0000
0010
0000
0000
0100
0000
,
0001
0000
0000
0000
0001
0000
0000
0000
1001
0000
0000
1000
0000
0000
0100
0000
,
0002
0000
0000
0103
0000
0010
0001
1000
,
0010
0000
0000
0100
0000
0000
0001
0000
0001
0000
0000
1000
0010
1000
0010
1000
,
0001
0000
0010
0000
0100
0000
1000
0001
1000
0000
0010
0000
0100
0000
0001
0000
,
1000
0000
0100
0000
1100
0000
0000
0000
0100
0000
0000
0010
0000
0000
0001
0000
,
1000
0000
0010
0000
0100
0000
0001
1000
0001
0000
0010
0000
0100
0000
1000
0010
,
0100
0000
0001
0000
1000
0000
0100
0010
0100
0000
0010
0000
0001
0000
0100
0000
,
0010
0000
1000
0000
0001
0000
0010
0100
0010
0000
0100
0000
1000
0000
0001
0000
,
0100
0000
0010
0000
0010
0000
0000
0000
0100
0000
0000
0001
0000
0000
0010
0000
,
1001
0000
0000
0000
0000
0000
0001
0010
0200
0000
0000
0000
0300
0000
0000
0000
,
1000
0001
1000
0010
0100
0001
0100
0010
1000
0001
0010
0100
1000
0001
1000
0010
,
0100
0000
0010
0000
0100
0010
0100
0000
0001
0000
1000
0001
0000
0001
0010
0000
,
0100
0000
0010
0000
0100
0010
0100
0000
1000
0000
0001
1000
0000
1000
0010
0000
,
0100
0000
0010
0000
1000
0001
1000
0000
0100
0000
0010
0001
0000
0001
1000
0000
,
0010
0000
0100
0000
0001
1000
0001
0000
0100
0000
0010
1000
0000
1000
0001
0000
,
0010
0000
0100
0000
1000
0001
1000
0100
0010
0000
0000
0001
0000
0000
1000
0000
,
0010
0000
0100
0000
0001
1000
0001
0010
0100
0000
0000
1000
0000
0000
0001
0000
,
1000
0010
1000
0000
0010
0100
0000
0100
0001
1000
0001
1000
0100
0010
0100
0010
,
0001
0021
1000
0130
,
1000
0000
0001
0000
0010
0000
0100
0000
1000
0001
0100
0010
2000
0000
0000
0000
,
3001
0000
0100
0000
1000
0000
0100
0000
0010
0100
0010
1000
0002
0000
0000
0000
,
1003
0000
0100
0000
0010
0000
0001
0000
1000
0010
1000
0010
0200
0000
0000
0000
,
0301
0000
1000
0000
0001
0010
0000
0001
0010
0000
0100
0000
1000
0001
0000
1000
,
0010
0000
0100
0000
1000
0000
0100
0000
0010
0100
0010
0000
1000
0001
1000
0000
,
0100
0000
0001
0000
0100
0000
0010
0000
0001
1000
0001
0000
1000
0010
1000
0000
,
0001
0000
0100
0000
1000
0000
0100
0010
0100
0010
1000
0000
0001
0010
0100
0000
,
1000
0000
0000
0001
0000
0000
0001
0000
1000
0010
0100
0001
0010
0100
1000
0001
,
0020
0000
0000
0000
0000
0000
0130
0000
1000
0001
1000
0100
0010
0000
0000
0000
,
0200
0000
0000
0000
0000
0000
0310
0000
0001
1000
0010
0100
0001
0000
0000
0000
,
1000
0000
0010
0000
0100
0000
0001
0000
1000
0100
1000
0100
0010
0000
0001
0000
,
1000
0000
0010
0000
0100
0010
0000
0010
1000
0000
0001
0000
0010
0100
0000
0100
,
1000
0000
0001
0000
0010
0000
0100
0000
1000
0001
1000
0000
0010
0100
0001
0000
,
0100
0000
1000
0000
0100
0000
0010
0000
1000
0001
1000
0000
0100
0010
0001
0000
,
1000
0010
0001
0010
0100
0001
0010
0100
,
1100
0000
0000
1001
0000
0000
0000
0000
0002
0000
0000
0000
0203
0000
0000
0000
,
0310
0000
1000
0001
1000
0000
0100
0000
0010
0001
0010
0000
0100
0000
1000
0000
,
0001
0000
0100
0010
0100
0000
0001
0000
1000
0010
1000
0000
0001
0000
0010
0000
,
0100
0000
1000
0001
1000
0000
0100
0000
0010
0001
0010
0000
0001
0000
1000
0000
,
0010
0000
0100
0010
0100
0000
0001
0000
1000
0100
1000
0000
0001
0000
0010
0000
,
0100
0000
1000
0001
0010
0000
0001
0000
1000
0010
0100
0000
0010
0000
1000
0000
,
0001
0000
1000
0001
0010
0000
0100
0000
1000
0100
0010
0000
0001
0000
1000
0000
,
0010
0000
0100
1000
0100
0000
0010
0000
1000
0001
1000
0000
0100
0000
0001
0000
,
0100
0000
0010
0001
1000
0000
0010
0000
0100
0001
1000
0000
0100
0000
0010
0000
,
0001
0000
0000
1010
2020
0000
0000
0000
,
3030
0000
0000
0000
;
