#VERSION:0.83;
#TITLE:ROCK U UP;
#SUBTITLE:;
#ARTIST:Shoichiro Hirata;
#TITLETRANSLIT:;
#SUBTITLETRANSLIT:;
#ARTISTTRANSLIT:;
#GENRE:;
#CREDIT:;
#MUSIC:ROCK U UP.mp3;
#BANNER:;
#BACKGROUND:;
#CDTITLE:;
#SAMPLESTART:99.628;
#SAMPLELENGTH:14.222;
#SELECTABLE:YES;
#OFFSET:-0.072;
#BPMS:0.000=135.000;
#STOPS:60.000=0.889;
#BGCHANGES:;
#FGCHANGES:;

//--------------- dance-single - eataninja ----------------
#NOTEDATA:;
#STEPSTYPE:dance-single;
#DESCRIPTION:eataninja;
#DIFFICULTY:Beginner;
#METER:3;
#RADARVALUES:0,0,0,0,0;
#NOTES:
0000
0000
0000
0000
,
0000
0000
0000
0000
,
0000
0000
0000
0000
,
0000
0000
0000
0000
,
1000
0000
0100
0000
,
1000
0000
0000
0000
,
0001
0000
0100
0000
,
0001
0000
0000
0000
,
1000
0000
0010
0000
,
0100
0000
0100
0000
,
0001
0000
0010
0000
,
0100
0000
0100
0000
,
1000
0000
0001
0000
,
0100
0000
0100
0000
,
0001
0000
1000
1000
,
0000
0000
1001
0000
,
0000
0000
1000
1000
,
1000
0000
1001
0000
,
0000
0000
0001
0001
,
0001
0000
0110
0000
,
0000
0000
0100
0100
,
0100
0000
0110
0000
,
0000
0000
0010
0010
,
0010
0000
1000
0000
,
0001
0000
1000
0000
,
0100
0000
1000
0000
,
0001
0000
0100
0000
,
0100
0000
0001
0000
,
1000
0000
0100
0000
,
1000
0000
0001
0000
,
1000
0000
0100
0000
,
0100
0000
0020
0000
,
0030
0000
0001
0000
,
0100
0000
0010
0000
,
0000
0000
0010
0000
,
0100
0000
0001
0001
,
0001
0000
1000
1000
,
1000
0000
0001
0000
,
0010
0000
0110
0000
,
0000
0000
1000
0000
,
1000
0000
0010
0000
,
0010
0000
0001
0000
,
0001
0000
0010
0000
,
0010
0000
1000
0000
,
0010
0000
0001
0000
,
0010
0000
1000
0000
,
0010
0000
0110
0000
,
0000
0000
2000
0000
,
3000
0000
0001
0000
,
0100
0000
0010
0000
,
0010
0000
0100
0000
,
0001
0000
2000
0000
,
3000
0000
0001
0000
,
0010
0000
0100
0000
,
0100
0000
0010
0000
,
0001
0000
1000
0000
,
0010
0000
0100
0100
,
0100
0000
0001
0000
,
0010
0000
0100
0100
,
0100
0000
1000
0000
,
0001
0000
0100
0100
,
0100
0000
0010
0000
,
1000
0000
0100
0100
,
0100
0000
1000
0000
,
1000
0000
0000
0000
,
0000
0000
0001
0000
,
0001
0000
0000
0000
,
0000
0000
0001
0000
,
0001
0000
0100
0000
,
0100
0000
1000
0000
,
1000
0000
0100
0000
,
0100
0000
0001
0000
,
0100
0000
1000
0000
,
0100
0000
0001
0000
,
0010
0000
0100
0100
,
0100
0000
2002
0000
,
0000
0000
3003
0000
;

//--------------- dance-single - MEGAtive ----------------
#NOTEDATA:;
#STEPSTYPE:dance-single;
#DESCRIPTION:MEGAtive;
#DIFFICULTY:Easy;
#METER:8;
#RADARVALUES:0,0,0,0,0;
#NOTES:
0000
0000
0000
0000
,
0000
0000
0000
0000
,
0000
0000
0000
0000
,
0000
0000
0000
0000
,
1000
1000
1000
1000
,
0100
0100
0100
0100
,
0010
0010
0010
0010
,
0001
0001
0001
0001
,
1000
1000
1000
1000
,
0010
0010
0010
0010
,
0100
0100
0100
0100
,
0001
0001
0001
0001
,
1000
1000
0100
0100
,
0010
0010
0001
0001
,
1000
1000
0010
0010
,
0000
1001
0001
0010
,
0001
1000
0010
0000
1000
0000
0010
0000
,
1000
0001
0010
0000
0001
0000
0010
0000
,
0001
1000
0010
0000
1000
0000
0010
1000
,
0001
1000
0100
0000
1000
0000
0100
0000
,
1000
0001
0100
0000
0001
0000
0100
0000
,
0001
1000
0100
0000
1000
0000
0100
0000
,
1000
0001
0100
0000
0001
0000
0100
0001
,
1000
0001
0010
0001
1000
0010
0100
0010
,
0000
0010
1000
0001
0000
1000
0001
0010
,
0000
0010
0001
1000
0000
0010
0100
0001
,
0000
0001
0100
0010
0000
1000
0100
0010
,
0000
0010
0100
1000
0001
0100
0010
0100
,
0000
0100
0001
1000
0000
0001
1000
0100
,
0000
0100
1000
0001
0000
0100
0010
1000
,
0000
1000
0010
0100
0000
0001
0000
0001
,
0000
1000
0000
1000
0002
0000
0013
0000
,
0001
1000
0100
0000
2000
0000
3010
0000
,
1000
0001
0100
0001
2000
0000
3100
0000
,
1000
0001
0010
0000
0002
0000
0103
0000
,
0001
1000
0010
1000
0001
0000
0010
0000
,
0001
1000
0010
0000
0100
0000
0010
0000
,
0100
0001
1000
0000
0100
0000
0010
0000
,
0100
1000
0001
0000
2002
0000
0000
3003
,
0000
0001
0000
0001
1000
0000
0100
0010
,
0100
0000
1000
0000
0001
0000
0100
0010
,
0100
0000
0001
0000
1000
0000
0010
0100
,
0010
0000
1000
0000
0001
0000
0010
0100
,
0010
0000
0001
0000
1000
0000
0100
0010
,
0100
0000
1000
0000
0001
0000
0100
0010
,
0100
0000
0001
0000
1000
0000
0010
0100
,
0010
0000
1000
0000
2002
0000
0000
3003
,
0000
1000
0000
1000
0002
0000
0000
0000
,
0000
0000
0023
0000
,
0000
0000
0230
0000
,
0000
0000
2300
0000
,
0000
0000
3001
0001
,
0001
0001
1000
1000
,
1000
1000
0010
0010
,
0010
0010
0100
0100
,
0100
0100
0001
0001
,
0001
0001
0010
0010
,
0010
0010
0100
0100
,
0100
0100
1000
1000
,
1000
1000
0001
0001
,
0100
0100
0010
0010
,
1000
0000
1000
0000
0001
0010
0001
0000
,
1000
0010
1000
0000
0001
0010
0001
0010
,
0100
1000
0100
1000
0000
2020
0000
3030
,
2020
0000
3030
2020
0000
3030
2020
0000
,
3030
0010
1000
0001
0000
0022
0000
0033
,
0022
0000
0033
0022
0000
0033
0022
0000
,
0033
0010
0001
1000
0001
0000
0010
0000
,
0001
1000
0010
0000
1000
0000
0010
0000
,
1000
0001
0010
0000
0001
0000
0010
0000
,
0001
1000
0010
0000
1000
0000
0010
1000
,
0001
1000
0100
0000
1000
0000
0100
0000
,
1000
0001
0100
0000
0001
0000
0100
0000
,
0001
1000
0100
0000
1000
0000
0100
0000
,
1000
0001
0100
0000
0001
0100
0001
1000
,
0001
0010
0100
1000
0002
0000
0000
0000
,
0000
0000
0000
0000
,
0000
0000
0003
0000
;

//--------------- dance-single - MEGAtive ----------------
#NOTEDATA:;
#STEPSTYPE:dance-single;
#DESCRIPTION:MEGAtive;
#DIFFICULTY:Medium;
#METER:10;
#RADARVALUES:0,0,0,0,0;
#NOTES:
0000
0000
0000
0000
,
0000
0000
0000
0000
,
0000
0000
0000
0000
,
0000
0000
0000
0000
,
0001
0001
0001
0001
,
0100
0100
0100
0100
,
0010
0010
0010
0010
,
1000
1000
1000
1000
,
0001
0001
0010
0010
,
0100
0100
1000
1000
,
0001
0001
0100
0100
,
0010
0010
1000
1000
,
0001
0010
0001
0000
1000
0010
1000
0000
,
0001
0100
0001
0000
1000
0100
1000
0000
,
0001
0010
0001
0010
0100
1000
0001
0100
,
0000
0000
0110
0000
0001
0010
0001
1000
,
0010
0000
0110
0000
0100
0001
1000
0100
,
0010
0000
0011
0000
0001
0010
0001
1000
,
0010
0000
0110
0000
0100
0001
1000
0100
,
0010
0100
1000
0000
0001
0100
0001
1000
,
0100
0000
0110
0000
0010
0001
1000
0010
,
0100
0000
0101
0000
0001
0100
0001
1000
,
0100
0000
0110
0000
0010
0001
1000
0010
,
0100
0010
1000
0001
0010
0100
0010
0001
,
0010
0100
0010
0001
1000
0010
0100
0010
,
1000
0010
0100
0010
1000
0100
0010
0100
,
1000
0100
0010
0100
1000
0001
0100
0010
,
0100
0001
0100
0010
1000
0100
0010
0100
,
1000
0100
0010
0100
1000
0010
0100
0010
,
1000
0010
0100
0010
1000
0001
0100
0010
,
1000
0001
0010
0100
1000
0001
0100
0010
,
1000
0001
0010
0100
2000
0000
3002
0000
,
0103
0010
0100
0000
0002
0000
1003
0100
,
1000
0001
0100
0000
0002
0000
2003
0000
,
3100
0010
0100
0000
2000
0000
3001
0100
,
0001
1000
0100
0000
1000
0000
1100
0000
,
0001
0101
1000
1100
,
0001
0101
1000
1010
,
0001
0000
0000
0000
0011
0000
0000
0000
1001
0000
0000
0110
0000
0000
1001
0000
,
0000
1000
0100
0010
0001
1000
0001
0100
,
0010
0000
0110
0000
0100
0001
1000
0001
,
0010
0000
0110
0000
0100
1000
0001
1000
,
0010
0000
0110
0000
0100
0001
1000
0001
,
0010
0000
0110
0000
0100
1000
0001
1000
,
0010
0100
0010
0000
0100
0001
1000
0001
,
0010
0100
0010
0000
0100
1000
0001
1000
,
0010
0000
0100
0000
0010
0000
0000
0000
0110
0000
0000
1001
0000
0000
0110
0000
,
0000
0010
1000
0001
2000
0000
0000
0000
,
0000
0000
3002
0000
,
0000
0000
0023
0000
,
0000
0000
0230
0000
,
0000
0000
1300
1000
,
1000
1000
0001
0001
,
0001
0001
0100
0100
,
0100
0100
0010
0010
,
0010
0000
0010
0000
1000
0100
1000
0000
,
0001
0100
0001
0000
1000
0100
0010
0100
,
1000
0000
0001
0000
1000
0010
1000
0000
,
0001
0010
0001
0000
1000
0010
0100
0010
,
1000
0001
1000
0000
0001
0010
0001
0000
,
1000
0010
1000
0000
0001
0010
0100
0010
,
0001
0000
1000
0000
0001
0100
0001
0100
,
0010
1000
0010
1000
0001
0010
0100
1000
,
0001
0000
1000
0000
0010
0000
0100
0000
0000
0000
0110
0000
0000
0110
0000
0000
,
0110
0000
0000
0110
0000
0000
0110
0000
0000
0110
0000
0000
0110
0000
0000
0110
,
0000
0000
0010
0000
1000
0000
0100
0000
0000
0000
0110
0000
0000
0110
0000
0000
,
0110
0000
0000
0110
0000
0000
0110
0000
0000
0110
0000
0000
0110
0000
0000
0110
,
0000
0010
0001
1000
0001
0100
0001
1000
,
0100
0000
0110
0000
0010
0001
1000
0010
,
0100
0000
0101
0000
0001
0100
0001
1000
,
0100
0000
0110
0000
0010
0001
1000
0010
,
0100
0010
1000
0000
0001
0010
0001
1000
,
0010
0000
0110
0000
0100
0001
1000
0100
,
0010
0000
0011
0000
0001
0010
0001
1000
,
0010
0000
0110
0000
0100
0001
1000
0100
,
0010
0100
1000
0001
2000
0000
0000
0000
,
0000
0000
0000
0000
,
0000
0000
3000
0000
;

//--------------- dance-single - MEGAtive ----------------
#NOTEDATA:;
#STEPSTYPE:dance-single;
#DESCRIPTION:MEGAtive;
#DIFFICULTY:Hard;
#METER:13;
#RADARVALUES:0,0,0,0,0;
#NOTES:
0000
0000
0000
0000
,
0000
0000
0000
0000
,
0000
0000
0000
0000
,
0000
0000
0000
0000
,
0001
0000
0000
0010
0000
0010
0000
0000
0001
0000
0000
0010
0000
0010
0000
0000
,
0001
0000
0000
0100
0000
0100
0000
0000
0001
0000
0000
0100
0000
0100
0010
0000
,
1000
0000
0000
0100
0000
0100
0000
0000
1000
0000
0000
0100
0000
0100
0000
0000
,
1000
0000
0000
0010
0000
0010
0000
0000
1000
0000
0000
0010
0000
0010
0100
0000
,
0001
0000
0000
0010
0000
0010
0000
0001
1000
0000
0000
0010
0000
0010
0000
0000
,
1000
0000
0000
0100
0000
0100
0000
1000
0001
0000
0000
0100
0000
0100
0000
0000
,
0001
0000
0000
0010
0000
0010
0000
0001
1000
0000
0000
0010
0000
0010
0000
0000
,
1000
0000
0000
0100
0000
0100
0000
1000
0001
0000
0000
0100
0000
0100
0000
0000
,
0001
0000
0010
0001
0000
1000
0000
0001
0010
0000
0001
0010
0000
0001
0000
0000
,
1000
0000
0010
1000
0000
0001
0000
1000
0010
0000
1000
0010
0000
1000
0000
0000
,
0001
0000
0010
0001
0000
1000
0000
0001
0010
0000
0001
0010
0000
0001
0000
0000
,
0000
0000
0000
0000
1001
0000
0000
0000
0001
0000
1000
0010
0000
0100
0000
0010
,
1000
0000
0001
0000
0020
0000
0030
0000
0001
0000
1000
0100
0000
0010
0000
0100
,
1000
0000
0001
0000
0100
0000
0010
0000
1000
0000
0001
0100
0000
0010
0000
0100
,
0001
0000
1000
0000
0200
0000
0300
0000
1000
0000
0001
0010
0000
0100
0000
0010
,
0001
0000
1000
0000
0010
0000
0100
0000
0001
0000
1000
0100
0000
0010
0000
0100
,
1000
0000
0001
0000
0200
0000
0300
0000
0001
0000
1000
0010
0000
0100
0000
0010
,
1000
0000
0001
0000
0010
0000
0100
0000
1000
0000
0001
0010
0000
0100
0000
0010
,
0001
1000
0020
0030
1000
0001
0010
0100
,
1000
0010
0100
0001
1000
0200
0301
0200
,
1300
0200
0301
0200
1300
0020
0031
0020
,
1030
0020
0031
0020
1030
0200
0301
0200
,
1300
0200
0301
0200
1300
0200
0310
0200
,
0301
0200
0310
0200
1300
0020
0031
0020
,
1030
0020
0031
0020
1030
0200
0301
0200
,
1300
0200
0301
0200
1300
0020
0031
0020
,
1030
0020
0031
0020
1030
0020
0130
0020
,
0031
0020
0130
0020
2030
0000
3002
0000
,
0013
0000
0100
0000
0010
0000
0001
0000
2000
0000
0000
3020
0000
0000
0230
0000
,
0000
0310
1000
0001
0020
0000
0230
0000
,
1300
0000
0001
0000
0100
0000
0010
0000
2000
0000
0000
3200
0000
0000
0320
0000
,
0000
0031
1000
0010
0100
0000
0101
0000
,
0001
0000
1000
0000
0100
0000
0010
0000
0002
0000
0000
0203
0000
0000
0320
0000
,
0000
0130
0001
1000
0100
0000
1100
0000
,
1000
0000
0001
0000
0100
0000
0010
0000
1010
0000
0000
1001
0000
0000
0011
0000
,
0000
0000
0001
0000
0010
0000
0100
0000
1000
0000
0001
0010
0000
0100
0000
0010
,
0001
0000
0010
0001
0000
1000
0000
0000
0001
0000
1000
0010
0000
0100
0000
0010
,
1000
0000
0010
1000
0000
0001
0000
0000
1000
0000
0001
0100
0000
0010
0000
0100
,
0001
0000
0100
0001
0000
1000
0000
0000
0001
0000
1000
0100
0000
0010
0000
0100
,
1000
0000
0100
1000
0000
0001
0000
0000
1000
0000
0001
0010
0000
0100
0000
0010
,
0001
0000
0010
0001
0000
1000
0000
0000
0001
0000
1000
0010
0000
0100
0000
0010
,
1000
0000
0010
1000
0000
0001
0000
0000
1000
0000
0001
0100
0000
0010
0000
0100
,
0001
0000
0100
0001
0000
1000
0000
0000
1100
0000
0000
0110
0000
0000
0011
0000
,
0000
0001
0100
0010
2000
0000
0000
0000
,
0000
0000
3200
0000
,
0000
0000
0320
0000
,
0000
0000
0032
0000
,
0000
0000
2003
0100
,
0100
0100
3020
0100
,
0100
0100
0230
0010
,
0010
0010
0302
0010
,
0010
0000
0010
0000
0013
0001
1000
0010
,
0100
0000
0110
0000
0010
1000
0001
0010
,
0100
0000
0110
0000
0010
0001
1000
0010
,
0100
0000
0110
0000
0010
0100
0001
0010
,
0100
1000
0001
0000
1000
0100
1000
0010
,
0100
0001
0010
0100
0010
0001
0100
0010
,
1000
0100
0010
0100
1000
0010
0100
0010
,
1000
0100
0010
0100
1000
0010
0100
0001
,
0010
0000
0100
0000
1000
0000
0001
0000
0000
0000
0101
0000
0000
0101
0000
0000
,
1100
0000
0000
1100
0000
0000
0101
0000
0000
0101
0000
0000
1100
0000
0000
1100
,
0000
0000
1000
0000
0010
0000
0100
0000
0000
0000
1010
0000
0000
1010
0000
0000
,
0011
0000
0000
0011
0000
0000
1010
0000
0000
1010
0000
0000
0011
0000
0000
0011
,
0000
0000
0001
0000
0100
0000
0010
0000
1000
0000
0001
0010
0000
0100
0000
0010
,
0001
0000
1000
0000
0020
0000
0030
0000
1000
0000
0001
0100
0000
0010
0000
0100
,
0001
0000
1000
0000
0100
0000
0010
0000
0001
0000
1000
0100
0000
0010
0000
0100
,
1000
0000
0001
0000
0200
0000
0300
0000
0001
0000
1000
0010
0000
0100
0000
0010
,
1000
0000
0001
0000
0010
0000
0100
0000
1000
0000
0001
0100
0000
0010
0000
0100
,
0001
0000
1000
0000
0200
0000
0300
0000
1000
0000
0001
0010
0000
0100
0000
0010
,
0001
1000
0010
0100
0001
0010
0001
0100
,
0010
1000
0100
1000
0010
0100
1000
0100
,
0001
0010
0100
1000
0002
0000
0000
0000
,
0000
0000
0000
0000
,
0000
0000
0003
0000
;

//--------------- dance-single - aboutblank ----------------
#NOTEDATA:;
#STEPSTYPE:dance-single;
#DESCRIPTION:aboutblank;
#DIFFICULTY:Challenge;
#METER:15;
#RADARVALUES:0,0,0,0,0;
#NOTES:
0000
0000
0000
0000
,
0000
0000
0000
0000
,
0000
0000
0000
0000
,
0000
0000
0000
0000
,
1001
0000
1000
0010
0000
0010
0000
0000
0100
0000
0001
0010
0000
0010
0000
0000
,
1000
0000
0001
0100
0000
0100
0000
0000
1000
0000
0001
0010
0000
0010
0000
0100
,
1000
0000
0100
0010
0000
0001
0000
0100
0001
0000
1000
0010
0000
0100
0000
0100
,
0002
0010
2003
0010
3002
0100
2003
0100
,
3001
0000
1000
0100
0000
0100
0000
1000
0010
0000
1000
0100
0000
0100
0000
0000
,
1000
0000
0001
0100
0000
0100
0000
0001
0010
0000
0001
0100
0000
0100
0000
0000
,
0010
0000
1000
0001
0000
0001
0000
0100
0010
0000
1000
0001
0000
0001
0000
0000
,
0010
0000
0100
1000
0000
0001
0020
0000
0230
0000
2300
0000
3200
0000
0310
0000
,
0001
0000
1000
0001
1000
0000
0010
0000
0100
0000
0100
0000
0001
0000
0001
0000
,
0010
0000
0100
1000
0100
0000
0010
0000
0001
0000
0001
0000
1000
0000
1000
0000
,
0010
0100
0010
0100
0010
0100
0010
0100
0001
1000
0001
1000
0001
1000
0001
1000
,
0000
0000
0000
0000
0110
0000
0000
0000
1001
0000
1000
0000
0001
0100
0001
0000
,
0010
0000
0010
0000
0200
0000
0000
0000
1300
0000
0001
0000
0010
1000
0010
0000
,
0100
0000
0100
0000
0020
0000
0000
0000
0031
0000
1000
0000
0100
0010
0001
0000
,
1000
0000
1000
0000
0002
0000
0000
0000
0103
0000
0100
0000
0010
1000
0010
0000
,
0101
0000
0010
0000
1100
0000
0000
0000
0001
0000
1000
0000
0100
0010
0100
0000
,
0010
0000
0010
0000
2001
0000
0000
0000
3010
0000
0100
0000
0001
0010
0001
0000
,
1000
0000
1000
0000
0210
0000
0000
0000
0301
0000
1000
0000
0100
1000
0001
0000
,
0100
0100
1020
0000
0031
1000
0100
0001
,
0010
0100
0010
0100
1000
0001
1000
0001
1000
0000
0100
1000
0100
0000
1000
0010
,
1000
0000
1000
0000
0100
0000
1000
0000
0001
0000
0001
0100
0001
0000
0001
0010
,
0001
0000
0001
0000
1000
0000
0001
0000
0100
0000
0100
0010
0100
0000
0100
1000
,
0100
0000
0001
0000
1000
0000
0100
0000
0020
0000
1000
0000
0031
0000
1000
0100
,
0010
0000
0001
0100
0010
0000
1000
0000
0010
0000
0010
1000
0100
0000
0100
1000
,
0010
0000
0100
0000
0001
0000
0001
0000
0010
0000
0010
0001
0100
0000
0100
0001
,
0010
0000
0100
0000
1000
0000
0001
0000
1000
0100
1000
0100
0001
0100
0001
0000
,
0100
0010
0100
0010
0001
0010
0001
0000
0010
0000
0001
0000
0100
0000
1000
0000
,
0100
0000
0001
0000
0010
0000
0100
0000
2000
0000
0000
0000
3010
0000
0000
0010
,
0001
0000
1000
0000
0100
0010
0100
0000
0002
0000
0000
1003
0100
0000
0100
0000
,
0020
0000
0031
1000
0010
1000
0010
0100
0001
0000
0000
0000
0021
0000
0000
0130
,
1000
0000
0010
1000
0010
0100
0001
1000
0002
0000
0000
1003
0100
0000
0020
0000
,
0000
0000
0031
1000
0001
0000
0100
0010
0100
0000
0001
0000
0010
0000
0001
0000
,
1000
0010
0100
0010
1000
0100
0010
0001
,
1000
0010
0100
0001
0010
0100
1000
0001
,
1000
0000
0010
0100
0001
1000
0100
0000
0110
0000
0000
1001
0000
0000
1001
0000
,
0000
0000
1000
0000
1000
0100
0010
0000
0101
0000
1000
0010
0000
0010
0000
0000
,
0001
0000
1000
0100
0000
0100
0000
0001
1000
0000
0001
0010
0000
0010
0000
0000
,
1000
0000
0001
0100
0000
0100
0000
1000
0010
0000
0100
1000
0000
1000
0000
0000
,
0001
0000
0010
0100
0000
0100
0000
0001
1000
0000
0100
0010
0000
0001
0000
0000
,
1000
0000
0010
0100
0000
0100
0000
0001
0010
0000
0001
0100
0000
0100
0000
0000
,
0010
0000
1000
0100
0000
0100
0000
0010
1000
0000
0001
0100
0000
0100
0000
0000
,
1000
0000
0001
0100
0000
0100
0000
0010
1000
0000
0010
0100
0000
0001
0000
0000
,
1000
0000
0001
0010
0000
0100
0000
1000
0001
0000
0000
0110
0000
0000
1001
0000
,
0000
0000
0001
0000
0001
0100
0010
0000
1000
0000
0001
1000
0100
0000
0100
0000
,
0010
0000
0001
0000
0010
0000
0100
0000
1000
0000
0001
0100
0010
0000
0010
0000
,
1000
0000
0010
0000
0100
0000
0001
0000
1000
0000
0100
1000
0001
0000
0001
0000
,
0010
0000
0100
0000
0010
0000
0001
0000
0010
0000
0100
1000
0100
0000
0100
0000
,
1000
0000
0010
0000
0100
0000
1000
0000
0001
0000
0010
1000
0100
0000
0100
0000
,
1000
0000
0001
0000
0100
0000
0100
0000
0001
0000
0010
0001
1000
0000
0010
0000
,
0010
0000
0100
0000
0100
0000
0001
0000
1000
0000
0001
0100
0010
0000
0001
0000
,
0010
0000
0010
0000
1000
0000
1000
0000
0100
0000
0001
0100
1000
0000
0100
0000
,
0010
0000
0010
0000
0220
0000
0330
0000
1001
0000
0001
0000
1000
0010
0000
0000
,
0101
0000
0010
0000
2200
0000
3300
0000
1001
0000
1000
0000
0010
0100
0000
0000
,
0011
0000
0100
0000
2020
0000
3030
0000
0101
0000
1000
0000
0100
0010
0000
0000
,
0011
0000
1000
0000
0202
0000
0303
0000
1001
0000
0001
0000
0100
0010
0100
0000
,
0002
0000
0013
0000
2000
0000
3010
0000
1100
0000
0001
0000
1000
0100
0000
0100
,
0001
0000
0100
1000
0001
0000
0100
0000
0110
0000
1000
0000
0001
0100
0000
0100
,
1000
0000
0100
0001
1000
0000
0010
0000
1100
0000
1000
0001
1000
0000
0010
0100
,
0010
0000
1000
0100
1000
0000
0001
0010
0100
1000
0100
1000
0010
0100
0010
0100
,
0001
0010
0100
1000
0010
0100
0001
1000
0100
0000
1200
0000
0000
0301
0000
0000
,
1020
0000
0000
0031
0000
0000
1200
0000
0000
0301
0000
0000
1020
0000
0000
0031
,
0000
0000
1000
0100
1000
0100
0010
0001
0000
0000
0201
0000
0000
1300
0000
0000
,
0021
0000
0000
1030
0000
0000
0201
0000
0000
1300
0000
0000
0021
0000
0000
1030
,
0000
0000
0001
0100
0001
1000
0010
1000
0001
0000
0010
0100
0000
1000
0000
1000
,
0001
0000
1000
0010
0000
1100
0000
0000
0001
0000
1000
0010
0000
0010
0000
0100
,
0001
0000
1000
0100
0000
0011
0000
0000
1000
0000
0001
0010
0000
0010
0000
1000
,
0010
0000
0100
1000
0000
0101
0000
0000
0001
1000
0001
1000
0000
0010
0000
0010
,
0100
0000
0001
0010
0000
1100
0000
0000
0001
0000
1000
0010
0000
0100
0000
1000
,
0001
0000
0010
1000
0000
1010
0000
0001
0010
0000
1000
0010
0000
0100
0000
1000
,
0001
0000
0100
0010
0000
1001
0000
1000
0010
0100
0010
0100
0010
0100
0010
0100
,
0001
1000
0001
1000
0001
1000
0001
1000
0010
0100
0001
1000
0010
0100
0001
1000
,
0100
0010
0001
1000
0100
0010
0001
2000
0002
0000
0000
0000
0000
0000
0000
0000
,
0000
0000
0000
0000
,
3003
0000
0000
0000
;
