#TITLE:RED ZONE;
#SUBTITLE:;
#ARTIST:Tatsh&NAOKI;
#TITLETRANSLIT:;
#SUBTITLETRANSLIT:;
#ARTISTTRANSLIT:;
#GENRE:;
#CREDIT:;
#MUSIC:RED ZONE.ogg;
#BANNER:RED ZONE.png;
#BACKGROUND:RED ZONE-bg.png;
#CDTITLE:./CDTitles/BeatmaniaIIDX.png;
#SAMPLESTART:26.180;
#SAMPLELENGTH:15.000;
#SELECTABLE:YES;
#OFFSET:0.000;
#BPMS:0.000=165.000;
#STOPS:;
#BGCHANGES:;
#FGCHANGES:;

//--------------- dance-single - KONAMI ----------------
#NOTES:
     dance-single:
     KONAMI:
     Beginner:
     4:
     0,0,0,0,0:
0000
0000
0000
0000
,
0000
0000
0000
0000
,
0000
0000
0000
0000
,
0000
0000
0000
0000
,
0000
0000
0000
0000
,
0000
0000
0000
0000
,
0100
0000
0100
0000
,
0010
0000
0010
0000
,
0100
0000
0100
0000
,
0010
0000
0010
0000
,
1000
0000
1000
0000
,
0001
0000
0001
0000
,
0100
0100
0100
0000
,
0010
0010
0010
0000
,
0001
0000
0001
0000
,
1000
0000
1000
0000
,
0010
0010
0010
0000
,
0100
0000
1001
0000
,
0010
0000
1000
0000
,
0010
0000
1000
0000
,
0100
0000
0001
0000
,
0100
0000
0001
0000
,
0010
0000
1000
0000
,
0100
0000
0001
0000
,
0100
0000
1000
0000
,
0010
0000
0001
0000
,
1000
1000
1000
0000
,
0001
0000
1001
0000
,
0001
0001
0001
0000
,
1000
0000
1001
0000
,
0010
0010
0010
0000
,
0100
0000
0110
0000
,
0100
0100
0100
0000
,
0010
0000
0110
0000
,
1000
0000
1000
0000
,
0001
0001
0001
0000
,
0010
0000
0010
0000
,
0100
0100
0100
0000
,
0001
0000
0001
0000
,
1000
1000
1000
0000
,
0100
0000
0100
0000
,
0010
0010
0010
0000
,
1000
1000
1000
0000
,
0001
0000
1001
0000
,
0001
0001
0001
0000
,
1000
0000
1001
0000
,
0010
0010
0010
0000
,
0100
0000
0110
0000
,
0100
0100
0100
0000
,
0010
0000
0110
0000
,
1001
0000
0000
0000
,
1000
1000
1000
0000
,
0100
0100
0100
0000
,
0001
0001
0001
0000
,
0010
0010
0010
0000
,
1000
0000
0001
0000
,
0100
0000
0010
0000
,
0001
0000
1000
0000
,
0010
0000
0100
0000
,
0010
0000
0010
0000
,
0100
0000
0100
0000
,
1001
0000
0000
0000
;

//--------------- dance-single - KONAMI ----------------
#NOTES:
     dance-single:
     KONAMI:
     Easy:
     6:
     0,0,0,0,0:
0000
0000
0000
0000
,
0000
0000
0000
0000
,
0000
0000
0000
0000
,
0000
0000
0000
0000
,
0000
0000
0000
0000
,
0000
0000
0000
0000
,
0100
1000
0100
1000
,
0100
0010
0100
0010
,
0100
0001
0100
0001
,
0100
0100
0010
0110
,
1000
0000
1000
0000
,
0100
0010
0100
0001
,
0100
0000
0100
0010
,
1000
0000
1000
1001
,
0001
0000
0001
0000
,
0100
0010
0100
1000
,
0100
0000
0100
0010
,
0001
0000
0001
1001
,
0010
1000
0010
0000
,
0100
0000
0010
1010
,
0100
0001
0100
0000
,
0001
0000
0010
0011
,
0100
1000
0100
0000
,
0010
0000
0100
1100
,
0010
0001
0010
0000
,
0001
0000
0100
0101
,
1000
1000
0100
1000
,
0100
0010
0001
0011
,
0001
0001
0100
1000
,
0100
0010
1000
1010
,
0001
0001
0010
0001
,
0010
0100
1000
1100
,
1000
1000
0010
0001
,
0010
0100
0001
0101
,
0201
0000
0001
0000
,
0001
0001
0001
0300
,
1020
0000
1000
0000
,
1000
1000
1000
0030
,
2010
0000
0010
0000
,
0010
0010
0010
3000
,
0102
0000
0100
0000
,
0100
0100
0100
0003
,
1000
1000
0100
1000
,
0100
0010
0001
0011
,
0001
0001
0100
1000
,
0100
0010
1000
1010
,
0001
0001
0010
0001
,
0010
0100
1000
1100
,
1000
1000
0010
0001
,
0010
0100
0001
0101
,
0020
0000
0000
0030
,
1000
1000
0100
0100
,
0010
0001
0010
0010
,
0001
0001
0100
0100
,
0010
1000
0010
0010
,
0100
0010
0100
0010
,
0100
1000
0100
0001
,
0100
0010
0100
0010
,
0100
0001
0100
1000
,
0001
0000
0000
0001
0000
0000
0001
0000
,
1000
0000
0000
1000
0000
0000
1000
0000
,
2002
0000
0000
0000
,
3003
0000
0000
0000
;

//--------------- dance-single - KONAMI ----------------
#NOTES:
     dance-single:
     KONAMI:
     Medium:
     8:
     0,0,0,0,0:
0000
0000
0000
0000
,
0000
0000
0000
0000
,
0000
0000
0000
0000
,
0000
0000
0000
0000
,
0000
0000
0000
0000
,
0000
0000
0000
0000
,
1000
0100
0001
0100
,
1000
0100
0001
0100
,
0010
0100
0010
0100
,
0000
0001
0000
0000
1000
0000
0000
0001
0000
0000
0000
0000
1001
0000
0000
0000
,
0010
1000
0010
0000
0100
0000
0100
0000
,
0001
0100
1000
0100
,
0010
0000
0000
0001
0000
0000
0010
0000
0000
0001
0000
0000
1000
0000
0000
0000
,
0010
0000
0000
1000
0000
0000
0010
0000
0000
1000
0000
0000
0001
0000
0000
0000
,
0010
0001
0010
0000
0100
0000
0100
0000
,
1000
0100
0001
0100
,
0010
0000
0000
1000
0000
0000
0010
0000
0000
1000
0000
0000
0001
0000
0000
0000
,
0100
0000
0100
0001
0010
0000
1001
0000
,
0010
0100
0010
0100
,
0001
0100
0001
0000
0010
0000
1100
0000
,
0010
0100
0010
0100
,
1000
0100
1000
0000
0010
0000
0101
0000
,
1000
0001
1000
0001
,
0100
0010
0100
0000
0001
0000
1010
0000
,
0001
1000
0001
1000
,
0010
0100
0010
0000
1000
0000
0101
0000
,
0010
1000
0010
0000
0100
0000
1001
0000
,
0100
0001
0100
0001
,
0010
0001
0010
0000
0100
0000
1001
0000
,
0100
0000
0000
0100
0000
0000
0010
0000
0000
0010
0000
0000
0110
0000
0000
0000
,
0100
1000
0100
0000
0010
0000
1001
0000
,
0010
0001
0010
0001
,
0100
0001
0100
0000
0010
0000
1001
0000
,
0100
0010
0100
0000
0101
0000
1010
0000
,
0201
0000
0010
0000
,
0001
0010
0001
0310
,
1020
0000
0100
0000
,
1000
0100
1000
0130
,
2010
0000
0001
0000
,
0010
0001
0010
3001
,
0102
0000
1000
0000
,
0100
1000
0100
1003
,
0010
0001
0010
0000
0100
0000
1001
0000
,
0100
1000
0100
1000
,
0010
1000
0010
0000
0100
0000
1001
0000
,
0100
0000
0000
0100
0000
0000
0010
0000
0000
0010
0000
0000
0110
0000
0000
0000
,
0100
0001
0100
0000
0010
0000
1001
0000
,
0010
1000
0010
1000
,
0100
1000
0100
0000
0010
0000
1001
0000
,
0100
0010
0100
0000
1100
0000
0011
0000
,
0220
0000
0000
0330
,
0100
1000
0100
0000
1000
0100
1000
0000
,
0100
0010
0100
0000
0010
0000
1001
0000
,
0100
0001
0100
0000
0001
0100
0001
0000
,
0100
0010
0100
0000
0010
0000
1001
0000
,
0010
1000
0010
0000
1000
0100
1000
0000
,
0100
0010
0100
0000
0010
0000
0011
0000
,
0010
0001
0010
0000
0001
0100
0001
0000
,
0100
0010
0100
0000
0010
0000
1010
0000
,
0100
0000
0000
0100
0000
0001
1000
0000
,
0010
0000
0000
0010
0000
1000
0001
0000
,
2002
0000
0000
0000
,
3003
0000
0000
0000
;

//--------------- dance-single - KONAMI ----------------
#NOTES:
     dance-single:
     KONAMI:
     Hard:
     12:
     0,0,0,0,0:
0000
0000
0000
0000
,
0000
0000
0000
0000
,
0000
0000
0000
0000
,
0000
0000
0000
0000
,
0000
0000
0000
0000
,
0000
0000
0000
0000
,
0010
1000
0010
0000
0100
0001
0100
0000
,
0010
1000
0100
0010
0001
0100
0010
0000
,
0100
0001
0100
0000
0010
1000
0010
0000
,
0000
0100
0000
0000
0100
0000
0000
0010
0000
0000
0010
0000
1000
0000
0001
0000
,
0010
0100
0010
0000
0010
0001
0010
0000
,
0010
0100
0010
0001
0010
0000
0110
0000
,
0100
0000
0000
0100
0000
0000
0010
0000
0000
0010
0000
0000
0001
0000
1000
0000
,
0000
0100
0000
0000
0100
0000
0000
0010
0000
0100
0010
0000
0001
0000
1000
0000
,
0010
0100
0010
0000
0010
1000
0010
0000
,
0010
0100
0010
1000
0010
0000
0110
0000
,
0100
0000
0000
0100
0000
0000
0010
0000
0000
0000
0010
0000
0000
0100
0010
0000
,
0100
0000
0100
0001
0010
0000
1001
0000
,
1000
0100
1000
0000
0001
0010
0001
0000
,
1000
0100
0010
0001
0100
0000
0110
0000
,
0001
0100
0001
0000
1000
0010
1000
0000
,
0001
0100
0010
1000
0100
0010
0110
0000
,
0100
1000
0100
0000
0010
0001
0010
0000
,
0100
1000
0001
0010
0100
0000
0110
0000
,
0010
0001
0010
0000
0100
1000
0100
0000
,
0010
0001
1000
0100
0010
0100
0110
0000
,
0010
0000
0100
0000
0010
0000
0000
0001
0000
1000
0000
0000
0001
0000
1000
0000
,
0100
0000
0010
0000
0100
1000
0000
1000
0001
0000
0001
0100
0000
0000
0000
0000
,
0001
0000
1000
0000
0001
0000
0000
0100
0000
0010
0000
0000
0100
0000
0010
0000
,
1000
0100
0000
0100
0010
0000
0010
0001
0000
0001
1000
0000
0010
0000
0100
0000
,
0010
0000
0100
0000
0010
0000
0000
1000
0000
0001
0000
0000
1000
0000
0001
0000
,
0010
0100
0000
0100
0000
0000
0010
0000
0000
1000
0000
0000
0001
0000
0000
0000
,
1000
0000
0001
0000
0000
0100
0000
0000
0010
0000
0000
1000
0000
0000
0100
0000
,
0000
0000
0010
0000
0000
0001
0000
0000
0100
0000
0010
0000
0110
0000
0000
0000
,
2000
0000
0001
0000
0100
0000
3001
0100
,
0000
0010
0100
0001
0010
0000
0100
0000
,
0002
0000
1000
0000
0100
0000
1003
0100
,
0000
0010
0100
1000
0010
0100
0000
0000
,
0020
0000
1000
0000
0001
0000
1030
0100
,
0000
0010
0100
0010
0001
0100
0010
1000
,
0200
0000
1000
0000
0001
0000
1300
0010
,
0000
0100
0010
0100
0001
0010
0100
1000
,
0010
0000
0100
0000
0010
0000
0000
0001
0000
1000
0000
0000
0001
0000
1000
0000
,
0100
0000
0010
0000
0100
1000
0000
1000
0001
0000
0001
0100
0000
0000
0000
0000
,
0001
0000
1000
0000
0001
0000
0000
0100
0000
0010
0000
0000
0100
0000
0010
0000
,
1000
0100
0000
0100
0010
0000
0010
0001
0000
0001
1000
0000
0010
0000
0100
0000
,
0010
0000
0100
0000
0010
0000
0000
1000
0000
0001
0000
0000
1000
0000
0001
0000
,
0010
0100
0000
0100
0000
0000
0010
0000
0000
1000
0000
0000
0001
0000
0000
0000
,
1000
0000
0001
0000
0000
0100
0000
0000
0010
0000
0000
1000
0000
0000
0100
0000
,
0000
0000
0010
0000
0000
0001
0000
0000
0100
0000
0010
0000
0100
0000
0000
0000
,
2002
0000
0000
3003
,
0010
0100
0001
0100
0010
0100
0001
0100
,
0010
0001
1000
0001
0010
0001
1000
0001
,
0100
0010
1000
0010
0100
0010
1000
0010
,
0100
1000
0001
1000
0100
1000
0001
1000
,
0100
0010
1000
0001
0010
0100
1000
0001
,
0100
1000
0100
0001
0010
1000
0010
0001
,
0100
0010
1000
0100
0010
0001
0100
0010
,
0100
1000
0010
0001
0010
1000
0100
0010
,
1000
0000
0000
1000
0000
0000
0001
0000
0000
0000
0001
0000
1000
0000
0001
0000
,
0100
0000
0000
0100
0000
0000
0010
0000
0000
0000
0010
0000
0100
0000
0010
0000
,
2002
0000
0000
0000
,
3003
0000
0000
0000
;

//--------------- dance-single - aboutblank ----------------
#NOTES:
     dance-single:
     aboutblank:
     Challenge:
     16:
     0,0,0,0,0:
0000
0000
0000
0000
,
0000
0000
0000
0000
,
0000
0000
0000
0000
,
0000
0000
0000
0000
,
0000
0000
0000
0000
,
0000
0000
0000
0000
,
2000
0000
0000
3020
0000
0000
0230
0000
0000
0302
0000
0000
1003
0000
0001
0000
,
0100
0000
0010
1000
0010
0000
0100
0000
0001
0000
1000
0100
1000
0000
0001
0000
,
1000
0000
0100
0010
0000
0100
0010
0000
0000
0001
1000
0000
0010
0000
0100
0000
,
0000
0110
0000
0000
1001
0000
1000
0020
0000
0000
0130
0000
0001
0010
0100
1000
,
0001
0000
0100
0000
0010
0000
0100
0002
0000
0003
0100
0000
0001
1000
0100
0000
,
1000
0000
0010
0100
0001
0000
0010
0100
0000
0000
0010
0000
0001
0000
0010
0000
,
0100
0000
0000
1001
0000
0000
0010
0000
0000
1001
0000
0000
0001
1000
0001
0000
,
1000
0000
0100
0010
0001
0000
0100
0010
1000
0000
0100
0010
0001
0000
0100
0010
,
1000
0000
0010
1000
0100
0000
0010
0000
0001
0000
0010
0200
0000
0300
0010
0001
,
1000
0000
0100
0000
0010
0001
0100
0000
1000
0000
0100
0010
1000
0000
0100
0000
,
0010
0000
0000
1100
0000
0000
0010
0000
0000
0101
0000
0000
1000
0001
1000
0000
,
0010
0000
0000
0000
0010
0000
0100
0000
0001
1000
0001
1000
0001
1000
0001
0000
,
0101
0000
0000
0000
1100
0000
0000
0000
0001
0010
0000
1000
0010
0000
0001
0100
,
0010
0000
1000
0000
0010
0000
0100
0000
0001
0100
0000
1000
0100
0000
0010
0000
,
1010
0000
0000
0000
0011
0000
0000
0000
1000
0100
0000
0010
0100
0000
1000
0000
,
0010
1000
0001
0000
0010
0001
1000
0000
0010
1000
0001
0000
0000
0000
0100
0000
,
0110
0000
0000
0000
1001
0000
0000
0000
0001
1000
0000
0100
0010
0000
0001
0000
,
0100
0000
0001
0000
1000
0010
1000
0000
0001
1000
0000
0100
1000
0000
0001
0000
,
0011
0000
0000
0000
0101
0000
0000
0000
0001
1000
0000
0100
1000
0000
0001
0000
,
0010
0001
0100
0000
0010
1000
0100
0000
0010
0001
0100
0000
0000
0000
0001
0000
,
0200
0000
1000
0000
0010
0000
0000
1000
0000
0010
0000
0000
1000
0000
0310
0000
,
0000
0000
1000
0100
0000
1000
0100
0000
0010
0001
0000
0010
0001
0000
1000
0000
,
0002
0000
0010
0000
1000
0000
0000
0010
0000
1000
0000
0000
0010
0000
1003
0000
,
0001
0100
0000
0001
0100
0000
0010
1000
0000
0010
1000
0000
0001
0010
0100
1000
,
0002
0000
0100
0000
1000
0000
0000
0100
0000
1000
0000
0000
0100
0000
1003
0000
,
0001
1000
0000
0010
0000
0000
0010
0000
0001
1000
0000
0000
0100
0000
0000
0100
,
0020
0000
0100
0000
0000
0100
0000
0000
2030
0000
0000
0001
0000
0000
3002
0000
,
0000
0000
0010
0000
0000
0013
0000
0000
0011
0000
0000
0110
0000
0000
1100
0000
,
2000
0000
3010
0000
1000
0010
0100
0002
,
0000
0013
0001
0100
0010
1000
0100
1000
,
0002
0000
0013
0000
0001
0010
0100
2000
,
0000
3010
0100
0100
0001
0001
1000
0000
,
1001
0000
0001
0000
0100
0001
1000
0200
,
0000
0310
0100
0100
1000
0010
0001
0010
,
0110
0000
1000
0100
0110
0000
1000
0001
,
0101
0000
1000
0000
1100
0000
0001
0000
1000
0100
0010
0001
0100
0010
0100
0010
,
2000
0000
0010
0000
0100
0000
0000
0010
0000
0100
0000
0000
0010
0000
3100
0000
,
0000
0000
1000
0100
0000
1000
0100
0000
0010
0001
0000
0010
0001
0000
1000
0000
,
0020
0000
0100
0000
1000
0000
0000
0100
0000
1000
0000
0000
0100
0000
1030
0000
,
0001
0010
0000
0010
0100
0000
0100
1000
0000
1000
0001
0000
0001
0000
1000
0000
,
0200
0000
0010
0000
1000
0000
0000
0010
0000
1000
0000
0000
0010
0000
1300
0000
,
0001
0010
0000
0001
0000
0010
0001
0000
0100
0001
0000
0100
0001
0000
1000
0100
,
0010
0000
0101
0000
0000
0101
0000
0000
1010
0000
0000
0011
0000
0000
1010
0000
,
0000
0000
0101
0000
0000
0110
0000
0000
1010
0000
0000
1100
0000
0000
0101
0000
,
2000
0000
0000
0000
,
3001
0000
0010
0000
0100
0000
1000
0000
0001
0100
0001
0100
0010
1000
0010
1000
,
0001
0000
1000
0000
0100
0000
0010
0000
0100
1000
0100
1000
0001
0010
0001
0010
,
0100
0000
1000
0100
0010
0000
0100
1000
0010
0000
0100
0010
1000
0000
0100
0000
,
0010
0000
0001
0010
0100
0000
0010
0001
0100
0000
0001
0100
0010
0000
1000
0000
,
0100
0010
0100
0010
0001
1000
0001
0000
0100
0010
0100
0010
1000
0001
1000
0000
,
0100
1000
0100
1000
0010
0100
0010
0000
0100
0001
0100
0001
0010
0100
0010
0100
,
1000
0000
0100
0010
0001
0000
0100
0010
1000
0000
0001
1000
0100
0000
0010
0001
,
1000
0000
0010
0100
0001
0000
1000
0100
0010
0000
0001
0100
1000
0000
0100
0001
,
1000
0000
0000
0201
0000
0000
1300
0000
0000
0000
0110
0000
0100
0000
0110
0000
,
0001
0000
0000
1200
0000
0000
0301
0000
0000
0000
0110
0000
0010
0000
0110
0000
,
1001
0000
0000
0000
;

//--------------- dance-double - KONAMI ----------------
#NOTES:
     dance-double:
     KONAMI:
     Easy:
     6:
     0,0,0,0,0:
00000000
00000000
00000000
00000000
,
00000000
00000000
00000000
00000000
,
00000000
00000000
00000000
00000000
,
00000000
00000000
00000000
00000000
,
00000000
00000000
00000000
00000000
,
00000000
00000000
00000000
00000000
,
00100000
10000000
00100000
00010000
,
00001000
00000100
00001000
00010000
,
00001000
01000000
00100000
10000000
,
01000000
00010000
00001000
00011000
,
01000000
00000000
01000000
00000000
,
00100000
10000000
01000000
00010000
,
00001000
00000000
00001000
00000010
,
00000001
00000000
00000100
00000110
,
00000010
00000000
00000010
00000000
,
00000100
00000001
00000010
00001000
,
00010000
00000000
00010000
01000000
,
10000000
00000000
00100000
01100000
,
00100000
10000000
00100000
00000000
,
10000000
00000000
01000000
11000000
,
01000000
00010000
01000000
00000000
,
00010000
00000000
00001000
00011000
,
00000010
00000001
00000010
00000000
,
00000001
00000000
00000100
00000101
,
00000100
00001000
00000100
00000000
,
00001000
00000000
00010000
00011000
,
00100000
10000000
01000000
00100000
,
01000000
00010000
00001000
00011000
,
00000010
00000001
00000100
00000010
,
00000100
00001000
00010000
00011000
,
01000000
10000000
00100000
01000000
,
00100000
00010000
00001000
00011000
,
00000100
00000001
00000010
00000100
,
00000010
00001000
00010000
00011000
,
00200000
00000000
10000000
00000000
,
01000000
10000000
01000000
00300000
,
20000000
00000000
01000000
00000000
,
00010000
01000000
00010000
30000000
,
02000000
00000000
00001000
00000000
,
00010000
00001000
00010000
03000000
,
00002000
00000000
00100000
00000000
,
01000000
00100000
01000000
00003000
,
00100000
10000000
01000000
00100000
,
01000000
00010000
00001000
00011000
,
00000010
00000001
00000100
00000010
,
00000100
00001000
00010000
00011000
,
01000000
10000000
00100000
01000000
,
00100000
00010000
00001000
00011000
,
00000100
00000001
00000010
00000100
,
00000010
00001000
00010000
00011000
,
02000000
00000000
00000000
03000000
,
10000000
10000000
00100000
00100000
,
00010000
00001000
00010000
00000100
,
00000010
00000010
00000001
00000001
,
00000100
00001000
00010000
01000000
,
10000000
00100000
00010000
00100000
,
10000000
01000000
00010000
00001000
,
00000010
00000001
00000010
00001000
,
00010000
01000000
00100000
00001000
,
00010000
00000000
00000000
00010000
00000000
00000000
00010000
00000000
,
00001000
00000000
00000000
00001000
00000000
00000000
00001000
00000000
,
00022000
00000000
00000000
00000000
,
00033000
00000000
00000000
00000000
;

//--------------- dance-double - KONAMI ----------------
#NOTES:
     dance-double:
     KONAMI:
     Medium:
     8:
     0,0,0,0,0:
00000000
00000000
00000000
00000000
,
00000000
00000000
00000000
00000000
,
00000000
00000000
00000000
00000000
,
00000000
00000000
00000000
00000000
,
00000000
00000000
00000000
00000000
,
00000000
00000000
00000000
00000000
,
00100000
10000000
01000000
00010000
,
01000000
00010000
00001000
00000010
,
00000001
00000100
00001000
00010000
,
00000000
00001000
00000000
00000000
00010000
00000000
00000000
00001000
00000000
00000000
00000000
00000000
00011000
00000000
00000000
00000000
,
00100000
10000000
00100000
00000000
10000000
00000000
01000000
00000000
,
00100000
00001000
00010000
00000100
,
00001000
00000000
00000000
00000001
00000000
00000000
00000100
00000000
00000000
00000010
00000000
00000000
00001000
00000000
00000000
00000000
,
00000100
00000000
00000000
00000010
00000000
00000000
00000001
00000000
00000000
00001000
00000000
00000000
00000100
00000000
00000000
00000000
,
00000010
00000001
00000010
00000000
00000001
00000000
00000100
00000000
,
00000010
00010000
00001000
01000000
,
00010000
00000000
00000000
10000000
00000000
00000000
01000000
00000000
00000000
00100000
00000000
00000000
00010000
00000000
00000000
00000000
,
01000000
00000000
01000000
00010000
00100000
00000000
00011000
00000000
,
00000010
00001000
00000010
00000001
,
00000100
00001000
00000100
00000000
00001000
00000000
00011000
00000000
,
00100000
00010000
00100000
10000000
,
01000000
00010000
01000000
00000000
00010000
00000000
00011000
00000000
,
00000010
00001000
00000010
00000001
,
00000100
00001000
00000100
00000000
00001000
00000000
00011000
00000000
,
00100000
00010000
00100000
10000000
,
01000000
00010000
01000000
00000000
00010000
00000000
00011000
00000000
,
00000010
00000100
00000010
00000000
00000001
00000000
00000101
00000000
,
00001000
00010000
00100000
10000000
,
01000000
00100000
01000000
00000000
10000000
00000000
00110000
00000000
,
00001000
00000000
00000000
00001000
00000000
00000000
00000100
00000000
00000000
00000100
00000000
00000000
00000110
00000000
00000000
00000000
,
00000001
00000100
00000001
00000000
00001000
00000000
00010100
00000000
,
00001000
00010000
01000000
00100000
,
10000000
01000000
10000000
00000000
00010000
00000000
01001000
00000000
,
00010000
00000010
00001000
00000000
00000100
00000000
00000011
00000000
,
00001200
00000000
00010000
00000000
,
00001000
00010000
00001000
00010300
,
00102000
00000000
01000000
00000000
,
00100000
01000000
00100000
01003000
,
10020000
00000000
01000000
00000000
,
10000000
01000000
10000000
01030000
,
10200000
00000000
01000000
00000000
,
10000000
01000000
10000000
01300000
,
00100000
01000000
00100000
00000000
10000000
00000000
11000000
00000000
,
00010000
00001000
00000010
00000001
,
00000100
00000010
00000100
00000000
00000001
00000000
00001010
00000000
,
00010000
00000000
00000000
00010000
00000000
00000000
01000000
00000000
00000000
01000000
00000000
00000000
01100000
00000000
00000000
00000000
,
10000000
01000000
10000000
00000000
00010000
00000000
01001000
00000000
,
00010000
00001000
00000100
00000010
,
00000001
00000100
00000001
00000000
00001000
00000000
00010100
00000000
,
00001000
00100000
00010000
00000000
01000000
00000000
10100000
00000000
,
02200000
00000000
00000000
03300000
,
00100000
10000000
00100000
00000000
10000000
01000000
10000000
00000000
,
01000000
00010000
01000000
00000000
00010000
00000000
00011000
00000000
,
00000010
00000001
00000010
00000000
00000001
00000100
00000001
00000000
,
00000100
00001000
00000100
00000000
00001000
00000000
00011000
00000000
,
01000000
10000000
01000000
00000000
10000000
00100000
10000000
00000000
,
00100000
00010000
00001000
00000000
00010000
00000000
00011000
00000000
,
00000100
00000001
00000100
00000000
00000001
00000010
00000001
00000000
,
00000010
00001000
00010000
00000000
00001000
00000000
00011000
00000000
,
00100000
00000000
00000000
10000000
00000000
00010000
01000000
00000000
,
00001000
00000000
00000000
00010000
00000000
00000100
00000010
00000000
,
00002002
00000000
00000000
00000000
,
00003003
00000000
00000000
00000000
;

//--------------- dance-double - KONAMI ----------------
#NOTES:
     dance-double:
     KONAMI:
     Hard:
     11:
     0,0,0,0,0:
00000000
00000000
00000000
00000000
,
00000000
00000000
00000000
00000000
,
00000000
00000000
00000000
00000000
,
00000000
00000000
00000000
00000000
,
00000000
00000000
00000000
00000000
,
00000000
00000000
00000000
00000000
,
00100000
10000000
00100000
00000000
10000000
01000000
10000000
00000000
,
01000000
00100000
00001000
00010000
00000100
00000000
00000110
00000000
,
00000010
00000001
00000010
00000000
00000001
00000100
00000001
00000000
,
00000000
00000100
00000000
00000000
00000100
00000000
00000000
00000010
00000000
00000000
00000010
00000000
00010000
00000000
00001000
00000000
,
01000000
00100000
01000000
00000000
00100000
10000000
00100000
00000000
,
10000000
01000000
00010000
01000000
00100000
00000000
00101000
00000000
,
00010000
00000000
00000000
00010000
00000000
00000000
00001000
00000000
00000000
00001000
00000000
00000000
00010000
00000000
00000010
00000000
,
00000000
00000100
00000000
00000000
00000100
00000000
00000000
00000010
00000000
00000000
00000010
00000000
00001000
00000000
00000001
00000000
,
00000100
00000010
00000100
00000000
00000010
00001000
00000010
00000000
,
00001000
00000010
00000001
00000010
00000100
00000000
00001100
00000000
,
00010000
00000000
00000000
00010000
00000000
00000000
00001000
00000000
00000000
00000000
00001000
00000000
00000000
00000000
00100000
00000000
,
01000000
00000000
01000000
10000000
00100000
00000000
01100000
00000000
,
01000000
00010000
01000000
00000000
01000000
00100000
01000000
00000000
,
00100000
00010000
00001000
00010000
00000100
00000000
00000110
00000000
,
00000100
00001000
00000100
00000000
00000100
00000010
00000100
00000000
,
00000010
00001000
00010000
00001000
01000000
00000000
01100000
00000000
,
00100000
10000000
00100000
00000000
01000000
00010000
01000000
00000000
,
00001000
00010000
00000100
00000010
00000001
00001000
00001100
00000000
,
00000010
00000001
00000010
00000000
00000100
00001000
00000100
00000000
,
00010000
00001000
01000000
00100000
10000000
00010000
01010000
00000000
,
00100000
01000000
00100000
00000000
10000000
00000000
11000000
00000000
,
00010000
00001000
00010000
00000010
00000100
00000000
00000101
00000000
,
00000010
00000100
00000010
00000000
00000001
00000000
00000101
00000000
,
00001000
00010000
00001000
00100000
01000000
00000000
11000000
00000000
,
00100000
01000000
00100000
00010000
10000000
00000000
11000000
00000000
,
00010000
00001000
00010000
00000010
00000100
00000000
00000101
00000000
,
00000010
00000100
00000010
00001000
00000001
00000000
00000101
00000000
,
00001000
00010000
00001000
00100000
01000000
00000000
11000000
00000000
,
20000000
00000000
01000000
00000000
00010000
00000000
31000000
00010000
,
00000000
00001000
01000000
00100000
00010000
00001000
00000100
00000010
,
00002000
00000000
00000100
00000000
00000001
00000000
00003100
00000001
,
00000000
00000100
00000010
00000001
00000100
00000010
00000000
00000000
,
00000002
00000000
00000010
00000000
00001000
00000000
00000013
00001000
,
00000000
00000100
00010000
00001000
00100000
01000000
10000000
00100000
,
00020000
00000000
00100000
00000000
10000000
00000000
00130000
10000000
,
00000000
00100000
01000000
00010000
00100000
01000000
01010000
00000000
,
00100000
01000000
00100000
00000000
10000000
00000000
11000000
00000000
,
00010000
00001000
00010000
00000010
00000100
00000000
00000101
00000000
,
00000010
00000100
00000010
00000000
00000001
00000000
00000101
00000000
,
00001000
00010000
00001000
00100000
01000000
00000000
11000000
00000000
,
00100000
01000000
00100000
00010000
10000000
00000000
11000000
00000000
,
00010000
00001000
00010000
00000010
00000100
00000000
00000101
00000000
,
00000010
00000100
00000010
00001000
00000001
00000000
00000101
00000000
,
00001000
00010000
00001000
00100000
01000000
00000000
11000000
00000000
,
20020000
00000000
00000000
30030000
,
00100000
01000000
00010000
01000000
10000000
01000000
00010000
00001000
,
00000100
00000010
00000100
00000001
00000100
00001000
00010000
00100000
,
10000000
00010000
10000000
00100000
10000000
01000000
00010000
00001000
,
00000100
00000010
00001000
00000100
00000010
00000001
00000100
00001000
,
00010000
01000000
00010000
00001000
00010000
01000000
00010000
00001000
,
00000100
00000001
00000100
00000010
00000100
00000001
00000100
00000010
,
00010000
00001000
01000000
00001000
00010000
00001000
01000000
00001000
,
00100000
01000000
00010000
01000000
00100000
01000000
00010000
00001000
,
00000100
00000000
00000000
00000100
00000000
00000000
00000010
00000000
00000000
00000000
00000010
00000000
00010000
00000000
00001000
00000000
,
01000000
00000000
00000000
01000000
00000000
00000000
00100000
00000000
00000000
00000000
00100000
00000000
00010000
00000000
00001000
00000000
,
00022000
00000000
00000000
00000000
,
00033000
00000000
00000000
00000000
;

//--------------- dance-double - forcednature ----------------
#NOTES:
     dance-double:
     forcednature:
     Challenge:
     17:
     0,0,0,0,0:
00000000
00000000
00000000
00000000
,
00000000
00000000
00000000
00000000
,
00000000
00000000
00000000
00000000
,
00000000
00000000
00000000
00000000
,
00000000
00000000
00000000
00000000
,
00000000
00000000
00000000
00000000
00000000
00000000
00000000
00000000
00000000
00000000
00000000
00000000
00010000
00000000
00000000
00010000
00000000
00000000
00001000
00000000
00001000
00000000
00001000
00000000
,
00010000
00001000
00000000
00001000
01000000
00000000
01000000
00010000
00000000
00010000
10000000
00000000
10000000
01000000
00100000
00000000
,
00010000
00100000
00010000
00000000
01000000
00010000
01000000
00000000
00001000
00010000
00001000
00000000
00010000
00000100
00010000
00000000
,
00000100
00001000
00000000
00001000
00000001
00000000
00000001
00000100
00000000
00000100
00000010
00000000
00001000
00000100
00000010
00000001
,
00000000
00001001
00000000
00000000
00001001
00000000
00000001
00000100
00000010
00001000
00000010
00000000
00010000
00001000
00010000
00000100
,
00001000
00000010
00001000
00000001
00001000
00000100
00001000
00010000
,
01000000
00010000
10000000
00010000
00100000
00010000
00001000
00000010
,
00001000
00000100
00000000
00000100
00000010
00000000
00000010
00000001
00000000
00000001
00000100
00000000
00001000
00010000
00001000
00000000
,
01000000
00010000
01000000
00000000
00100000
10000000
00100000
00000000
10000000
01000000
10000000
00000000
00010000
00100000
00010000
00100000
,
00010000
01000000
00010000
10000000
00010000
00100000
00010000
00001000
,
00000010
00001000
00000001
00001000
00000100
00001000
00010000
01000000
,
00010000
00100000
00000000
00100000
01000000
00000000
01000000
10000000
00000000
10000000
00100000
00000000
01000000
00010000
01000000
00000000
,
00002000
00000000
00000000
00000000
00000000
00000000
00000000
00000000
00003010
00000100
00001000
00000100
00000010
00000001
00001000
00000001
,
00000100
00000000
00001000
00000000
00010000
00000000
00100000
00000000
10000000
00010000
10000000
01000000
00000000
00100000
00010000
00100000
,
00001000
00010000
00001000
00000000
00000010
00000000
00000100
00000000
00001000
00000100
00000010
00000001
00000000
00001000
00000001
00000100
,
00000001
00000000
00000010
00000000
00000100
00000000
00000010
00000000
00000001
00000100
00000001
00001000
00000000
00000000
00000010
00000000
,
00010000
00001000
00010000
00000100
00001000
00000000
00000010
00000000
00010000
00001000
00010000
00000000
00100000
10000000
00100000
01000000
,
00010000
00100000
00010000
00000000
01000000
00000000
00100000
00000000
10000000
01000000
00100000
00010000
00000000
00000000
01000000
00010000
,
01000000
00000000
00001000
00000000
00010000
00000000
00001000
00000000
00000010
00000100
00001000
00000100
00000000
00000010
00000001
00001000
,
00000001
00000000
00000100
00000000
00001000
00000000
00010000
00000000
00100000
10000000
00010000
10000000
00000000
00000000
01000000
00000000
,
00100000
00010000
00100000
00001000
00010000
00000000
00100000
00000000
10000000
00010000
10000000
00000000
01000000
00100000
00010000
00000000
,
01010000
00000000
01000000
00000000
00001000
00000000
00000100
00001000
00000000
01000000
00000000
00001000
00000100
00000000
00001000
00000000
,
00010000
00000000
00000100
00000000
00001000
00000010
00000000
00000001
00000010
00000000
00000100
00000020
00000000
00000000
00000030
00000000
,
00001010
00000000
00000010
00000000
00010000
00000000
00100000
00010000
00000000
00000010
00000000
00010000
00100000
00000000
00010000
00000000
,
00001000
01000000
00001000
00100000
00010000
00100000
01000000
10000000
01000000
00100000
00010000
01000000
00001000
00010000
00001000
00000000
,
00110000
00000000
00100000
00000000
00001000
00000000
00000010
00001000
00000000
00100000
00000000
00001000
00000010
00000000
00001000
00000000
,
00010000
00001000
00010000
00000100
00001000
00000000
00000010
00001000
00000000
00000001
00000100
00000000
00001000
00000000
00010000
00000100
,
00020000
00000000
00001000
00000000
00000000
00001000
00000000
00000000
00100000
00000000
00000000
00001000
00000000
00000000
00000100
00000000
,
00000000
00000000
00001000
00000000
00000000
01000000
00000000
00000000
00031000
00010000
00001000
01000000
00010000
10000000
00010000
00100000
,
01000000
00000000
00001000
00000000
00000010
00000010
00000000
00000100
,
00000000
00001000
00010000
01000000
00100000
00001000
00010000
01000000
,
00100000
00000000
00100000
00000000
00001000
00001000
00000000
00010000
,
00000000
00000000
00100000
00000000
10000000
00000000
01000000
00100000
00010000
00000000
00010000
00000000
00010000
00000000
00000000
00000000
,
01010000
00000000
00011000
00000000
00000100
00010000
00011000
00000000
,
00001100
00000000
00000101
00000000
00000001
00001000
00001010
00000000
,
00000011
00000000
00000100
00000000
00001010
00001000
00000001
00000100
,
00000010
00000010
00010000
00010000
00001000
00001000
00100000
00100000
,
00110000
00000000
00100000
00000000
00001000
00000000
00000100
00001000
00000000
00100000
00000000
00001000
00000100
00000000
00001000
00000000
,
00010000
00000000
00000100
00000000
00001000
00000010
00000000
00000010
00000100
00000000
00000100
00000001
00000000
00000000
00000000
00000000
,
00001010
00000000
00000010
00000000
00010000
00000000
01000000
00010000
00000000
00000010
00000000
00010000
01000000
00000000
00010000
00000000
,
00001000
00010000
00001000
01000000
00010000
01000000
00001000
00010000
00001000
00100000
00010000
00100000
01000000
10000000
00010000
00000000
,
01010000
00000000
01000000
00000000
00001000
00000000
00000010
00001000
00000000
01000000
00000000
00001000
00000010
00000000
00001000
00000000
,
00010000
00000100
00001000
00000100
00000010
00000000
00000001
00001000
00000000
00000001
00000100
00000000
00000010
00000000
00001000
00000020
,
00010000
00000000
00010000
00000000
00000000
00001000
00000000
00000000
00000100
00000000
00000000
00000001
00000000
00000000
00000100
00000000
,
00000000
00000000
00001000
00000000
00000000
00010030
00000000
00000000
00011000
00000000
00000000
00011000
00000000
00000000
00022000
00000000
,
00000000
00000000
00000000
00000000
00000000
00000000
00000000
00033000
,
00001000
00010000
00001000
01000000
00010000
01000000
00100000
00000000
10000000
01000000
00100000
00000000
00010000
01000000
00100000
00000000
,
10000000
00010000
01000000
00010000
01000000
00001000
00010000
00000000
00000100
00001000
00000100
00000000
00000010
00000001
00000010
00000000
,
00000100
00001000
00000001
00000100
00000001
00001000
00000010
00000000
00001000
00000100
00000010
00000100
00001000
00000100
00010000
00000000
,
00001000
01000000
00010000
01000000
00100000
10000000
00010000
00000000
10000000
01000000
00100000
00010000
10000000
00010000
01000000
00001000
,
00010000
00001000
00010000
00000000
00000100
00001000
00000100
00000000
00001000
00000010
00001000
00000000
00000100
00000010
00000100
00000000
,
00010000
00000010
00010000
00000000
00001000
00000010
00001000
00010000
00000100
00000000
00001000
00000000
00000001
00000100
00000010
00001000
,
00000100
00010000
00001000
01000000
00001000
00010000
00001000
00000000
00100000
00010000
00100000
01000000
10000000
00010000
01000000
00000000
,
00001000
00010000
00000100
00001000
00000100
00010000
00001000
00010000
00000010
00001000
00000001
00000010
00000100
00001000
00000100
00000010
,
00000001
00000000
00000000
00000101
00000000
00000000
00001100
00000000
00000000
00000000
00011000
00000000
00010100
00000000
00011000
00000000
,
01001000
00000000
00000000
01010000
00000000
00000000
10010000
00000000
00000000
00000000
11000000
00000000
01100000
00000000
00110000
00000000
,
20020000
00000000
00000000
00000000
,
30030000
00000000
00000000
00000000
;
