#TITLE:REACH THE SKY (Orbit1 remix);
#SUBTITLE:;
#ARTIST:TAYA;
#TITLETRANSLIT:;
#SUBTITLETRANSLIT:;
#ARTISTTRANSLIT:;
#GENRE:;
#CREDIT:;
#MUSIC:REACH THE SKY (Orbit1 remix).ogg;
#BANNER:REACH THE SKY (Orbit1 remix).png;
#BACKGROUND:REACH THE SKY (Orbit1 remix)-bg.png;
#CDTITLE:./CDTITLES/DanceDanceRevolution HOTTEST PARTY 2.png;
#SAMPLESTART:69.165;
#SAMPLELENGTH:15.000;
#SELECTABLE:YES;
#OFFSET:0.000;
#BPMS:0.000=170.000;
#STOPS:;
#BGCHANGES:;
#FGCHANGES:;

//--------------- dance-single - eataninja ----------------
#NOTES:
     dance-single:
     eataninja:
     Beginner:
     4:
     0,0,0,0,0:
0000
0000
0000
0000
,
0000
0000
0000
0000
,
0000
0000
0000
0000
,
0000
0000
0000
0000
,
0000
0000
0000
0000
,
0001
0000
0100
0000
,
1000
0000
0010
0000
,
0001
0000
0001
0000
,
0020
0000
0030
0000
,
0100
0000
0010
0000
,
0001
0001
0001
0000
,
0100
0000
0010
0000
,
1000
0000
0000
0000
,
1000
0000
0010
0000
,
0001
0000
0010
0000
,
0100
0000
0001
0000
,
1000
0000
0000
0000
,
0100
0000
1000
0000
,
0001
0001
0001
0000
,
1000
0000
0010
0000
,
0100
0100
0100
0000
,
1001
0000
0000
0000
,
0001
0000
0010
0000
,
0200
0000
0300
0000
,
0100
0000
0000
0000
,
1000
1000
1000
0000
,
0001
0000
0100
0000
,
0001
0001
1000
0000
,
0001
0001
1000
0000
,
0100
0100
0100
0000
,
0010
0000
0001
0000
,
0100
0100
0001
0000
,
1001
0000
0000
0000
,
0000
1000
0000
1000
,
0000
0010
0000
0010
,
0000
0100
0000
0100
,
0000
0001
0000
0001
,
0000
0010
0000
0010
,
0000
0100
0000
0100
,
0000
1000
0000
1000
,
0000
0000
0000
0000
,
0000
1000
1000
1000
,
0000
0010
0010
0010
,
0000
0100
0100
0100
,
0000
0001
0001
0001
,
0000
1000
0000
0100
,
0000
0001
0000
0010
,
0000
1000
1000
1000
,
1000
0000
0000
0000
,
1000
0010
1000
0000
,
1000
1000
1000
0000
,
0001
0100
0001
0000
,
0001
0001
0001
0000
,
1000
0100
1000
0000
,
1000
1000
1000
0000
,
0001
0010
0001
0000
,
1000
0000
0010
0000
,
0100
0010
0100
0000
,
0100
0100
0100
0000
,
0001
1000
0001
0000
,
0001
0001
0001
0000
,
0010
0000
1000
0000
,
0100
0000
0001
0000
,
1000
1000
1000
1000
,
0010
0000
0010
0000
,
2002
0000
0000
0000
,
0000
0000
0000
0000
,
3003
0000
0000
0000
;

//--------------- dance-single - eataninja ----------------
#NOTES:
     dance-single:
     eataninja:
     Easy:
     7:
     0,0,0,0,0:
0000
0000
0000
0000
,
0000
0000
0000
0000
,
0000
0000
0000
0000
,
0000
0000
0000
0000
,
0000
0000
0000
0000
,
1000
1000
0100
0100
,
0010
0001
0100
0010
,
1000
1000
0001
0001
,
0200
0000
0010
0301
,
1000
0001
1000
1000
,
0100
0010
0001
1000
,
0010
0100
0010
1000
,
0001
0010
1001
0000
,
0001
0001
0100
0100
,
1000
0100
0001
0010
,
0210
0000
0310
0001
,
1001
0000
0000
0000
,
1000
1000
0010
0010
,
0100
0001
0010
0100
,
1000
0001
0010
0001
,
1000
1000
0010
0010
,
0100
0010
1000
0000
,
0100
0010
0001
0100
,
0010
0010
1000
1000
,
0020
0001
0130
0000
,
0001
1000
0001
1000
,
0100
0100
0010
0001
,
1000
0010
1000
0010
,
0100
0001
0100
0100
,
0001
0010
0001
0010
,
1000
1000
0010
0100
,
1000
0001
1000
0001
,
0210
0000
0310
0000
,
1000
1010
0000
1001
,
0000
1100
0000
1001
,
0000
0101
0000
1001
,
0000
0011
0000
1001
,
0000
1100
0000
1001
,
0000
0011
0000
1001
,
0000
0101
0000
0002
,
2000
0000
3003
0000
,
1000
1100
0100
0000
,
1000
1001
0001
0000
,
0001
0101
0100
0000
,
0001
1001
1000
0000
,
1000
1010
1000
1001
,
0001
0011
0001
1001
,
0100
0100
1000
1000
,
0002
0000
0100
0103
,
0010
1000
0010
0010
,
1000
0001
0010
0100
,
1000
0001
1000
1000
,
0100
0001
0100
0010
,
0001
1000
0001
0001
,
0100
0100
1000
1000
,
0100
0010
1000
0001
,
0010
0100
1000
1000
,
0001
1000
0010
0010
,
0100
0001
0010
0100
,
1000
1000
0001
0001
,
0010
1000
0010
0001
,
1000
1000
0010
0010
,
0100
0001
0010
0100
,
1000
0001
1000
1000
,
0010
0001
0100
1000
,
2002
0000
0000
0000
,
0000
0000
0000
0000
,
3003
0000
0000
0000
;

//--------------- dance-single - eataninja ----------------
#NOTES:
     dance-single:
     eataninja:
     Medium:
     9:
     0,0,0,0,0:
0000
0000
0000
0000
,
0000
0000
0000
0000
,
0000
0000
0000
0000
,
0000
0000
0000
0000
,
0000
0000
0000
0000
,
1000
1000
0010
0010
,
0100
0001
0010
1000
,
0010
0010
0100
0100
,
2001
0000
0001
3001
,
0100
0010
0000
0100
0000
0001
0000
1000
,
0001
1000
0000
0100
0000
0010
0000
0001
,
1000
0001
0000
0100
0000
1000
0000
0100
,
0010
1000
1001
0000
,
1000
0100
0000
0010
0000
0001
0000
1000
,
0010
0001
0000
0010
0000
0100
0000
0001
,
1000
0100
0000
0100
0000
0100
0000
0010
,
0200
0001
1000
1300
,
1000
0010
0000
0100
0000
0001
0000
0010
,
0100
1000
0000
0001
0000
1000
0000
0100
,
0010
0001
0000
0100
0000
1000
0000
0100
,
0010
0100
0000
0001
1000
1000
0001
0000
,
0010
0100
1000
0000
0010
0000
1010
0000
,
1000
0100
0010
0000
0001
0000
0101
0000
,
0100
0010
0100
0000
0001
1000
0001
0000
,
0020
0000
0100
0130
,
1000
0001
1000
0000
1000
0010
0000
0010
,
0100
0000
0100
0001
0000
1000
0000
0001
,
0000
0010
0100
0000
0010
0100
0000
0000
,
1000
0001
1000
0000
0010
0010
0010
0000
,
0100
0010
0100
0000
0010
0100
0000
1000
,
0000
1000
0100
0000
0100
0001
0000
1000
,
0000
0100
0010
0000
0001
1000
0000
0010
,
0200
1000
0001
0301
,
0000
0000
0101
0000
0100
0010
1000
0000
,
0000
0000
1001
0000
1000
0001
0010
0000
,
0000
0000
0011
0000
0010
0100
1000
0000
,
0000
0000
1001
0000
1000
0010
0100
0000
,
0000
0000
0110
0000
0010
0100
0001
0000
,
0000
0000
1001
0000
0001
0010
0100
0000
,
0000
0000
1100
0000
1000
0001
1000
0000
,
0020
0001
0100
0130
,
0001
1000
0000
0100
0010
0000
0001
0000
,
0001
1000
0000
0010
0100
0000
0001
0000
,
1000
0100
0000
0100
0001
0000
0100
0000
,
0010
0001
0000
0001
1000
0000
0010
0000
,
0100
0010
0100
0000
0001
1000
0001
0000
,
0010
0100
0010
0000
1000
0010
1000
0000
,
0010
0010
0100
0100
,
2002
0000
0000
3003
,
1000
0010
0100
0000
0010
0100
0001
0000
,
1000
0001
1000
0000
0100
0010
0001
0000
,
1000
0010
1000
0000
0001
0010
0001
0000
,
0010
0100
1000
0000
0001
1000
0001
0000
,
1000
0010
0100
0000
0010
1000
0001
0000
,
0010
1000
0010
0000
0100
1000
0001
0000
,
1000
0010
0001
0000
0010
0100
0001
0000
,
1000
0001
1000
0000
0100
0100
0010
0000
,
0001
1000
0001
0000
0100
0010
1000
0000
,
0001
0010
0100
0000
0001
0100
1000
0000
,
0001
0100
0001
0000
1000
0010
1000
0000
,
0001
0100
1000
0000
0100
0100
0010
0000
,
1000
0001
0010
0100
1000
0000
1000
0000
,
0001
1000
0010
0010
0100
0000
0010
0000
,
1000
0001
1000
0000
0001
0010
0001
0000
,
1000
0100
0001
0010
,
2002
0000
0000
0000
,
0000
0000
0000
0000
,
3003
0000
0000
0000
;

//--------------- dance-single - eataninja ----------------
#NOTES:
     dance-single:
     eataninja:
     Hard:
     12:
     0,0,0,0,0:
0000
0000
0000
0000
,
0000
0000
0000
0000
,
0000
0000
0000
0000
,
0000
0000
0000
0000
,
0000
0000
0000
0000
,
0001
0000
0000
0001
0000
0000
0001
0000
0010
0000
0000
0100
0000
0000
1000
0000
,
0002
0100
1000
0013
,
0100
0010
0100
0010
0001
1000
0001
1000
,
0020
0000
0100
0130
,
0001
0100
0001
1000
0010
0100
0001
0100
,
0010
1000
0100
0000
0010
0001
1000
0000
,
0020
0000
0100
0000
1030
0001
0010
0000
,
0200
0010
1300
1100
,
1000
0001
0100
0001
1000
0010
0100
0100
,
1000
0100
0001
0000
1000
0100
1000
0000
,
1002
0000
0000
0000
0000
0000
0010
0000
0000
0000
0000
0000
1003
0100
1000
0100
,
1000
0001
0100
0100
,
0010
1000
0001
1000
0010
0100
0001
0100
,
0010
1000
0100
0010
0001
1000
0010
0000
,
0100
0010
1000
0000
0001
1000
0100
0000
,
0010
0001
1000
0010
0100
0100
0001
0000
,
1000
0001
1000
0000
0100
0010
0001
0000
,
0001
1000
0010
0000
0100
0001
1000
0000
,
0100
0010
0100
0010
0001
1000
0001
1000
,
0020
0000
0100
0130
,
0001
1000
0010
0000
0100
0001
0000
0001
,
0010
0000
0010
0100
0000
0001
0000
0100
,
1000
0001
0010
0000
0001
0010
0000
0100
,
1000
0001
0100
0000
0010
1000
1000
0001
,
0010
0100
1000
0000
0001
0100
0000
1000
,
0000
1000
0100
0000
0010
1000
0000
0100
,
0010
0001
1000
0100
0010
0001
1000
0010
,
0200
1000
0010
0310
,
1000
0000
0001
0010
0000
0100
1100
0000
,
0001
0000
1000
0010
0000
0100
0101
0000
,
1000
0000
0010
0100
0000
0001
1001
0000
,
0001
0000
0010
0100
0000
1000
1001
0000
,
1000
0000
0001
0010
0000
0100
0110
0000
,
0001
0000
1000
0010
0000
0100
0110
0000
,
1000
0000
0001
0100
0000
1000
0100
0000
,
0020
0001
0100
0130
,
0001
0000
1000
0000
0000
0000
1000
0000
0100
0000
0000
0010
0000
0000
0001
0000
,
1000
0000
0010
0000
0000
0000
0010
0000
0100
0000
0000
0010
0000
0000
1000
0000
,
0001
0000
0010
0000
0000
0000
0010
0000
0100
0000
0000
0001
0000
0000
0100
0000
,
1000
0000
0010
0000
0000
0000
0010
0000
0100
0000
0000
1000
0000
0000
0100
0000
,
0001
1000
0001
1000
0100
0010
0100
0010
,
0001
0100
0001
0100
1000
0100
1000
0100
,
0010
1000
0100
0010
0001
0100
0010
0100
,
0002
1000
1000
0000
1000
1000
1003
0000
,
1000
0010
0100
0010
1000
0001
0010
0100
,
1000
0001
0010
0001
1000
0100
1000
0001
,
0100
0010
0100
0001
0010
0100
1000
0001
,
0100
0010
0100
0001
1000
0010
0100
0001
,
1000
0100
0010
0100
1000
0001
0100
1000
,
0100
0010
0100
0001
0010
0100
1000
0001
,
1000
0010
0100
0001
0010
1000
0010
0100
,
1000
0001
0100
0010
0100
0100
0100
0000
,
0001
1000
0001
0100
0010
1000
0100
0010
,
0001
1000
0100
1000
0001
0100
0010
0100
,
0001
1000
0010
0100
0001
0010
0100
1000
,
0001
0010
0001
0010
1000
1000
0010
0100
,
1000
0001
0100
0001
1000
0010
0100
0001
,
1000
0100
0010
0100
0001
0100
0010
0100
,
1000
0001
1000
1000
0010
0100
0010
0010
,
0200
1000
0010
0301
,
2002
0000
0000
0000
,
0000
0000
0000
0000
,
3003
0000
0000
0000
;
