#TITLE:Quesadilla;
#SUBTITLE:;
#ARTIST:Walk The Moon;
#TITLETRANSLIT:;
#SUBTITLETRANSLIT:;
#ARTISTTRANSLIT:;
#GENRE:;
#CREDIT:;
#MUSIC:Quesadilla.mp3;
#BANNER:;
#BACKGROUND:;
#CDTITLE:;
#SAMPLESTART:0.000;
#SAMPLELENGTH:0.000;
#SELECTABLE:YES;
#OFFSET:1.496;
#BPMS:0.000=142.000;
#STOPS:;
#BGCHANGES:1.496=Quesadilla.avi=1.000=1=0=0=StretchNoLoop==CrossFade==,
99999.000=-nosongbg-=1.000=0=0=0=StretchNoLoop====
;
#FGCHANGES:;

//--------------- dance-single - blank ----------------
#NOTES:
     dance-single:
     blank:
     Beginner:
     2:
     0,0,0,0,0:
0000
0000
0000
0000
,
0000
0000
0000
0000
,
0000
0000
0000
0000
,
0000
0000
0000
0000
,
0000
0000
0000
0000
,
1000
0000
0000
0000
,
1000
0000
0000
0000
,
0001
0000
0000
0000
,
0001
0000
0000
0000
,
0010
0000
0000
0000
,
0010
0000
0000
0000
,
0100
0000
0000
0000
,
0100
0000
0000
0000
,
1000
0000
0000
0000
,
1000
0000
0000
0000
,
0001
0000
0000
0000
,
0001
0000
0000
0000
,
0100
0000
0000
0000
,
0100
0000
0000
0000
,
0010
0000
0000
0000
,
0010
0000
0000
0000
,
1000
0000
0000
0000
,
1000
0000
0000
0000
,
2000
0000
0000
0000
,
3000
0000
0000
0000
,
0001
0000
0000
0000
,
0001
0000
0000
0000
,
0002
0000
0000
0000
,
0003
0000
0000
0000
,
0020
0000
0000
0000
,
0030
0000
0000
0000
,
0200
0000
0000
0000
,
0300
0000
0000
0000
,
1000
0000
0001
0000
,
1000
0000
0000
0000
,
0001
0000
1000
0000
,
0001
0000
0000
0000
,
0100
0000
0010
0000
,
0100
0000
0000
0000
,
0010
0000
0100
0000
,
0010
0000
0000
0000
,
2000
0000
3000
0000
,
1000
0000
0000
0000
,
0002
0000
0003
0000
,
0001
0000
0000
0000
,
0020
0000
0030
0000
,
0010
0000
0000
0000
,
0200
0000
0300
0000
,
0100
0000
0000
0000
,
2000
0000
3000
0000
,
1000
0000
0000
0000
,
0002
0000
0003
0000
,
0001
0000
0000
0000
,
0200
0000
0300
0000
,
0100
0100
0000
0000
,
0020
0000
0030
0000
,
0010
0010
0000
0000
,
2000
0000
3000
0000
,
1000
1000
0000
0000
,
0002
0000
0003
0000
,
0001
0001
0000
0000
,
0200
0000
0000
0000
,
0300
0000
0000
0000
,
0020
0000
0000
0000
,
0030
0000
0000
0000
,
0002
0000
0000
0000
,
2003
0000
0000
0000
,
3002
0000
0000
0000
,
0003
0000
0000
0000
,
0220
0000
0000
0000
,
0330
0000
0000
0000
,
2002
0000
0000
0000
,
3003
0000
0000
0000
;

//--------------- dance-single - blank ----------------
#NOTES:
     dance-single:
     blank:
     Easy:
     4:
     0,0,0,0,0:
0000
0000
0000
0000
,
0000
0000
0000
0000
,
0000
0000
0000
0000
,
0000
0000
0000
0000
,
0000
0000
0000
0000
,
1000
1000
0000
0000
,
0001
0001
0000
0000
,
0010
0010
0000
0000
,
0100
0100
0000
0000
,
1000
1000
0001
0000
,
0001
0001
1000
0000
,
0010
0010
0100
0000
,
0100
0100
0010
0000
,
1000
1000
0100
0000
,
0100
0100
0100
0000
,
0001
0001
0100
0000
,
0100
0100
0100
0000
,
1000
1000
0010
0000
,
0010
0010
0010
0000
,
0001
0001
0010
0000
,
0010
0010
0010
0000
,
1000
0000
0001
0000
,
1000
0000
0100
0000
,
0010
0000
0001
0000
,
0100
0100
0010
0010
,
1000
0000
0001
0000
,
0010
0000
0100
0000
,
1000
0000
0010
0000
,
1000
1000
0001
0001
,
0200
0000
0000
0000
,
0310
0000
0000
0000
,
0020
0000
0000
0000
,
0130
0000
0000
0000
,
0001
0010
0001
0000
,
1000
0100
1000
0000
,
1000
0010
1000
0000
,
0001
0100
0001
0000
,
0001
0010
0100
0000
,
0100
0010
0100
0000
,
1000
0010
0100
0001
,
1000
0001
1000
0000
,
0001
0100
0010
0000
,
1000
0000
0001
0000
,
1000
0100
0010
0000
,
0001
0000
1000
0000
,
0100
0100
0110
0000
,
0001
0001
0000
0000
,
0010
0010
0110
0000
,
1000
1000
0000
0000
,
0010
1000
1001
0000
,
0100
0100
0000
0000
,
0010
0001
1001
0000
,
0010
0010
0000
0000
,
0001
0010
0000
0110
,
1000
0100
0000
0010
,
0001
1000
0000
0110
,
0001
1000
0000
0100
,
0010
0001
0000
1001
,
0100
0010
0000
1000
,
0001
1000
0000
0110
,
0001
0010
0000
1000
,
0010
0001
0010
0001
,
1000
0001
1000
0000
,
0010
1000
0010
1000
,
0001
1000
0001
0000
,
0100
0001
0100
0001
,
1000
0010
1000
0000
,
0100
1000
0100
1000
,
0001
0010
0001
0000
,
2002
0000
0000
0000
,
3003
0000
0000
0000
,
0220
0000
0000
0000
,
0330
0000
0000
0000
;

//--------------- dance-single - blank ----------------
#NOTES:
     dance-single:
     blank:
     Medium:
     6:
     0,0,0,0,0:
0000
0000
0000
0000
,
0000
0000
0000
0000
,
0000
0000
0000
0000
,
0000
0000
0000
0000
,
0000
0000
0000
0000
,
1000
1000
0110
0000
,
0001
0001
0000
0000
,
0010
0010
0110
0000
,
0100
0100
0000
1000
,
0010
0010
0101
0000
,
0001
0001
0000
1000
,
0010
0010
2200
3300
,
0010
0010
0000
0000
,
0001
0001
0101
0000
,
0001
0001
1000
0000
,
1000
1000
1100
0000
,
1000
1000
0001
0000
,
0010
0010
0110
0000
,
0100
0100
0010
0000
,
0001
0001
0110
1000
,
0100
0000
0100
0010
0000
0000
0001
0000
,
1000
0010
0001
0010
,
1000
0100
0001
0100
,
1000
0010
0001
0100
,
0001
0001
1000
1000
,
0001
0010
1000
0010
,
0001
0100
1000
0100
,
0001
0010
1000
0100
,
0001
0001
1000
1000
,
0020
0000
0000
0000
,
0030
0000
0000
0000
,
0200
0000
0000
0000
,
0300
0000
0110
1001
,
0001
0100
1000
0100
,
0001
0000
0010
0000
0100
0000
1000
0001
,
1000
0100
0010
0001
,
0100
0000
1000
0000
0100
0000
0001
1000
,
0010
1000
0100
0001
,
0100
0000
0010
0000
0001
0000
1000
0010
,
0100
0001
0010
0001
,
1000
0010
0100
0001
,
1000
1000
1000
1000
,
0100
0000
0100
0000
0100
0000
1000
0001
,
0010
0010
0010
0010
,
0001
0000
0001
0000
0001
1000
0001
1000
,
0010
0010
0110
0000
,
0100
0100
0000
0001
,
0010
0010
1100
0001
,
1000
1000
0000
0100
,
1000
1000
0101
0000
,
0001
0001
0000
0010
,
0100
0100
2002
3003
,
0100
0100
0000
1000
,
0001
0001
0000
0011
,
0010
0010
0000
0100
,
1000
1000
0020
0030
,
0100
0100
0000
0001
,
0010
0010
1100
0000
,
0001
0000
1000
0010
1000
0000
0001
0000
,
0010
0010
0110
2000
,
3001
0000
0100
0001
0100
0000
0000
0000
,
0010
1000
0100
0010
,
0001
0000
0100
0000
0010
0000
1000
0010
,
0100
0001
1000
0001
,
0010
0000
0100
0000
1000
0000
0100
0010
,
0001
0010
1000
0010
,
0001
0000
0100
0000
1000
0000
0100
0001
,
0010
1000
0010
0100
,
1000
0010
0100
0001
,
2002
0000
0000
0000
0000
0000
3003
0010
,
0100
0000
0000
0000
,
0220
0000
0000
0000
0000
0000
0330
1000
,
0001
0000
0000
0000
;

//--------------- dance-single - blank ----------------
#NOTES:
     dance-single:
     blank:
     Hard:
     10:
     0,0,0,0,0:
0000
0000
0000
0000
,
0000
0000
0000
0000
,
0000
0000
0000
0000
,
0000
0000
0000
0000
,
0000
0000
0000
0000
,
1000
0000
0000
0010
0000
0000
1000
0000
0001
0000
0000
0000
0000
0000
0000
0000
,
0001
0000
0000
0010
0000
0000
0001
0000
0000
0000
0100
0000
0100
0000
0000
0000
,
0001
0000
0000
0100
0000
0000
0001
0000
1000
0000
0000
0000
0000
0000
0000
0000
,
0010
0000
0000
1000
0000
0000
0010
0000
0100
0000
0000
0000
0000
0000
0000
0000
,
0001
0000
0000
0010
0000
0000
0100
0000
1000
0000
0000
0000
0001
0000
0000
0000
,
1000
0000
0000
0010
0000
0000
0100
0000
0000
0000
0000
0000
0000
0000
0000
0000
,
0001
0000
0000
1000
0000
0000
0001
0000
0200
0000
0000
0000
2300
0000
0000
0000
,
3001
0000
0000
0010
0000
0000
1000
0000
0000
0000
0000
0000
0000
0000
0000
0000
,
1000
0000
0000
0100
0000
0000
0010
0000
0001
0000
0000
0000
1010
0000
0000
0000
,
0010
0000
0000
0100
0000
0000
0010
0000
1000
0000
0000
0000
0000
0000
0000
0000
,
0100
0000
0000
0010
0000
0000
0001
0000
2000
0000
0000
0000
3200
0000
0000
0000
,
0310
0000
0000
0010
0000
0000
0100
0000
0000
0000
0000
0000
0000
0000
0000
0000
,
0010
0000
0000
0001
0000
0000
1000
0000
0010
0000
0000
0000
0101
0000
0000
0000
,
0100
0000
0000
0001
0000
0000
1000
0000
0100
0000
0000
0000
0000
0000
0000
0000
,
0010
0000
0000
0001
0000
0000
0010
0000
0100
0000
0000
0000
0000
0000
0000
0000
,
1000
0000
0000
0001
0000
0000
0100
0000
0010
0000
0000
0000
0000
0000
0000
0000
,
1000
1000
0010
0010
,
0100
0100
0001
0001
,
0010
0010
0100
0100
,
1000
1000
0001
0001
,
0100
1000
0100
0001
,
0010
1000
0010
0001
,
1000
0010
0001
0010
,
1000
0000
0100
0000
0001
0000
0100
1000
,
0002
0000
0000
0000
0000
0000
0000
1000
,
2003
0000
0000
0000
0000
0000
0000
0010
,
3020
0000
0000
0000
0000
0000
0000
0100
,
0230
0000
1000
0301
,
0011
0000
0001
0010
0001
0000
0100
0000
,
0001
1000
0001
0000
0100
0000
0010
1000
,
0200
0001
1000
0001
,
0320
1000
0001
1030
,
1100
0000
1000
0100
1000
0000
0010
0000
,
1000
0010
1000
0000
0001
0000
0100
0010
,
2000
0100
0001
3010
,
0002
0100
1000
0013
,
1001
0000
0001
0100
0001
0000
0020
0000
,
1000
0100
0001
0130
,
1001
0000
1000
0010
1000
0000
0200
0000
,
1000
0010
0001
0310
,
1000
0000
0000
0100
0000
0000
0010
0000
0001
0000
0000
0000
0000
0000
0000
0000
,
0001
0000
0000
0010
0000
0000
0100
0000
0000
0000
1000
0000
1000
0000
0000
0000
,
0010
0000
0000
0100
0000
0000
0001
0000
1000
0000
0000
0000
0110
0000
0000
0000
,
0001
0000
0000
1000
0000
0000
0001
0000
0000
0000
0010
0000
0010
0000
0000
0000
,
0100
0000
0000
1000
0000
0000
0001
0000
0100
0000
0000
0000
0110
0000
0000
0000
,
0010
0000
0000
1000
0000
0000
0001
0000
0000
0000
0010
0000
0010
0000
0000
0000
,
0100
0000
0000
1000
0000
0000
0100
0000
0020
0000
0000
0000
0032
0000
0000
0000
,
1003
0000
0000
0100
0000
0000
0010
0000
0001
0000
0000
0000
0000
0000
0000
0000
,
1000
0000
0000
0010
0000
0000
1000
0000
0000
0000
0000
0000
1001
0000
0000
0000
,
0001
0000
0000
0010
0000
0000
0001
0000
0000
0000
0100
0000
0100
0000
0000
0000
,
0010
0000
0000
1000
0000
0000
0010
0000
0200
0000
0000
0000
0302
0000
0000
0000
,
0013
0000
0000
0001
0000
0000
0010
0000
0000
0000
0100
0000
0100
0000
0000
0000
,
1000
0000
0000
0001
0000
0000
0100
0000
0010
0000
0000
0000
0000
0000
0000
0000
,
1000
0000
0000
0001
0000
0000
0010
0000
0100
0000
0000
0000
0000
0000
0000
0000
,
1000
0000
0000
0100
0000
0000
0010
0000
0100
0000
0000
0000
0000
0000
0000
0000
,
0001
0000
0000
0100
0000
0000
0010
0000
0100
0000
1000
0000
1000
0000
0000
0000
,
0011
0000
0001
0010
0001
0000
0101
0000
,
0001
0100
0001
0000
1000
0000
1000
0001
,
2000
3000
1000
0010
1000
0000
1100
0000
,
1000
0100
1000
0000
1000
0000
0010
0100
,
0002
0003
0001
0100
0010
0000
1000
0000
,
0001
0010
0100
0000
1000
0000
1000
0001
,
2000
3000
1000
0100
0010
0000
0001
0000
,
1000
0010
0100
0000
0001
1000
0010
0100
,
0002
0000
0000
0000
0000
0000
0000
1000
,
2003
0000
0000
0000
0000
0000
0000
3010
,
0020
0000
0000
0000
0000
0000
0000
0130
,
0200
0000
1000
0301
;

//--------------- dance-single - UNI4 Step Team ----------------
#NOTES:
     dance-single:
     UNI4 Step Team:
     Challenge:
     15:
     0,0,0,0,0:
0000
0000
0000
0000
,
0000
0000
0000
0000
,
0000
0000
0000
0000
,
0000
0000
0000
0000
,
0000
0000
0000
0000
,
1000
0100
1000
0100
0000
0000
1000
0000
0001
0000
0000
0000
0000
0000
0000
0000
,
0001
0010
0001
0010
0000
0000
0001
0000
0000
0000
0010
0000
0100
0000
0000
0000
,
1000
0010
1000
0010
0000
0000
0100
0000
0001
0000
0000
0000
0000
0000
0000
0000
,
0001
0010
0001
0010
0000
0000
0010
0000
0000
0000
0100
0000
1000
0000
0000
0000
,
0010
0100
0010
0100
0000
0000
0001
0000
1000
0000
0000
0000
0000
0000
0000
0000
,
0100
0010
0100
0010
0000
0000
0010
0000
0000
0000
0001
0000
1000
0000
0000
0000
,
0010
1000
0010
1000
0000
0000
0001
0000
0200
0000
0320
0000
0230
0000
0300
0000
,
0001
0010
0001
0010
0000
0000
0100
0000
1001
0000
0000
0000
0000
0000
0000
0000
,
0001
0100
0001
0100
0000
0001
1000
0000
0000
0000
0000
0000
0000
0000
0000
0000
,
1000
0100
1000
0100
0000
1000
0010
0000
0000
0000
0100
0000
0000
0000
0000
0000
,
0001
1000
0001
1000
0000
0100
0010
0000
0002
0000
0023
0000
0230
0000
0300
0000
,
1000
0010
1000
0010
0000
1000
0100
0000
0000
0000
0000
0000
0000
0000
0000
0000
,
0010
0100
1000
0001
0000
0100
0001
0000
0000
0000
0000
0000
0000
0000
0000
0000
,
0010
0100
1000
0001
0000
0100
0010
0000
0000
0000
0010
0000
0000
0000
1000
0000
,
0100
0010
0001
1000
0000
0100
0010
0000
0002
0000
0000
0000
1000
0000
0000
0000
,
0013
0100
1000
0001
0000
0100
0010
0000
2000
0000
0000
0000
0001
0000
0000
0000
,
3100
0001
0100
1000
0100
0010
0001
0100
,
0010
1000
0010
0000
0100
0001
0100
0000
0001
1000
0001
0000
0010
0100
0010
0000
,
0001
0010
0010
0100
1000
0100
0010
0001
,
1000
0010
1000
0000
0001
0100
0001
0000
1000
0100
1000
0000
0001
0010
0001
0000
,
0100
0001
0100
0010
1000
0010
0100
0001
,
1000
0010
0100
0000
0001
0010
0100
0000
1000
0100
0010
0000
0001
0010
0100
0000
,
2000
3200
0320
0032
2003
3020
0230
0302
,
1003
0100
1000
0100
0010
0100
0010
0000
0001
0100
0001
0100
0010
0100
0010
0000
,
2002
0000
0000
0000
0000
0000
3000
0100
,
0100
0000
0000
0000
,
0023
0000
0000
0000
0000
0000
0000
0100
,
0100
0000
0001
1000
,
0130
0100
1000
0010
0100
0001
1000
1000
,
0001
0100
0010
1000
0001
0001
0010
0100
,
0010
0000
0001
0000
0100
0000
0010
0000
1000
0000
0001
0000
1000
0000
0100
0010
,
0100
0000
1000
0000
0010
0000
0010
0000
0100
0001
0100
0000
0001
1000
0001
0000
,
0010
0010
0100
1000
0010
0100
0001
0001
,
1000
0100
0010
0001
1000
1000
0010
0001
,
0010
1000
0100
0100
0010
0001
0100
0010
,
1000
0001
0100
0010
1000
0001
1000
1000
,
0020
0000
0001
0001
0000
1000
1030
0000
,
1000
0100
0010
0001
1000
0100
0010
0001
,
0200
0000
1000
1000
0000
0010
0010
0000
,
0301
0000
0001
0000
1000
0000
0001
0000
0010
0000
0100
0000
1000
0000
1000
0001
,
1000
0010
1000
0010
0000
0100
0001
0000
0021
0000
0000
0000
1000
0000
0000
0000
,
0031
0100
0001
0100
0000
0010
1000
0000
0000
0000
1000
0000
1100
0000
0010
0000
,
0001
1000
0001
1000
0000
0100
0010
0000
0201
0000
0000
0000
1000
0000
0000
0000
,
0301
1000
0001
1000
0000
0100
0010
0000
0000
0000
0010
0000
0110
0000
0001
0000
,
1000
0010
1000
0010
0000
0100
0001
0000
1200
0000
0000
0000
0001
0000
0000
0000
,
1300
0010
1000
0010
0000
0100
0001
0000
1000
0000
0001
0000
0101
0000
0000
0000
,
1000
0100
0010
0001
0000
0100
0010
0000
2001
0000
3200
0000
0320
0000
0000
0000
,
0031
0100
0010
1000
0000
0100
0010
0000
2001
0000
0100
0000
3100
0000
0000
0000
,
1000
0100
0010
0100
0000
1000
0020
0000
0000
0000
0030
0000
0101
0000
0000
0000
,
0001
0010
0100
0010
0000
0001
0100
0000
0000
0000
0010
0000
0010
0000
1000
0000
,
0001
0010
0100
1000
0000
0010
0100
0000
0002
0000
2003
0000
3020
0000
0000
0000
,
0130
0001
1000
0100
0000
0010
0001
0000
2001
0000
0010
0000
3010
0000
0000
0000
,
1000
0100
0010
0100
0000
1000
0100
0000
0010
0000
0000
0000
0110
0000
0000
0000
,
0001
0010
0100
0010
0000
0100
0010
0000
0001
0000
1000
0000
1000
0000
0000
0000
,
0100
0010
0001
0100
0000
1000
0100
0000
1001
0000
0000
0000
0002
0000
0003
0000
,
0100
0010
1000
0100
0000
0001
0100
0000
0110
0000
0000
0000
0000
0000
0000
0000
,
0001
0001
0010
0100
1000
0010
0100
0100
,
0001
1000
0001
0100
0001
0010
0100
1000
,
0020
0100
0100
0100
,
1030
0100
1000
0100
0010
0001
1000
0000
0001
0100
0001
0100
0010
1000
0001
0100
,
0020
0001
1000
0001
,
0230
1000
0001
1000
,
0302
0010
0100
1003
,
0001
0010
0100
1000
0010
0100
0010
0100
0001
1000
0001
1000
0100
0010
0100
0010
,
0001
0010
0001
0010
0001
0010
0001
0010
0001
0010
0001
0010
0001
0010
0001
0010
,
0001
0010
0001
0010
0001
0010
0001
0010
0001
0010
0001
0010
0001
0010
0001
0010
,
0100
1000
0100
1000
0100
1000
0100
1000
0100
1000
0100
1000
0100
1000
0100
1000
,
0100
1000
0100
1000
0100
1000
0100
1000
0100
1000
0100
1000
0000
0000
0000
0000
;
