#TITLE:Que Pasa;
#SUBTITLE:;
#ARTIST:Big Idea;
#TITLETRANSLIT:;
#SUBTITLETRANSLIT:;
#ARTISTTRANSLIT:;
#GENRE:;
#CREDIT:;
#MUSIC:06. Que Pasa.mp3;
#BANNER:;
#BACKGROUND:;
#CDTITLE:;
#SAMPLESTART:9.068;
#SAMPLELENGTH:12.000;
#SELECTABLE:YES;
#OFFSET:-1.075;
#BPMS:0.000=120.000;
#STOPS:;
#BGCHANGES:;
#FGCHANGES:;

//--------------- dance-single - Nezemarth ----------------
#NOTES:
     dance-single:
     Nezemarth:
     Beginner:
     3:
     0.121,0.168,0.021,0,0:
0000
0000
0000
0000
,
0000
0000
0000
0000
,
0000
0000
0000
0000
,
0000
0000
0000
0000
,
1000
0000
0000
0000
,
0100
0000
0000
0000
,
0010
0000
0000
0000
,
0001
0000
0000
0000
,
0001
0000
0000
0000
,
0001
0000
0010
0000
,
0001
0000
0000
0000
,
0000
0000
0000
0000
,
1000
0000
0000
0000
,
0010
0000
0100
0000
,
1000
0000
0100
0000
,
0001
0000
0010
0000
,
0110
0000
0100
0000
,
1000
0000
1000
0000
,
0001
0000
0001
0000
,
0100
0000
0100
0000
,
0010
0000
0010
0000
,
1000
0000
1000
0000
,
0001
0000
0001
0000
,
1000
0000
1000
0000
,
0100
0000
0010
0000
,
0100
0000
0100
0000
,
1000
0000
0001
0000
,
1000
0000
1000
1000
,
1001
0000
0001
0000
,
0100
0000
0010
0000
,
0100
0000
0001
0000
,
1000
0000
0100
0000
,
0010
0000
0100
0000
,
1000
0000
0001
0000
,
0100
0000
0010
0000
,
0100
0000
0001
0000
,
1000
0000
1000
0000
,
0100
0000
0100
0000
,
0001
0000
0100
0000
,
1000
0000
0010
0010
,
0100
0000
0001
0000
,
1000
0000
0100
0000
,
0010
0000
0001
0000
,
0100
0000
0010
0010
,
1000
0000
0001
0000
,
0010
0000
0100
0100
;

//--------------- dance-single - Nezemarth ----------------
#NOTES:
     dance-single:
     Nezemarth:
     Easy:
     6:
     0.31,0.432,0.241,0.388,0:
0000
0000
0000
0000
,
0000
0000
0000
0000
,
0000
0000
0000
0000
,
0000
0000
0000
0000
,
1000
0200
0310
0000
,
0001
0200
0310
0000
,
1000
0200
0310
0000
,
0001
0100
1000
0010
,
0002
0003
0200
0300
,
2000
3000
0200
0300
,
0002
0103
2000
3100
,
0002
0013
2000
3010
,
0002
0100
0023
0100
,
0032
0010
0203
1000
,
0301
0011
1000
1010
,
0001
0101
1000
1100
,
0001
0210
1300
0000
,
1000
0120
0031
0000
,
0001
0120
1030
0000
,
1000
0120
0031
0000
,
0001
2001
3010
0000
,
1000
1002
0013
0000
,
0001
2001
3010
0000
,
0100
0001
1000
0100
,
0010
0001
0100
0001
,
0020
0030
0000
0100
,
2000
3020
0130
0010
,
1000
0100
0010
0110
,
0011
0001
0100
0010
,
1000
0100
0010
0100
,
2000
3000
0002
0003
,
0200
0300
0020
0030
,
2010
3100
0012
0103
,
0120
1030
1200
0310
,
0012
0103
0120
1030
,
1200
0310
0012
0103
,
0110
0000
0010
0000
,
1000
0000
0100
0000
,
0010
0000
0001
0000
0100
0100
0000
0000
,
0010
0000
1000
0000
0100
0100
0010
0000
,
0011
0001
1000
0010
,
1000
0100
0010
0001
,
1000
0000
0010
0000
0100
0100
0000
0000
,
0001
0000
0010
0000
0100
0100
1000
0000
,
0001
0000
0100
0000
0010
0010
0000
0000
,
1000
0000
0001
0000
0010
0010
0100
0000
;

//--------------- dance-single - Nezemarth ----------------
#NOTES:
     dance-single:
     Nezemarth:
     Medium:
     11:
     0.457,0.456,0.178,0.105,0.289:
0000
0000
0000
0000
,
0000
0000
0000
0000
,
0000
0000
0000
0000
,
0000
0000
0000
0000
,
1001
0000
1000
0000
0100
0000
0010
0100
0000
0100
0000
1000
0000
0000
0000
0000
,
0001
0000
0100
0000
0010
0000
0100
0001
0000
0001
0000
1000
0000
0000
0000
0000
,
0100
0000
0010
0000
0001
0000
0100
0010
0000
0010
0000
1000
0000
0000
0000
0000
,
0001
0010
0001
1000
0010
0100
0001
0000
,
1001
0000
0000
1000
0100
0000
0000
0000
0010
0000
0000
0001
0100
0000
0000
0000
,
0010
0000
0000
1000
0100
0000
0010
0000
0001
0000
0000
0001
0100
0000
0010
0000
,
2000
0000
0000
3100
0010
0000
0000
0000
0002
0000
0000
0103
0010
0000
0000
0000
,
0002
0000
0000
0013
1000
0000
0000
0000
0200
0000
0000
0301
0100
0000
0000
0000
,
1000
1000
0010
0000
0100
0100
0001
0000
,
1000
0000
1000
0000
0100
0000
0000
0000
0010
0001
0010
0001
0010
0000
0000
0000
,
0100
1000
1001
0000
0100
0001
1001
0000
,
0010
1000
1100
0000
0010
0001
0101
0000
,
0110
0000
0010
0000
1010
0000
1000
0100
0000
0100
0000
0010
0000
0000
0000
0000
,
1000
0000
0010
0000
0110
0000
0100
1000
0000
1000
0000
0001
0000
0000
0000
0000
,
0010
0000
0100
0000
1001
0000
1000
0010
0000
0010
0000
0100
0000
0000
0000
0000
,
0100
0000
0001
0000
0011
0000
0100
0010
0000
0010
0000
0001
0000
0000
0000
0000
,
1000
0000
0100
0000
1100
0000
0100
0010
0000
0010
0000
0100
0000
0000
0000
1000
,
0001
0000
0100
0000
0110
0000
0010
0100
0000
0100
0000
0001
0000
0000
0000
1000
,
0100
0000
1000
0000
1010
0000
0010
0100
0000
0100
0000
1000
0000
0000
0000
1000
,
0100
0010
0100
0000
0001
1000
0100
0010
,
0100
0000
1000
0001
0200
0000
1300
0100
,
0001
0000
0000
0001
1000
0000
0000
0000
0100
0000
0000
0000
0010
0000
0001
0000
,
2000
0000
0000
0000
3020
0000
0000
0000
0130
0010
0200
0000
0000
0000
0301
0010
,
0001
1000
0010
0100
0001
0010
0100
0000
,
0110
0000
0100
1000
0001
0000
0001
0100
,
0010
0000
1000
0000
0000
0100
0000
0000
0010
0000
0000
1000
0000
0000
0010
0000
,
0001
0000
0000
0000
0000
0000
0000
0000
0000
0000
0000
0000
0001
0000
0000
0000
0000
0000
0000
0000
0000
0000
0001
0000
0100
0000
0000
0000
0000
0000
0000
0000
0000
0010
0000
0000
0000
0000
0000
0000
0000
0000
1000
0000
0000
0000
0000
0000
,
0100
0100
0000
0000
0010
0010
0000
0000
,
0001
0100
0001
0000
1000
0100
1000
0000
,
0001
0010
0001
0000
1000
0010
1000
0001
,
0010
0100
1000
0000
0010
1000
0001
0000
,
0010
0100
0001
0000
0100
1000
0010
0000
,
0001
0000
0000
0001
0010
0000
0000
0000
0100
0000
0000
0100
0001
0000
0000
0000
,
1000
0000
0000
1000
0100
0000
0000
0000
0010
0000
0000
0010
1000
0000
0000
0000
,
1000
0010
0001
0100
1000
0100
0000
0000
,
0001
1000
1000
0100
0010
1000
0010
0000
,
0011
0000
0001
0100
0020
0000
0031
0010
,
2000
0000
3100
0010
1000
0010
0001
0100
,
0010
1000
1000
0001
0001
0010
0000
0000
,
0100
1000
0010
0001
0010
0100
0001
0000
,
1001
1000
0100
0010
1000
0010
0000
0001
,
0100
0000
1000
0000
0100
0000
0010
0000
1000
0000
0100
0010
0100
0000
0000
0000
;

//--------------- dance-single - Nezemarth ----------------
#NOTES:
     dance-single:
     Nezemarth:
     Hard:
     14:
     0.712,0.72,0.042,0.22,1:
0000
0000
0000
0000
,
0000
0000
0000
0000
,
0000
0000
0000
0000
,
0000
0000
0000
0000
,
1010
0000
0010
0000
0100
0000
0001
0010
0000
0100
0000
0010
0000
0001
0100
0010
,
1000
0000
0100
0000
0001
0000
0100
0010
0000
0100
0000
1000
0000
0001
0000
0100
,
0010
0000
1000
0000
0100
0000
0001
0100
0000
0010
0000
0100
0000
1000
0000
0010
,
0001
0010
0001
0010
0100
0010
0100
0010
1000
0100
1000
0001
0100
0010
1000
0100
,
0010
0000
0000
0010
0001
0000
0000
0001
0100
0000
0010
0000
1000
0000
0001
0010
,
0100
0000
0000
0100
1000
0000
0010
0000
0001
0000
0000
0001
0010
0000
1000
0000
,
0100
0010
0100
0010
0000
0000
0000
0001
1000
0001
1000
0001
0000
0000
0000
1000
,
0010
1000
0010
1000
0000
0000
0000
0001
0010
0001
0010
0001
0000
0000
0000
0001
,
2000
0000
0000
0000
3010
0000
0000
0010
0200
0000
0000
0000
0301
0000
1000
0100
,
0010
0000
0000
0010
0100
0000
1000
0000
0001
0100
0010
0100
0001
0000
0010
0100
,
1000
0001
0100
0001
1000
0000
0100
0010
0001
1000
0010
1000
0001
0000
0010
0100
,
1000
0001
0100
0001
1000
0000
0100
0010
0001
1000
0010
1000
0001
0010
0100
1000
,
0001
0000
0100
0000
0010
0000
0001
0010
0000
0100
0000
0001
0000
1000
0100
0010
,
0001
0000
0010
0000
1000
0000
0010
0100
0000
1000
0000
0001
0000
0100
0000
0010
,
1000
0000
0100
0000
0001
0000
0100
0010
0000
0001
0000
1000
0000
0010
0000
0100
,
0001
0000
1000
0000
0100
0000
0010
1000
0000
0010
0000
0100
0000
1000
0001
0100
,
0010
0000
0100
0000
0001
0000
1000
0100
0000
0010
0000
0100
0000
1000
0010
1000
,
0100
0000
0010
0000
0100
0000
0001
0100
0000
1000
0000
0001
0000
0100
0000
0010
,
0100
0000
1000
0000
0100
0000
0001
1000
0000
0100
0000
0010
0000
0100
0000
0001
,
0100
0000
1000
0000
0010
0000
0100
1000
0000
0100
0000
0001
0000
0010
0100
1000
,
0010
0000
0000
0000
0000
0000
0100
0000
0000
0000
0000
0000
0001
0000
0000
1000
0000
0000
0100
0000
0000
0010
0000
0000
2000
0000
0000
0000
0000
0000
0000
0000
0000
0000
0000
0000
3010
0000
0000
0000
0001
0000
1000
0000
0000
0010
0000
0000
,
0200
0000
0000
0301
1000
0000
0000
0000
0100
0000
0000
0000
0010
0001
1000
0010
,
0200
0000
0000
0000
1300
0000
0000
0100
0001
1000
0200
0000
0000
0000
0310
0100
,
1000
0010
0100
1000
0100
0010
1000
0100
0010
1000
0010
0100
1000
0000
0000
0000
,
1001
0000
0000
0000
0001
0100
0010
0001
0020
0000
0000
0000
0130
0000
0002
0000
,
0000
0000
2003
0000
0000
3200
0000
0000
0320
0000
0000
0230
0000
0000
0302
0000
,
2003
0000
0000
0000
0000
0000
0000
0000
0000
3000
0000
0000
2000
0000
0000
0000
0000
0000
0000
0000
0010
3000
0001
0000
2000
0000
0000
0000
0000
0000
0000
0000
0000
3020
0000
0000
0000
0000
0000
0000
0000
0000
0130
0000
0000
0001
0000
0000
,
0010
0000
0001
0000
0010
0000
0001
0000
0000
0000
0000
0000
0000
0000
1000
0000
0010
0000
1000
0000
0010
0000
1000
0000
0001
0000
0010
0100
1000
0000
0001
0000
,
0100
0000
0000
0010
0000
0000
0100
0000
0000
0001
0000
0000
0000
0000
0000
0000
0000
0000
0000
0000
0000
1000
0000
0000
0100
0000
0000
0010
0000
0000
0100
0000
0000
1000
0000
0000
0000
0000
0001
0000
0000
0000
0000
0000
0001
0000
0000
0000
,
0100
0000
0010
0100
0001
1000
0100
0010
1000
0010
0100
1000
0001
0100
0010
0100
,
0001
1000
0100
0001
0000
0000
0000
0001
0100
1000
0001
0100
0000
0000
0000
1000
,
0001
0010
1000
0001
0000
0000
0000
0001
0010
1000
0001
0100
0000
0000
0100
0000
,
1000
0001
0100
0000
1000
0100
0000
0001
1000
0100
0000
0010
1000
0000
0010
0000
,
0001
0000
0100
0000
1000
0000
0100
0000
0001
1000
0000
1000
0010
0000
0100
0000
,
0001
0010
0100
1000
0010
1000
0100
0010
0001
0000
0200
0000
1300
0000
1000
0100
,
0001
1000
0100
0010
1000
0001
0100
1000
0001
0100
0010
0100
0100
0000
0000
0000
,
1001
0000
0000
0000
1000
0100
0010
2000
0000
0000
3010
0001
1000
0010
0100
2000
,
0000
0000
3100
0001
1000
0100
0010
1000
0010
0100
1000
0001
0100
0010
0001
0010
,
0100
0001
1000
0100
0001
0100
1000
0100
0020
0000
0130
0000
0000
0000
1000
0010
,
0001
0010
0100
0001
1000
0100
0010
0100
1000
0010
0001
0010
0010
0100
0001
1000
,
0100
0010
0001
1000
0001
0010
0100
1000
0010
0000
1000
0000
0100
0000
0010
0001
,
0100
1000
0100
0010
1000
0100
0001
1000
0010
0001
0100
1000
1000
0000
0000
0000
;
