#TITLE:Purple Haze;
#SUBTITLE:;
#ARTIST:kors k;
#TITLETRANSLIT:;
#SUBTITLETRANSLIT:;
#ARTISTTRANSLIT:;
#GENRE:;
#CREDIT:;
#MUSIC:Purple Haze.ogg;
#BANNER:;
#BACKGROUND:;
#CDTITLE:;
#SAMPLESTART:34.953;
#SAMPLELENGTH:12.000;
#SELECTABLE:YES;
#OFFSET:-1.055;
#BPMS:0.000=177.000
,96.000=88.500
,160.000=177.000
;
#STOPS:;
#BGCHANGES:;
#FGCHANGES:;

//--------------- dance-single - Nezemarth ----------------
#NOTES:
     dance-single:
     Nezemarth:
     Beginner:
     4:
     0.149,0.306,0.035,0,0:
0000
0000
0000
0000
,
0000
0000
0000
0000
,
0000
0000
0000
0000
,
0000
0000
0000
0000
,
0000
0000
0000
0000
,
0000
0000
0000
0000
,
0000
0000
0000
0000
,
0000
0000
0000
0000
,
1000
0000
0000
0000
,
0000
0000
0000
0000
,
1000
0000
0000
0000
,
0000
0000
0000
0000
,
1000
0000
0000
0000
,
0000
0000
0000
0000
,
1000
0000
0000
0000
,
0000
0000
0000
0000
,
0001
0000
0000
0000
,
0000
0000
0100
0000
,
0001
0000
0000
0000
,
0000
0000
1000
1000
,
0001
0000
0000
0000
,
0000
0000
0010
0000
,
0001
0000
0000
0000
,
0000
0000
0000
0000
,
1001
0000
0000
0000
,
1000
0000
0100
0000
,
0010
0000
0000
0000
,
0000
0000
0000
0000
,
0001
0000
0000
0000
,
0100
0000
0010
0000
,
1000
0000
0000
0000
,
0100
0000
0010
0000
,
1001
0000
0000
0000
,
1000
0000
0010
0000
,
0100
0000
0000
0000
,
0001
0000
0000
0000
,
1001
0000
0000
1000
,
0100
0000
0000
0000
,
0010
0010
0010
0010
,
0010
0010
1001
0000
,
1010
0010
0000
0100
,
0000
0001
0000
1000
,
0000
0100
0000
0010
,
0000
0001
0000
1000
,
0000
0010
0000
0100
,
0000
0001
0000
1000
,
0000
0100
0000
0010
,
0000
0001
0000
1000
,
0000
0010
0000
0100
,
0000
0001
0000
1000
,
0000
0100
0000
0010
,
0000
0001
0000
1000
,
0000
0010
0000
0100
,
0000
0001
0000
1000
,
0000
0100
0000
0010
,
0001
0001
0001
0000
,
1000
0010
0000
0100
,
0000
0001
0000
0010
,
0000
0100
0000
1000
,
0000
0010
0000
0100
,
0000
1000
0000
0100
,
0000
0001
0000
1000
,
0000
0100
0000
0010
,
0000
1000
0000
0010
,
0001
0001
0001
0001
,
0000
0000
0000
0000
,
1000
1000
1000
0010
,
0000
0000
0000
0000
,
0000
0100
0000
0001
,
0000
1000
0000
0100
,
0000
0010
0000
0100
,
0000
1000
0000
0001
,
0100
0000
0010
0010
,
0010
0000
1000
0000
,
0100
0000
0010
0010
,
0010
0000
0001
0000
,
0100
0000
0010
0010
,
0010
0000
1000
0000
,
0001
0000
0010
0010
,
0010
0000
0100
0000
,
1000
0000
0001
0001
,
0001
0000
0100
0000
,
0010
0000
1000
1000
,
1000
0000
0100
0000
,
0010
0000
0001
0001
,
0001
0000
0100
0000
,
0010
0000
0010
0000
1000
0000
0000
1000
,
0000
0000
0100
0100
;

//--------------- dance-single - Nezemarth ----------------
#NOTES:
     dance-single:
     Nezemarth:
     Easy:
     8:
     0.295,0.551,0.119,0,0.014:
0000
0000
0000
0000
,
0000
0000
0000
0000
,
0000
0000
0000
0000
,
0000
0000
0000
0000
,
0000
0000
0000
0000
,
0000
0000
0000
0000
,
0000
0000
0000
0000
,
0000
0000
0000
0000
,
1000
0000
0000
0100
0000
0100
0000
0010
,
0000
0000
0001
0000
,
0100
0000
0000
0010
0000
0010
0000
1000
,
0000
0000
0001
1000
,
0001
0000
0000
0010
0000
0010
0000
0100
,
0000
0000
1000
0000
,
0010
0000
0000
0100
0000
0100
0000
0001
,
0000
0000
1000
1000
,
0100
0000
0000
0010
0000
1000
0000
0010
,
0000
0000
0001
0000
,
0100
0000
0000
0010
0000
0001
0000
0010
,
0000
0000
0100
0000
,
0001
0000
0000
0010
0000
1000
0000
0010
,
0000
0000
0001
0000
,
0100
0000
0000
1000
0000
0100
0000
0010
,
0000
0000
1000
0100
,
0110
0000
0000
0001
,
0100
0000
0010
0000
,
1000
0000
0000
1000
0000
0000
0100
0000
0000
0000
0000
0000
0000
0000
0000
0000
,
0001
0000
0000
0001
0000
0000
1000
0000
0000
0000
0000
0000
0000
0000
0000
0000
,
0010
0000
0000
0001
,
0100
0000
0010
0000
,
1000
0000
0000
0000
,
0100
0000
0010
0001
,
1001
0000
1000
0010
,
0100
0000
0001
0000
,
1000
0000
0000
1000
0000
0000
0100
0000
0000
0000
0000
0000
0000
0000
0000
0000
,
0001
0000
0000
0001
0000
0000
1000
0000
0000
0000
0000
0000
0000
0000
0000
0000
,
0010
0001
0010
0001
0100
0010
0100
0010
,
1000
0100
1000
0100
0010
0001
0010
0001
,
1001
1000
0010
1000
0100
0010
0001
1000
,
1001
0001
0100
0010
0110
0000
0000
0000
,
1000
0100
0010
0100
,
1000
0000
0000
0100
0000
0000
0100
0000
,
0010
0001
1000
0001
,
0010
0000
0000
0010
0000
0000
0100
0000
,
1000
0001
0100
0001
,
1000
0000
0000
1000
0000
0000
0100
0000
,
0010
1000
0010
0100
,
1000
0000
0000
1000
0000
0000
0010
0000
,
0100
0010
0001
0010
,
0100
0000
0000
0100
0000
0000
0001
0000
,
1000
0100
0010
0100
,
1000
0000
0000
1000
0000
0000
0010
0000
,
0100
0001
1000
0001
,
0100
0000
0000
0100
0000
0000
0010
0000
,
1000
0001
0010
0100
,
1000
1000
1000
1000
,
0100
0010
0001
0100
,
0001
0010
0100
1000
,
0001
0100
0010
1000
,
0100
0010
0100
0001
,
0100
1000
0010
0100
,
0001
1000
0100
0010
,
0001
0100
0010
0100
,
0001
0010
1000
0010
,
0001
0001
0001
0101
,
0100
0010
1000
0100
,
0010
0010
0010
0110
,
0100
1000
0010
0100
,
0001
0010
0001
1000
,
0001
0100
0010
1000
,
0001
0010
0000
0100
1000
1000
0000
0010
,
0000
0100
0001
0010
,
0110
0000
0000
0100
0000
1000
0000
0001
,
0000
0100
0110
0000
,
1010
0000
0000
1000
0000
0100
0000
0010
,
0000
0001
0000
0100
0001
0000
0000
0000
,
0011
0000
0000
0010
0000
0100
0000
1000
,
0000
0010
0010
0010
0000
0100
0100
0100
,
0001
0000
0000
0010
0000
0100
0000
1000
,
0000
0010
0000
0100
0000
0001
0000
1000
,
1100
0000
0000
0100
0000
0010
0000
0010
,
0000
0000
1001
0000
,
0001
0000
0000
0100
0000
0100
0000
0010
,
0000
0000
1001
1000
,
0100
0000
0000
0010
0000
0010
0000
0001
,
0000
0000
1001
0000
,
0001
0000
0001
0000
0101
0000
0100
0010
,
0000
0000
1000
0000
1100
0000
0100
0100
;

//--------------- dance-single - Nezemarth ----------------
#NOTES:
     dance-single:
     Nezemarth:
     Medium:
     11:
     0.487,0.643,0.195,0.105,0.139:
0000
0000
0000
0000
,
0000
0000
0000
0000
,
0000
0000
0000
0000
,
0000
0000
0000
0000
,
0000
0000
0000
0000
,
0000
0000
0000
0000
,
0000
0000
0000
0000
,
0000
0000
0000
0000
,
2000
0000
0000
0100
0000
0001
0000
3010
,
0000
0000
0000
0010
1000
0000
0000
0000
,
0002
0000
0000
0100
0000
1000
0000
0013
,
0000
0000
0000
0010
0001
1000
1000
0010
,
2000
0000
0000
0100
0000
0001
0000
3010
,
0000
0000
0000
0010
1000
0000
0000
0000
,
0002
0000
0000
0100
0000
1000
0000
0013
,
0000
0000
0000
0010
0001
1000
1000
0010
,
0200
0000
0000
1000
0000
0001
0000
1300
,
0000
0100
0000
0100
0001
0000
0000
0000
,
0020
0000
0000
1000
0000
0001
0000
1030
,
0000
1000
0000
1000
0010
0001
0001
1000
,
0020
0000
0000
0001
0000
1000
0000
0031
,
0000
0010
0000
0010
1000
0000
0000
0000
,
0200
0000
0000
0001
0000
0010
0000
1300
,
0000
0000
0000
0000
1000
0010
0100
0001
,
1001
0000
1000
0100
,
0010
0000
0001
0000
,
0100
0000
0000
0010
0000
0000
1000
0000
0000
0000
0000
0000
0000
0000
0000
0000
,
0100
0000
0000
0010
0000
0000
0001
0000
0000
0000
0000
0000
0000
0000
0000
0000
,
1000
0100
0000
0100
0000
0010
0000
0010
0000
0001
0000
0100
0000
0001
0000
0010
,
0000
0100
0000
0100
0000
1000
0000
1000
0000
0010
0000
0100
0000
1000
0000
0100
,
0000
0001
0000
0001
0000
0010
0000
0010
0000
0100
0000
1000
0000
0010
0000
0100
,
0000
0001
0000
0001
0000
0010
0000
0010
0000
0100
0000
1000
0000
0100
0000
0010
,
0001
0100
0010
0100
0001
0100
1000
0100
,
0001
0010
0100
0010
0001
0010
1000
0010
,
0100
1000
0010
1000
0001
1000
0010
0100
,
1000
0100
0010
0100
1000
0100
0001
1000
,
0100
0100
0010
0010
0001
0001
1000
1000
,
0010
0010
0100
0100
0001
0001
1000
1000
,
0100
0010
0100
0000
1000
0001
1000
0000
0010
0100
0010
0000
0100
0001
0100
0000
,
0010
1000
0100
0000
0010
0001
1000
0000
1001
0000
0000
0000
0000
0000
0000
0000
,
0001
0010
0100
0001
,
0100
1000
0001
1000
0100
0010
0001
1000
,
0010
0100
0001
0010
,
0100
1000
0010
0100
0001
1000
0010
0100
,
0010
1000
0100
0010
,
0001
1000
0100
1000
0001
0010
0100
1000
,
0001
0100
1000
0100
,
0010
1000
0001
0010
0100
1000
0100
0010
,
0001
1001
0010
1001
,
0001
1000
0100
0010
0100
1000
0001
0100
,
0001
1001
0010
1001
,
1000
0100
0010
0100
1000
0001
0100
0010
,
1000
1100
0001
0101
,
0100
0010
1000
0100
0010
0100
1000
0001
,
1000
1010
0001
0011
,
0010
0100
1000
0001
1000
0010
0100
0001
,
1000
0110
0001
0110
,
1000
0010
0100
0001
1000
0100
0010
0001
,
1000
0110
0001
0110
,
0001
0010
0100
1000
0001
0100
0010
1000
,
0001
0110
1000
0110
,
0001
0100
0010
1000
0100
0010
0001
0000
,
1000
0110
0001
0110
,
1000
0100
0010
0001
1000
0001
0010
0100
,
1000
0010
1000
0010
1000
0010
1010
0000
,
0010
0100
0001
1000
0100
0010
0001
0100
,
0001
0010
0001
0010
0001
0010
0011
0000
,
0010
0100
1000
0001
0100
0010
1000
0100
,
0010
0011
1000
1010
,
0010
1000
0001
0010
0100
0010
0001
1000
,
0010
0100
0001
0001
0100
0100
0010
1000
,
0001
1000
0100
0010
0001
1000
0010
0100
,
0002
1000
0000
0010
0000
1000
0000
0103
,
0000
0001
0010
0100
1000
0000
0000
0000
,
2000
0001
0000
0010
0000
0001
0000
3100
,
0000
1000
0000
0001
0100
0010
0100
0001
,
2000
0001
0000
0100
0000
0001
0000
3010
,
0000
1000
1000
1000
0000
0001
0100
0001
,
0020
0100
0000
1000
0000
0100
0000
0031
,
0000
0001
0100
0010
0100
0000
0001
0000
,
2001
0000
0000
0100
0000
0001
0000
3010
,
0000
0000
0000
0010
0100
0000
0000
0000
,
0002
0000
0000
0100
0000
1000
0000
0013
,
0000
0000
0010
0100
1000
0001
0100
0010
,
2000
0000
0000
0100
0000
0001
0000
3010
,
0000
0000
0000
0010
0100
0000
0000
0000
,
0101
0000
0101
0000
1001
0000
0000
1100
,
0000
0000
0100
0000
1001
0001
0100
1000
;

//--------------- dance-single - Nezemarth ----------------
#NOTES:
     dance-single:
     Nezemarth:
     Hard:
     13:
     0.581,0.827,0.153,0,0.296:
0000
0000
0000
0000
,
0000
0000
0000
0000
,
0000
0000
0000
0000
,
0000
0000
0000
0000
,
0000
0000
0000
0000
,
0000
0000
0000
0000
,
0000
0000
0000
0000
,
0000
0000
0000
0000
,
1000
0100
0010
0001
1000
0010
1000
0001
,
0000
0001
0000
0001
0010
0000
0000
0000
,
0100
1000
0010
0100
1000
0100
0001
1000
,
0000
0000
0100
0000
0000
0000
0100
1000
0100
0000
0010
0000
0001
0000
0001
0000
,
1000
0010
0100
0010
1000
0100
0010
0001
,
0000
0100
0000
0100
0010
0000
0000
0000
,
1000
0100
0010
0001
0100
0010
0100
0001
,
0000
0000
1000
0000
0000
0000
1000
0010
1000
0000
0001
0000
0010
0000
0010
0000
,
0001
0100
1000
0100
0010
1000
0100
0010
,
0000
0010
0000
0100
1000
0000
0000
0000
,
0001
0100
0010
0001
0010
1000
0001
0010
,
0100
0000
1000
0000
0000
0000
1000
0100
1000
0000
0001
0000
0001
0000
0100
0000
,
0010
1000
0100
0010
0000
0001
0100
0010
,
0000
0010
1000
0001
0000
0001
0010
0100
,
1000
0010
0100
1000
0100
0001
1000
0100
,
0010
0000
0000
0000
0001
0100
0010
1000
,
1001
0000
0001
0011
,
1001
0000
0101
0000
,
0110
0000
0000
0010
0000
0000
1010
0000
0000
0000
0000
0000
0000
0000
0000
0000
,
1100
0000
0000
0100
0000
0000
0010
0000
0000
0000
0000
0000
0000
0000
0000
0000
,
0001
0100
0000
0100
0000
0010
0000
0010
0000
1000
0000
1000
0000
0001
0000
0001
,
0010
0100
0000
0100
0000
1000
0000
1000
0000
0001
0000
0001
0000
0100
0000
0100
,
0010
1000
0000
1000
0000
0100
0000
0100
0000
0010
0000
0010
0000
0100
0000
0100
,
1000
0001
0000
0001
0000
0100
0000
0100
0000
0010
0000
0010
0000
0100
0000
0100
,
0001
1000
0000
1000
0100
1000
0000
0100
0010
0100
0000
0010
0001
0010
0000
0000
,
0001
0100
0000
0100
0010
0100
0000
0010
1000
0010
0000
1000
0001
1000
0000
0000
,
1000
0100
0000
0100
0010
0100
0000
1000
0001
1000
0000
0010
0100
0010
0000
0000
,
0010
1000
0000
1000
0100
1000
0000
0001
0010
0001
0000
1000
0010
1000
0000
0000
,
1000
0000
0001
0000
0010
0100
1000
0000
0001
0000
0100
0000
0010
1000
0100
0000
,
0010
0000
0001
0000
0100
0010
1000
0000
0100
0000
0010
0000
0001
0100
0010
0000
,
1000
0100
1000
0100
0010
0100
0010
0100
0001
0100
0001
0100
1000
0100
1000
0001
,
0100
0001
0100
1000
0100
1000
0100
0010
0110
0000
0000
0000
0000
0000
0000
0000
,
0010
1000
0001
0000
0010
0001
1000
0000
,
0100
0100
1000
0001
0001
0100
0010
0100
,
0001
0010
0001
0000
1000
0100
1000
0000
,
0010
0010
0100
0001
0001
1000
0100
0010
,
0100
1000
0001
0000
0100
0001
1000
0000
,
0010
0010
1000
0001
0001
0010
0100
1000
,
0010
0100
0010
0000
1000
0001
1000
0000
,
0100
0100
0010
1000
1000
0001
0100
0010
,
0001
0100
0010
0000
1000
0100
0010
0000
,
0001
0001
1000
0100
0100
1000
0100
0010
,
0100
0001
0100
0000
1000
0010
1000
0000
,
0010
0010
0100
0001
0001
0010
0100
0010
,
0001
1000
0010
0000
1000
0001
0010
0000
,
0001
0001
1000
0010
0010
0100
0001
1000
,
0001
0010
0001
0000
1000
0010
1000
0000
,
0001
0001
0010
1000
1000
0010
0001
0001
,
0100
0010
1000
0000
0100
0010
0001
0000
,
1000
0100
0010
0001
1000
0001
0100
0010
,
1000
0100
0010
0000
0001
0100
0010
0000
,
1000
0100
0001
0100
0010
0001
0100
1000
,
0100
0010
1000
0000
0100
0010
0001
0000
,
1000
0010
0100
1000
0100
0001
0010
1000
,
0010
0100
1000
0000
0010
0100
0001
0000
,
1000
0100
0001
0100
1000
0010
0100
1000
,
0100
0001
0010
0001
0100
0001
0011
0000
,
0001
0010
1000
0010
0100
1000
0010
0100
,
1000
0100
0001
0100
1000
0100
0110
0000
,
0010
1000
0100
0010
0001
1000
0001
0010
,
0100
1000
0010
0000
0100
0001
0010
0000
,
0100
1000
0010
0100
1000
0100
0001
0010
,
1000
0010
0100
0100
1000
1000
0001
0100
,
0010
1000
0001
0010
0100
1000
0001
0100
,
0101
0100
0100
0010
0000
1010
0000
1001
,
0000
0001
0010
0100
1100
0000
0000
0000
,
1000
0010
0010
0100
0000
0110
0000
0101
,
0000
0000
0001
0000
0000
0000
1000
0100
0010
0000
0001
0000
0001
0000
1000
0000
,
0010
0100
0001
0010
0000
0100
0000
1000
,
0000
0010
0010
0010
0010
0100
0001
1000
,
0100
0010
0001
1000
0000
0010
0010
1000
,
0000
0000
0001
0000
0001
0000
0010
0000
0100
0000
1000
0100
1000
0000
0001
0000
,
0100
0010
0100
0001
0000
0011
0000
1001
,
0000
0000
0000
0000
1000
1010
0000
0000
,
1000
0100
0010
0001
0000
0001
0000
0011
,
0000
0000
0000
0000
0000
0000
0001
0010
0001
0000
1000
0000
0010
0000
0100
0000
,
0001
0010
0100
1000
0000
0010
0000
1010
,
0000
0000
0000
0010
0100
0000
0000
0000
,
0001
0010
1000
0010
0001
0000
1000
0010
,
0000
0000
0000
0000
0110
0000
0000
0000
0001
0000
0010
0100
0010
0000
0001
0000
;

//--------------- dance-single - Nezemarth ----------------
#NOTES:
     dance-single:
     Nezemarth:
     Challenge:
     14:
     0.663,0.827,0.279,0.007,0.376:
0000
0000
0000
0000
,
0000
0000
0000
0000
,
0000
0000
0000
0000
,
0000
0000
0000
0000
,
0000
0000
0000
0000
,
0000
0000
0000
0000
,
0000
0000
0000
0000
,
0000
0000
0000
0000
,
1000
0100
0010
0001
0100
0010
0100
0001
,
0000
1000
0000
1000
0001
0000
0000
0000
,
0010
0001
0100
0010
1000
0100
0010
0001
,
0000
0000
1000
0000
0000
0000
0100
0010
0100
0000
1000
0001
0000
0000
0010
0000
,
0001
0100
0010
1000
0100
0010
0001
1000
,
0000
0001
0000
0001
0100
0000
0000
0000
,
0010
1000
0010
0100
0001
0010
0001
1000
,
0000
0000
0010
0000
0000
0000
0010
0100
0010
0000
1000
0001
0000
0000
0001
0000
,
1000
0100
0010
1000
0010
0100
1000
0010
,
0000
0100
0000
0100
0001
0000
0000
0000
,
0100
1000
0100
0010
1000
0100
0010
0001
,
0000
0000
1000
0000
0000
0000
1000
0000
0001
0000
0100
0010
0100
0000
0001
0000
,
0010
0100
0001
1000
0001
0100
0010
0001
,
0000
1000
0000
0010
0100
0000
0000
0001
,
1000
0100
0010
1000
0001
0100
0010
0001
,
0000
0000
0000
0000
0000
0000
0000
0000
0010
0001
0010
0001
1000
0100
1000
0100
,
0010
0000
0100
1100
,
1001
0000
0101
0000
,
1010
0000
0000
1000
0000
0000
0100
0000
0000
0000
0000
0000
0000
0000
0000
0000
,
0011
0000
0000
0001
0000
0000
1000
0000
0000
0000
0000
0000
0000
0000
0000
0000
,
0010
1000
0000
0100
0000
0010
0000
0100
0000
1000
0000
0010
0000
0100
0000
1000
,
0100
0001
0000
1000
0000
0100
0000
0001
0000
0100
0000
1000
0000
0001
0000
0100
,
0010
0001
0000
0010
0000
1000
0000
0010
0000
0001
0000
0010
0000
0100
0000
0001
,
0010
1000
0000
0010
0000
0100
0000
1000
0000
0010
0000
0001
0000
0010
0000
0100
,
0001
0000
1000
0000
0100
0010
0100
0000
1000
0000
0001
0000
0100
0010
0100
0000
,
0001
0000
0010
0000
0100
1000
0100
0000
0010
0000
0001
0000
1000
0010
1000
0000
,
0100
0000
0010
0000
0001
0010
0001
0000
0100
0000
0010
0000
1000
0100
1000
0000
,
0001
0000
0100
0000
0010
1000
0001
0000
0010
0000
0100
0000
1000
0001
0100
0000
,
0010
1000
0010
0000
0100
0010
0100
0000
0001
0100
0001
0000
1000
0001
1000
0000
,
0001
0010
0100
0000
1000
0010
0100
0000
0001
1000
0100
0000
1000
0001
0100
0000
,
0010
1000
0010
1000
0001
1000
0001
1000
0100
1000
0100
0010
0001
0010
0001
1000
,
0010
0100
0001
1000
0100
0010
0001
1000
1001
0000
0000
0000
0000
0000
0000
0000
,
1000
0100
1000
0100
0001
0100
0001
0100
,
1000
1000
0001
0100
0100
0010
0010
1000
,
0001
0010
0001
0010
1000
0010
1000
0010
,
0001
0001
1000
0010
0010
0100
0001
1000
,
0100
0010
0100
0010
0001
1000
0001
1000
,
0010
0010
0100
0001
0001
1000
1000
0100
,
0010
0001
0010
0001
1000
0010
1000
0010
,
0100
0100
0001
1000
1000
0100
0010
0001
,
0011
0001
0100
1000
0100
0001
1000
0100
,
0010
0010
0001
1000
1000
0010
0100
0100
,
0001
0010
1000
0010
0001
1000
0001
0100
,
1000
1000
0100
0010
0010
1000
0001
0001
,
1000
0100
0001
0100
1000
0001
0100
1000
,
0100
0100
0010
1000
1000
0001
0010
0001
,
1000
0010
0001
0010
1000
0100
0010
0001
,
1000
1000
0100
0100
0010
0010
0001
0001
,
1000
0010
0110
0000
0001
0010
0110
0000
,
0100
0000
1000
0010
1000
0000
0010
0100
0010
0000
1000
0000
0100
0000
0010
0000
,
0001
0100
0101
0000
0010
1000
1100
0000
,
1000
0000
0010
0100
0010
0000
1000
0001
1000
0000
0100
0000
0010
0000
0001
0000
,
0100
0010
0110
0000
0010
0100
0110
0000
,
1000
0000
0001
0100
0001
0000
0100
0010
0100
0000
0010
0000
1000
0000
0001
0000
,
1000
0100
1100
0000
0001
0100
0101
0000
,
1000
0000
0100
0010
0100
0000
0010
0001
0010
0000
0001
0000
0100
0000
0010
0000
,
1000
0100
0010
0001
0100
0010
1010
1000
,
0001
0000
1000
0010
1000
0000
1000
0001
1000
0000
1000
0010
1000
0000
1000
0001
,
1000
0001
0100
0010
1000
0001
1001
0001
,
0100
0000
0010
0100
0010
0000
1000
0001
1000
0000
0100
0010
0100
0000
1000
0001
,
1000
0010
0110
1000
0010
0100
0101
0001
,
1000
0000
0001
0010
0001
0000
0001
1000
0001
0000
0001
0010
0001
0000
0001
1000
,
0001
0010
0110
1000
0100
0100
0010
0001
,
1000
0000
0010
0100
0010
0000
1000
0001
1000
0000
0100
0010
0100
0000
1000
0001
,
1000
0001
0001
1000
0010
0100
0001
0010
,
0000
0100
0010
0010
0010
0000
0000
0000
,
0100
1000
1000
0001
0100
0010
1000
0001
,
0000
0000
1000
0000
0010
0000
0100
0001
0010
0000
0100
1000
0001
0000
0100
0000
,
0010
1000
1000
0001
0010
0110
0000
1100
,
0000
0001
0001
0001
0001
0100
0100
0100
,
0010
1000
0001
0010
0100
1100
0000
1010
,
0000
0000
0010
0000
0100
0010
0100
0000
0001
0000
1000
0001
1000
0000
0100
0000
,
0000
1000
1000
0010
0100
0101
0000
1010
,
0000
0010
0010
0110
1001
0000
0000
0000
,
0001
0010
0100
0100
0000
0011
0000
1100
,
0000
0000
0000
0000
0000
0000
1000
0100
0010
0000
0001
0100
0010
0000
1000
0000
,
0100
0010
0001
1000
0000
1010
0000
0101
,
0000
0000
0000
1000
1001
0000
0000
0000
,
0011
0000
0011
0000
0101
0000
1010
1100
,
0000
0000
0000
0000
0110
0000
0000
0000
1001
0000
1000
0001
0100
0000
0010
0000
;
