#TITLE:Psychoanalysis;
#SUBTITLE:;
#ARTIST:nc ft. Yasushi Asada;
#TITLETRANSLIT:;
#SUBTITLETRANSLIT:;
#ARTISTTRANSLIT:;
#GENRE:;
#CREDIT:;
#MUSIC:Psychoanalysis.mp3;
#BANNER:;
#BACKGROUND:;
#CDTITLE:;
#SAMPLESTART:28.345;
#SAMPLELENGTH:15.000;
#SELECTABLE:YES;
#OFFSET:1.065;
#BPMS:0.000=106.000;
#STOPS:;
#BGCHANGES:;
#FGCHANGES:;

//--------------- dance-single - forcednature ----------------
#NOTES:
     dance-single:
     forcednature:
     Beginner:
     3:
     0,0,0,0,0:
0000
0000
0000
0000
,
0000
0000
0000
0000
,
0000
0000
0000
0000
,
0000
0000
0000
0000
,
0000
0000
0000
0000
,
0001
0000
1000
1000
,
1000
0000
0001
0001
,
0010
0000
0100
0100
,
0100
0000
0010
0000
,
1001
0000
1000
0000
,
0001
0000
0100
0000
,
0110
0000
0010
0000
,
1000
0000
0001
0000
,
1001
0000
1000
1000
,
1000
0000
0001
0001
,
0001
0000
0100
0100
,
0100
0000
0010
0000
,
1001
0000
0001
0000
,
0010
0010
0010
0000
,
0110
0000
1000
0000
,
0010
0010
0010
0000
,
1001
0000
1000
0000
,
0001
0000
0100
0000
,
0010
0000
1000
0000
,
0100
0000
0010
0000
,
1001
0000
1000
0000
,
0010
0000
0100
0000
,
1001
0000
0001
0000
,
0010
0010
0010
0000
,
0110
0000
1000
0000
,
0001
0000
0100
0000
,
1001
0000
0010
0000
,
1000
1000
1000
0000
,
0110
0000
0001
0000
,
1000
0000
0100
0000
,
1001
0000
0001
0000
,
0100
0100
0100
0000
,
1001
0000
0001
0000
,
1000
0000
0010
0000
,
1001
0000
1000
0000
,
0001
0001
1000
1000
,
0010
0000
0000
0000
0010
0000
0000
0000
0000
0000
0000
1001
0000
0000
0000
0000
;

//--------------- dance-single - forcednature ----------------
#NOTES:
     dance-single:
     forcednature:
     Easy:
     7:
     0,0,0,0,0:
0000
0000
0000
0000
,
0000
0000
0000
0000
,
0000
0000
0000
0000
,
0000
0000
0000
0000
,
0000
0000
0000
0000
,
0101
0000
0000
0001
0000
0000
0001
0000
0000
0001
0000
0000
0020
0000
0000
0000
,
0130
0000
0000
0100
0000
0000
0100
0000
0000
0100
0000
0000
1000
0000
0000
0000
,
0110
0000
0000
0001
0000
0000
0001
0000
0000
0001
0000
0000
0020
0000
0000
0000
,
0130
0000
0000
0100
0000
0000
0100
0000
0000
0100
0000
0000
1000
0000
0000
0000
,
1001
0000
0001
0100
0001
0000
0001
1000
,
1000
0000
1000
0100
1000
0000
1000
0001
,
0100
0000
0100
0000
0100
0000
0100
0010
,
0100
0000
0010
0000
0010
1000
0001
0000
,
1001
0000
1000
0100
0010
0000
0100
0000
,
1000
0000
0001
0100
0010
0000
0100
0000
,
0001
0000
1000
0010
0001
0000
0010
0000
,
1000
0000
0001
0010
1000
0000
0010
0001
,
1000
0000
0000
0001
0000
0000
1000
0000
0000
0001
0000
0000
1000
0000
0000
0000
,
0001
0000
0000
0100
0000
0000
0001
0000
0000
0100
0000
0000
0001
0000
0000
0000
,
1000
0000
0000
0100
0000
0000
1000
0000
0000
0100
0000
0000
1000
0000
0000
0000
,
0010
0000
0000
0100
0000
0000
0010
0000
0000
0100
0000
0000
0001
0000
1000
0000
,
0001
0000
0000
0010
0000
0000
0100
0000
0000
0000
1000
0000
0001
0000
0000
0000
,
1000
0000
0000
0010
0000
0000
0100
0000
0002
0000
0000
0000
0003
0000
0010
0000
,
0001
0000
0000
1000
0000
0000
0010
0000
0100
0000
0000
0000
0001
0000
1000
0000
,
0100
0000
0000
0010
0000
0000
0100
0000
1000
0000
0000
0000
0110
0000
0000
0000
,
1001
0000
0000
0001
0000
0000
0010
0000
0000
0000
0100
0000
0010
0000
0001
0000
,
1000
0000
0000
0001
0000
0000
0100
0000
0020
0000
0000
0000
0030
0000
1000
0000
,
1000
0000
0000
0010
0000
0000
1000
0000
0100
0000
0000
0000
0010
0000
0001
0000
,
1000
0000
0000
0010
0000
0000
0100
0000
0001
0000
0000
0000
1001
0000
0000
0000
,
0110
0000
0000
0001
0000
0000
1001
0000
0000
0000
1000
0000
0100
0000
0000
0000
,
0010
0000
0000
0100
0000
0000
1000
0000
0002
0000
0000
0000
0003
0000
0010
0000
,
0010
0000
0000
0110
0000
0000
1001
0000
0000
0000
0001
0000
0100
0000
0010
0000
,
1000
0000
0000
0100
0000
0000
0010
0000
0100
0000
0000
0000
1000
0000
0001
0000
,
0100
0000
0000
0010
0000
0000
1001
0000
0000
0000
0001
0000
0100
0000
0010
0000
,
1000
0000
0000
0100
0000
0000
0010
0000
0002
0000
0000
0000
0003
0000
0010
0000
,
0110
0000
0000
0010
0000
0000
0001
0000
1000
0000
0000
0000
0010
0000
1000
0000
,
1001
0000
0000
0001
0000
0000
0100
0000
0010
0000
1000
0000
1000
0000
0000
0000
,
1001
0000
1000
0100
0001
0000
0100
0010
,
0001
0000
0100
0010
1000
0000
0001
0000
,
1001
0000
0001
0100
1000
0000
0100
0010
,
1000
0000
0000
1000
0000
0000
0100
0000
0000
0010
0000
0000
0001
1000
0000
0000
,
0010
0000
0000
0000
0100
0000
0000
0001
0000
0010
0000
0020
0000
0000
0030
0000
;

//--------------- dance-single - forcednature ----------------
#NOTES:
     dance-single:
     forcednature:
     Medium:
     9:
     0,0,0,0,0:
0000
0000
0000
0000
,
0000
0000
0000
0000
,
0000
0000
0000
0000
,
0000
0000
0000
0000
,
0000
0000
0000
0000
,
1000
0100
0000
1000
0000
0000
1000
0100
0000
1000
0000
0000
0001
0000
1000
0000
,
0001
0100
0000
0001
0000
0000
0001
0100
0000
0001
0000
0000
1000
0000
0001
0000
,
1000
0010
0000
1000
0000
0000
1000
0010
0000
1000
0000
0000
0001
0000
1000
0000
,
0001
0010
0000
0001
0000
0000
0001
0010
0000
0001
0000
0000
0110
0000
0000
0000
,
1001
0000
0001
0100
0010
0000
1000
0110
,
0001
0000
0000
0000
1000
0000
0001
0000
0010
0000
0000
0000
0100
1000
0100
1000
,
0100
0000
0010
0001
1000
0000
0010
1001
,
0100
0000
0010
0000
1000
0001
0220
0330
,
0001
0100
0000
0001
0000
0000
1000
0010
0000
1000
0000
0000
0001
0000
1000
0000
,
1000
0100
0000
1000
0000
0000
0001
0010
0000
0001
0000
0000
0001
0000
1000
0000
,
0001
0010
0000
0100
0000
0000
1000
0010
0000
0100
0000
0000
0001
0000
1000
0000
,
1000
0100
0000
0010
0000
0000
0001
0100
0000
0010
0000
0000
1000
0000
0001
0000
,
1000
0100
1000
0100
0000
0000
0010
0001
0010
0001
0000
0000
1000
0000
0000
0000
,
0001
0100
0001
0100
0000
0000
0010
1000
0010
1000
0000
0000
0001
0000
0001
0000
,
1000
0100
1000
0100
0000
0000
0010
0001
0010
0001
0000
0000
1000
0000
0000
0000
,
0001
0100
0001
0100
0000
0000
0010
1000
0010
1000
0000
0000
1001
0000
0000
0000
,
0110
0000
0000
0001
0000
0000
1000
0000
0000
0000
0001
0000
0010
0000
0100
0000
,
1000
0000
0000
0010
0000
0000
0100
0000
0001
0000
0000
0000
0000
0000
0010
0000
,
0010
0000
0000
0100
0000
0000
1000
0000
0001
0000
0000
0000
0100
0000
0010
0000
,
1000
0000
0000
0100
0000
0000
0010
0000
0001
0000
0000
0000
0110
0000
0000
0000
,
1001
0000
0000
0001
0000
0000
0100
0000
0000
0000
0010
0000
1000
0000
0001
0000
,
1000
0000
0000
0100
0000
0000
0010
0000
0100
0000
0000
0000
0000
0000
1000
0001
,
1000
0000
0000
0010
0000
0000
0100
0000
0001
0000
0000
0000
0010
0000
0100
0000
,
0010
0000
0000
0001
0000
0000
0100
0000
0110
0000
0000
0000
1001
0000
0000
0000
,
1000
0000
0000
1100
0000
0000
0011
0000
0000
0000
0001
0000
0100
0000
0010
0000
,
1000
0000
0000
0100
0000
0000
0010
0000
1001
0000
0000
0000
0001
0000
0100
0000
,
0010
0000
0000
1000
0000
0000
0001
0000
1100
0000
0000
0000
1000
0000
0001
0000
,
0010
0000
0000
0110
0000
0000
1000
0000
0101
0000
0000
0000
1100
0000
0000
0000
,
1001
0000
0000
0110
0000
0000
0101
0000
0000
0000
0001
0000
0010
0000
0100
0000
,
1100
0000
0000
1000
0000
0000
0010
0000
1001
0000
0000
0000
0001
0000
0100
0000
,
0010
0000
0000
1000
0000
0000
0100
0000
0110
0000
0000
0000
0001
0000
1000
0100
,
1000
0000
0000
0110
0000
0000
1001
0000
0001
0000
0010
0000
0100
1000
0000
0000
,
0001
0100
0000
0001
0000
0000
0001
0100
0000
0001
0000
0000
1000
0000
0001
0000
,
1000
0100
0000
1000
0000
0000
1000
0100
0000
1000
0000
0000
0001
0000
1000
0000
,
0001
0010
0000
0100
0000
0000
1000
0010
0000
0100
0000
0000
0001
1000
0001
0000
,
1000
0100
0000
0100
0010
0000
0010
0001
0000
0001
1000
0000
0001
0100
0000
0000
,
0110
0000
0000
0000
1000
0001
1000
0001
0000
0100
0000
2002
0000
0000
3003
0000
;

//--------------- dance-single - forcednature ----------------
#NOTES:
     dance-single:
     forcednature:
     Hard:
     13:
     0,0,0,0,0:
0000
0000
0000
0000
,
0000
0000
0000
0000
,
0000
0000
0000
0000
,
0000
0000
0000
0000
,
0000
0000
0000
0000
,
1000
0100
0010
0001
0000
0001
1000
0100
0010
0001
0000
0001
0100
0010
1000
0001
,
1000
0010
0100
0001
0000
0001
1000
0010
0100
0001
0000
1000
0001
0000
0100
0000
,
0001
0100
0010
1000
0000
1000
0001
0100
0010
1000
0000
1000
0100
0010
0001
1000
,
0001
0010
0100
1000
0000
1000
0001
0010
0100
1000
0000
0010
0100
0010
0000
0000
,
1001
0000
0000
1000
0100
1000
0100
0000
0010
0001
0000
0001
0100
0000
0110
0000
,
0010
1000
0000
1000
0001
0000
0001
0010
0000
0010
0100
1000
0001
1000
0010
0100
,
0101
0000
0001
1000
0100
0010
0100
0000
1000
0001
0000
1000
0010
0000
0101
0000
,
0001
0010
0100
0010
0001
0100
0010
1000
0100
0001
0100
1000
0020
0000
0000
0000
,
0130
0001
1000
0010
0000
0010
0100
0001
1000
0010
0000
0010
1000
0001
0010
0100
,
1000
0001
0100
0010
0000
0010
1000
0001
0100
0010
0000
1000
0001
0000
0110
0000
,
0001
0010
0001
0100
0000
0100
0001
0010
0001
0100
0000
0100
0010
1000
0001
0010
,
0100
1000
0010
1000
0000
1000
0100
1000
0010
0100
0001
0010
0100
2000
0000
0000
,
3010
0100
0001
0010
0000
0100
1000
0001
0100
0010
0000
1000
0001
0010
0001
0100
,
0010
1000
0100
0010
0000
0100
1000
0001
0100
0010
0000
1000
0001
0000
0110
0000
,
1000
0100
1000
0010
0000
0100
0001
0010
0001
0100
0000
0010
1000
0100
0010
0001
,
0100
0010
1000
0001
0000
0010
0100
1000
0001
0100
0010
1000
0100
0010
0000
0000
,
1100
0000
0001
0100
0000
0001
1000
0000
0010
0000
0100
0000
0001
0000
0010
0000
,
0100
0000
1000
0001
0000
0100
0010
0000
1001
0000
0000
0000
0000
0000
1000
0100
,
1000
0000
0010
0100
0000
0001
0010
0000
0110
0000
0000
0000
1000
0000
0001
0100
,
0010
0000
1000
0100
0000
0010
0100
0000
1000
0001
0010
0000
0110
0000
0100
1000
,
0001
0000
0100
0001
0000
1000
0010
0000
0000
0000
1000
0000
0001
0010
0100
0000
,
0010
0000
0001
1000
0000
0010
0100
0000
1001
0000
0000
0000
0000
0000
0001
0010
,
0100
0000
1000
0001
0000
0100
0010
0000
1010
0000
0000
0000
1000
0000
0100
0010
,
0100
0000
1000
0001
0000
0100
0010
0000
1000
0100
0010
0001
0100
0010
0000
0000
,
1001
0000
0001
0100
0000
0010
1000
0000
0001
0000
0010
0000
0110
0000
0100
0000
,
1000
0000
0010
0100
0000
0001
1000
0000
1001
0000
0000
0000
0000
0000
0001
0010
,
0100
0000
0010
0001
0000
1000
0010
0000
0110
0000
0000
0000
0100
0000
0001
0000
,
1000
0000
0100
0010
0000
0100
1000
0000
0010
0000
0100
0001
0010
0001
0100
0010
,
1000
0000
0100
0010
0000
0100
1000
0000
0010
0000
0100
0000
1001
0000
0001
0000
,
0010
0000
0100
1000
0000
0001
0100
0000
1010
0000
0000
0000
0000
0000
1000
0100
,
0010
0000
0100
1000
0000
0001
0100
0000
0110
0000
0000
0000
0000
0000
0010
1000
,
0001
0000
0010
0001
0000
0100
0010
0000
1000
0100
1000
0010
0100
0001
0000
0000
,
0010
0100
0010
0001
0000
0100
0010
0100
0001
0010
0000
0100
1000
0001
0100
0001
,
1000
0100
0010
0100
0000
1000
0010
0100
0010
1000
0000
0100
0010
0000
0001
0000
,
0100
0001
1000
0010
0000
1000
0001
0010
0100
1000
0000
0001
0100
0001
1000
0010
,
1000
0100
1000
0010
0100
0001
0010
0001
0100
0010
1000
0001
0010
0100
0000
0000
,
2002
0000
3003
0000
0100
0010
0100
0010
0000
0110
0000
2002
0000
0000
3003
0000
;

//--------------- dance-single - forcednature ----------------
#NOTES:
     dance-single:
     forcednature:
     Challenge:
     14:
     0,0,0,0,0:
0000
0000
0000
0000
,
0000
0000
0000
0000
,
0000
0000
0000
0000
,
0000
0000
0000
0000
,
0000
0000
0000
0000
,
1000
0010
0100
0001
0000
0010
0100
0001
0100
0010
0000
0001
1000
0010
0001
0010
,
0100
0000
0001
0000
1000
0000
0100
0000
0000
0000
0010
0000
0001
0000
1000
0000
0001
0000
0100
0000
0001
0100
0001
0100
0010
0000
0000
0000
1000
0000
0000
0000
,
0001
0000
0010
0000
0100
0000
1000
0000
0000
0000
0001
0000
0100
0000
1000
0000
0100
0000
0010
0000
0000
0000
1000
0001
1000
0000
0100
0000
0010
0000
0001
0000
,
0101
0000
0000
0000
0001
0000
1000
0000
0000
0000
0010
0000
1010
0000
0000
0000
0000
0000
0001
0000
1000
0100
1000
0100
0010
0000
0001
0000
0000
0000
0000
0000
,
2002
0000
3003
0001
0100
0001
0100
0000
0010
1000
0000
1000
0001
0000
2002
0000
,
3003
0000
1000
0100
0000
0100
0010
0000
0010
0001
1000
0001
0100
0010
1000
0001
,
2002
0000
3003
0001
0010
0100
0010
0000
0100
1000
0000
1000
0010
0000
0220
0000
,
0330
0000
0000
0000
0000
0000
1000
0000
0000
0001
0000
0000
0000
0000
0000
1000
0000
0000
0010
0000
0000
1000
0000
0000
0100
0000
0000
0010
0000
0000
0001
0000
0000
1000
0000
0000
0001
0000
0100
0000
0001
0000
1000
0000
0100
0000
1000
0000
,
0010
0100
0001
1000
0000
1000
0010
0100
0001
1000
0000
1000
0001
0010
0100
1000
,
0010
0000
0100
0000
0001
0000
0010
0000
0000
0000
1000
0000
0010
0000
0001
0000
1000
0000
0001
0000
0000
0000
1000
0100
1000
0000
0010
0000
0100
0000
0001
0000
,
0010
0100
0010
0001
0000
1000
0010
0100
0001
1000
0000
0100
0001
0100
0010
0001
,
1000
0000
0001
0000
0100
0000
0010
0000
0000
0000
1000
0000
0100
0000
0010
0000
0001
0100
0001
0100
0001
0000
0010
0000
0100
0000
1000
0000
0010
0000
0100
0000
,
0001
0010
0100
0001
0000
0100
1000
0001
1000
0010
0000
0100
1000
0100
0010
0100
,
0001
0000
1000
0000
0100
0000
0001
0000
0000
0000
0100
0000
0010
0000
0001
0000
1000
0000
0010
0000
0000
0000
0100
0001
0100
0000
0010
0000
1000
0000
0100
0000
,
0010
0100
1000
0010
0000
0100
1000
0100
0001
0100
0000
0010
1000
0001
1000
0100
,
0010
0000
0100
0000
1000
0000
0010
0000
0000
0000
0100
0000
0001
0000
0010
0000
0100
0000
0110
0000
0000
0001
1000
0001
1000
0000
0010
0000
0000
0000
0000
0000
,
0102
0000
0000
0023
0000
0000
2030
0000
0000
0000
3020
0000
0230
0000
0302
0000
,
0203
0000
0000
2300
0000
0000
3020
0000
0230
0000
0000
0000
0000
0000
0301
0010
,
0200
0000
1300
0020
0000
0000
0230
0000
2300
0000
0000
0000
3002
0000
0023
0000
,
2030
0000
0000
3002
0000
0000
0023
0000
0230
0000
0300
0000
2002
0000
3003
0000
,
0210
0000
0000
0302
0000
0000
2003
0000
0000
0000
3020
0000
0032
0000
0023
0000
,
0230
0000
0000
2300
0000
0000
3200
0000
0302
0000
0000
0000
0000
0000
1003
0100
,
0002
0000
0103
0020
0000
0000
0032
0000
2003
0000
0000
0000
0000
3010
0001
0010
,
0200
0000
0000
0000
0301
0000
2000
0000
0000
0000
3100
0000
0020
0000
0000
0000
0031
0100
0001
0100
0010
0000
1000
0000
0001
0000
1000
0000
0100
0000
0010
0000
,
0002
0000
0000
0203
0000
0000
2300
0000
0000
0000
3002
0000
0023
0000
2030
0000
,
3002
0000
0000
0023
0000
0000
0230
0000
2300
0000
0000
0000
0000
0000
3010
0100
,
2000
0000
3100
0020
0000
0000
2030
0000
3002
0000
0000
0000
0023
0000
2030
0000
,
3020
0000
0000
0032
0000
0000
0203
0000
0320
0000
0030
0000
0220
0000
0330
0000
,
1002
0000
0000
2003
0000
0000
3020
0000
0000
0000
0230
0000
2300
0000
3200
0000
,
0302
0000
0000
2003
0000
0000
3020
0000
0032
0000
0000
0000
0000
0000
0013
0100
,
0002
0000
0013
0200
0000
0000
0302
0000
0203
0000
0000
0000
0310
0001
1000
0001
,
0100
0000
0010
1000
0010
0000
0200
0000
0000
0000
0301
0010
0100
0000
1000
0000
0020
0000
0000
0000
0100
0000
0130
0000
0010
0000
1000
0000
0100
0000
0010
0000
,
0001
0000
0100
0000
0010
0000
1000
0000
0000
0000
0100
0000
0001
0000
0100
0000
0010
0000
0001
0000
0000
0000
1000
0010
1000
0000
0100
0000
0001
0000
0100
0000
,
1000
0001
0100
0010
0000
0100
1000
0100
0010
1000
0001
0010
0100
0001
0100
1000
,
0001
0000
1000
0000
0010
0000
0100
0000
0000
0000
1000
0000
0100
0000
0010
0000
0100
0000
0001
0000
0000
0000
1000
0100
0010
0000
0001
0000
1000
0000
0001
0000
,
0100
0000
0010
1000
0010
0000
0100
0000
0001
0000
0010
0000
1000
0000
0010
0000
0001
0000
0100
0000
1000
0000
0100
0000
0010
0000
0110
0000
0000
0000
0001
0100
,
0020
0000
0030
0000
1000
0100
0100
0001
0000
0110
0000
2002
0000
0000
3003
0000
;
