#TITLE:Presto;
#SUBTITLE:;
#ARTIST:Osamu Kubota;
#TITLETRANSLIT:;
#SUBTITLETRANSLIT:;
#ARTISTTRANSLIT:;
#GENRE:;
#CREDIT:;
#MUSIC:Presto.mp3;
#BANNER:presto.png;
#BACKGROUND:;
#CDTITLE:;
#SAMPLESTART:28.668;
#SAMPLELENGTH:12.463;
#SELECTABLE:YES;
#OFFSET:-0.543;
#BPMS:0.000=136.000;
#STOPS:;
#BGCHANGES:;
#FGCHANGES:;

//--------------- dance-single - eataninja ----------------
#NOTES:
     dance-single:
     eataninja:
     Beginner:
     3:
     0,0,0,0,0:
0000
0000
0000
0000
,
0000
0000
0000
0000
,
0000
0000
0000
0000
,
0000
0000
0000
0000
,
0000
0000
0000
0000
,
0000
0000
0000
0000
,
2002
0000
3003
0000
,
0001
0000
0000
0000
,
0220
0000
0330
0000
,
0100
0000
0000
0000
,
1001
0000
0001
0000
,
0110
0000
0100
0000
,
1000
0000
0001
0000
,
0100
0000
0010
0000
,
0001
0000
0010
0000
,
1000
0000
0001
0000
,
0010
0010
0010
0000
,
0100
0100
0100
0000
,
2000
0000
3001
0000
,
0002
0000
0103
0000
,
0010
0100
0010
0000
,
1000
0000
0000
0000
,
1001
0000
0000
0000
,
0001
0000
0010
0000
,
1000
0000
0010
0000
,
0001
0000
0100
0000
,
1000
0000
0100
0000
,
0010
0010
1000
0000
,
0002
0000
0000
0003
,
0001
0000
0000
0000
,
0020
0000
0000
0030
,
0010
0000
0000
0000
,
0200
0000
0000
0300
,
0100
0000
0000
0000
,
2000
0000
3001
0000
,
0200
0000
0310
0000
,
1000
0000
0001
0000
,
0010
0010
0100
0000
,
0100
0100
1000
0000
,
0001
0000
1000
0000
,
0010
0010
0010
0000
,
0100
0100
0100
0000
,
0002
0000
0013
0000
,
0100
0010
0100
0000
,
1000
0000
0100
0000
,
0001
0000
0100
0000
,
1000
0000
0010
0000
,
0100
0000
0001
0000
,
1000
0000
0010
0000
,
0001
0000
0010
0000
,
0100
0100
0100
0000
,
0001
0000
0001
0000
1000
0000
0000
2002
,
0000
0000
0000
0000
,
0000
3003
0000
0000
;

//--------------- dance-single - eataninja ----------------
#NOTES:
     dance-single:
     eataninja:
     Easy:
     7:
     0,0,0,0,0:
0000
0000
0000
0000
,
0000
0000
0000
0000
,
0000
0000
0000
0000
,
0000
0000
0000
0000
,
0000
0000
0000
0000
,
0000
0000
0000
0000
,
0201
0000
0000
0000
0310
1000
0001
0000
,
0010
0100
2000
0000
0000
0000
3000
0000
,
1200
0000
0000
0000
0301
0100
1000
0000
,
0001
0100
0001
0000
1000
0010
0100
0000
,
0002
0000
0000
1003
0200
0000
0000
0310
,
0002
0000
0000
1003
0020
0000
0000
0130
,
0001
0000
0000
0000
1000
0000
0000
0000
0100
0000
0000
0100
0000
0000
0000
0000
,
0010
0000
0000
0010
0000
0000
0000
0000
0001
0000
0000
0001
0000
0000
0000
0000
,
0100
0000
0000
0000
1000
0000
0000
0000
0100
0000
0000
0100
0000
0000
0000
0000
,
0010
0000
0000
0010
0000
0000
0000
0000
1000
0000
0000
1000
0000
0000
0000
0000
,
0001
0000
0010
0000
0100
0010
0001
0000
,
1000
0000
0010
0000
0001
0010
1000
0000
,
0001
0000
0000
0000
0010
0000
0000
0000
0100
0000
0000
1000
0000
0000
0000
0000
,
0010
0000
0000
0000
0100
0000
0000
0000
0001
0000
0000
1000
0000
0000
0000
0000
,
0100
0000
0001
0000
0100
0100
0010
0000
,
0001
1000
0010
0100
,
0101
0000
1001
0000
0010
0100
1000
0000
,
0001
0100
0001
0000
0100
1000
0100
0000
,
1000
0010
1000
0000
0010
0001
0010
0000
,
0001
0100
0001
0000
0100
1000
0010
0000
,
0001
0100
1000
0000
0010
0001
0100
0000
,
0010
0000
1000
0100
0020
0000
0030
0000
,
0001
1000
0020
0000
,
0230
0000
2300
0000
,
3100
0001
0020
0000
,
0230
0000
2300
0000
,
3001
0100
2000
0000
,
3200
0000
0320
0000
,
2030
0000
3200
0000
,
0302
0000
0203
0000
,
0310
0001
0010
0000
0001
1000
0010
0000
,
0001
0010
1000
0000
0100
0010
0001
0000
,
1000
0010
0100
0000
0001
1000
0100
0000
,
0000
0010
0000
0000
0010
0000
0000
0000
1000
0000
0010
0000
0001
0000
0000
0000
,
1000
0000
0010
0000
0100
0010
1000
0000
,
0001
0000
0010
0000
1000
0010
0001
0000
,
2000
0010
3002
0100
,
0013
0000
0000
0100
0000
0000
1000
0000
0001
0000
0000
0000
0001
0000
0000
0000
,
1000
0010
1000
0000
0001
0100
0001
0000
,
1000
0100
0001
0000
0001
0010
1000
0000
,
0001
0100
0001
0100
0010
0000
1000
0000
,
0001
0000
0010
0000
0100
0010
0001
0000
,
1000
0010
1000
0000
0010
0001
0100
0000
,
1000
0010
0001
0000
0010
0100
0001
1000
,
0000
0100
0010
0100
0000
0010
0001
0010
,
0000
0001
1000
0001
0100
0000
0010
0020
,
0000
0000
0000
0000
,
0000
0030
0000
0000
;

//--------------- dance-single - eataninja ----------------
#NOTES:
     dance-single:
     eataninja:
     Medium:
     11:
     0,0,0,0,0:
0000
0000
0000
0000
,
0000
0000
0000
0000
,
0000
0000
0000
0000
,
0000
0000
0000
0000
,
0000
0000
0000
0000
,
0000
0000
0000
0000
,
2002
0000
0000
3003
0001
0010
0100
1000
,
0010
0100
0002
0000
2003
0000
3000
0000
,
2200
0000
0000
3300
0100
0001
0100
1000
,
0010
0100
0001
0000
1000
0100
1000
0000
,
1002
0000
0000
0013
0200
0000
0000
1300
,
0020
0000
0000
0130
0002
0000
0000
1003
,
0100
0000
0000
0010
0000
0001
0000
1000
0010
0000
0000
0102
0000
0000
0000
0000
,
0013
0000
0000
2100
0000
0000
0000
0000
3001
0000
0000
0201
0000
0000
0000
0000
,
0310
0000
0000
1000
0000
0001
0000
0010
0100
0000
0000
1002
0000
0000
0000
0000
,
0103
0000
0000
1020
0000
0000
0000
0000
1030
0000
0000
1200
0000
0000
0000
0310
,
0001
0000
1000
0000
0010
0100
0000
1000
0000
0100
0000
0001
0000
0000
0000
0001
,
0010
0000
0100
0000
1000
0010
0000
0001
0000
0010
0000
0100
0000
0000
0001
0000
,
1000
0000
0100
0000
0010
0000
0001
0000
0100
0000
0000
0020
0000
0000
0000
0000
,
0130
0000
0001
0000
0010
0000
0100
0000
1000
0000
0000
0002
0000
0000
0000
0000
,
1003
0000
0010
0000
0001
0000
0010
0000
0100
0000
0100
0000
0001
1000
0000
1200
,
0000
0000
0310
0001
1000
0001
0100
0000
,
0010
1000
0000
0100
0000
0000
0010
0001
0000
0100
0000
0100
0010
0000
0010
0000
,
1000
0010
0001
0010
0100
0010
0001
0010
,
1000
0100
0001
0100
0010
0001
1000
0001
,
0100
0010
0100
0001
1000
0100
0001
1000
,
0010
0001
0100
1000
0100
0010
1000
0001
,
0010
0100
0001
0100
2000
0000
3000
0000
,
0002
0000
0200
0003
,
2000
0300
0002
3000
,
0020
0003
2000
0030
,
0002
3000
0020
0003
,
0130
0000
0000
0100
1000
0000
0000
0000
0001
0000
0000
0001
0100
0000
0000
0000
,
0010
0000
0000
0010
0100
0000
0000
0000
0001
0000
0000
0001
1000
0000
0000
0000
,
0200
0302
2003
3020
,
0032
0203
2300
3200
,
0310
0000
0000
1000
0000
0001
0000
0010
0100
0000
1000
0001
0000
0001
0000
0000
,
1000
0010
0000
0000
0100
0000
0001
0010
0000
0000
0100
0000
1000
0001
0000
0000
,
0100
0000
0010
1000
0000
0000
0001
0000
0010
0100
0000
0100
1000
0000
0000
0000
,
0001
0000
0100
0000
1000
0000
0100
0000
0010
1000
0000
0001
0000
1000
0000
0000
,
0100
0000
0010
0000
0001
1000
0000
0010
0000
0100
0000
0001
0000
0000
0000
0000
,
1000
0000
0100
0000
0001
0100
0000
0010
0000
0001
0000
1000
0000
0000
0010
0000
,
0100
0001
0101
0000
1000
0100
1100
0000
,
0010
0000
0000
0001
0000
0000
0100
0000
1000
0000
0100
0000
0001
0000
0000
0000
,
1000
0010
0100
0010
0001
0010
0100
0001
,
0010
1000
0010
0100
1000
0001
1000
0010
,
0100
1000
0100
0001
0010
0100
1000
0001
,
1000
0010
0000
0010
0100
0000
0001
0000
1000
0000
0100
0000
0010
0000
0000
0000
,
0001
0100
1000
0100
0010
0001
1000
0100
,
0001
0010
1000
0001
0100
0010
0001
0001
,
0100
0010
0100
1000
0100
0010
0100
0001
,
0010
0100
1000
0010
0100
0001
1000
2002
,
0000
0000
0000
0000
,
0000
3003
0000
0000
;

//--------------- dance-single - eataninja ----------------
#NOTES:
     dance-single:
     eataninja:
     Hard:
     13:
     0,0,0,0,0:
0000
0000
0000
0000
,
0000
0000
0000
0000
,
0000
0000
0000
0000
,
0000
0000
0000
0000
,
0000
0000
0000
0000
,
0000
0000
0000
0000
,
0021
0000
0000
0000
0000
0000
0031
1000
0001
0000
0100
0000
0010
0000
1000
0000
,
0100
0010
0002
0000
2003
0000
3000
0000
,
1020
0000
0000
0000
0000
0000
0000
0000
0130
0000
0001
0000
1000
0000
0100
0010
,
0001
0000
1000
0000
0010
0000
0000
0000
0010
0000
0100
0010
1000
0000
0001
0000
,
0020
0000
0000
0000
0000
0000
0130
1000
0002
0000
0000
0000
0000
0000
0103
0010
,
2000
0000
0000
0000
0000
0000
3001
0010
0200
0000
0000
0000
0000
0000
1300
0000
,
0001
0100
0000
0000
0101
0000
0000
0100
0010
0000
1000
0000
0001
0000
0010
0000
,
0100
1000
0000
0000
1100
0000
0000
0001
1000
0000
0010
0000
0100
0000
1000
0000
,
0100
0001
0000
0000
0101
0000
0000
0100
0010
0000
1000
0000
0100
0000
1000
0000
,
0001
0100
0000
0000
0101
0000
0000
1000
0010
0000
0100
0000
0001
0000
0001
0000
,
1000
0000
0100
0010
0100
0000
0010
0000
0001
1000
0000
0000
0010
0000
0100
0001
,
1000
0000
0001
0010
0001
0000
1000
0000
0100
0001
0000
0000
0100
0000
0010
0000
,
0001
0000
1000
0001
1000
0000
0010
0000
0100
0000
0000
0202
0000
0000
0303
0000
,
0001
0000
1000
0001
1000
0000
0100
0000
0010
0000
0000
0022
0000
0000
0033
0000
,
1000
0001
0100
1000
0100
0100
0010
1000
,
0001
0010
0000
0010
0100
0000
1000
0000
0001
0100
0000
0001
0100
0000
0010
0000
,
1000
0001
0000
0010
0000
0000
0100
1000
0000
0001
0000
0100
0010
0000
0010
0000
,
1000
0000
0001
0010
0001
0000
1000
0000
0010
0000
0100
0001
0100
0000
0010
0000
,
1000
0000
0001
0010
0100
0000
1000
0000
0001
0000
1000
0010
0100
0000
0000
0000
,
0001
0000
0100
0010
0100
0000
0001
0000
1000
0000
0100
0010
0100
0000
0001
0000
,
0100
0000
1000
0001
1000
0000
0010
0000
0001
0000
0010
0100
0001
0000
1000
0000
,
0100
0010
0001
1000
0020
0000
0000
0000
,
0230
0000
1000
0000
,
0010
0000
0302
0000
,
0023
0000
1000
0000
,
0100
0000
0032
0000
,
1003
0000
0000
1000
0010
0000
0000
0000
0001
0000
0000
0001
0010
0000
0000
0000
,
0100
0000
0000
0100
0001
0000
0000
0000
1000
0000
0000
1000
0100
0000
0000
0000
,
0020
1000
0100
0031
,
0200
1000
0010
0301
,
1000
0000
0001
0000
0011
0000
0000
0010
0100
0000
1000
0000
0001
0000
0100
0010
,
0100
0000
0001
0000
1000
0000
0100
0010
0000
0010
0001
0000
1000
0000
0010
0000
,
0100
0000
0001
0000
1000
0000
0100
0010
0100
0000
0001
0000
0100
0000
1000
0000
,
0001
0000
0100
0000
0010
0100
0000
0000
0101
0000
0001
0000
1000
0000
0000
0000
,
0001
0000
0010
0000
0100
1000
0000
0000
0001
0000
1000
0000
0010
0000
0100
0010
,
1000
0000
0001
0000
0100
0010
0000
0000
0001
0000
0010
0000
1000
0000
0001
1000
,
0001
0010
1000
1000
0001
0100
1000
1000
,
0010
0000
0000
0001
0000
0000
0100
0000
1000
0000
0000
0000
1001
0000
0000
0000
,
1000
0000
0010
1000
0010
0000
0100
0000
0001
0000
0010
0100
1000
0000
0001
0000
,
1000
0000
0010
0100
0001
0000
1000
0000
0100
0000
0010
0100
0010
0000
0001
0000
,
1000
0010
1000
0000
0001
0100
0001
0000
1000
0000
0100
0010
0000
0000
0001
0000
,
0100
0010
0000
0010
1000
0000
0001
0000
0010
0000
0100
0000
1000
0001
0000
0000
,
1000
0010
1000
0000
0001
0010
0001
0000
1000
0000
0100
0010
0001
0000
0100
0000
,
0010
0000
1000
0100
0010
0000
0001
0000
1000
0000
0010
0100
0010
0100
0002
0000
,
0000
0000
1003
0000
0100
0000
0001
0000
0100
0000
0010
0001
0010
0000
0001
0000
,
1000
0000
0010
0001
0010
0000
0100
0000
0001
0000
0010
0100
1000
0000
2002
0000
,
0000
0000
0000
0000
,
0000
3003
0000
0000
;

//--------------- dance-single - eataninja ----------------
#NOTES:
     dance-single:
     eataninja:
     Challenge:
     16:
     0,0,0,0,0:
0000
0000
0000
0000
,
0000
0000
0000
0000
,
0000
0000
0000
0000
,
0000
0000
0000
0000
,
0000
0000
0000
0000
,
0000
0000
0000
0000
,
2001
0000
0000
0000
0000
0000
3100
0010
0001
0000
1000
0000
0010
0000
0100
0000
,
0010
1000
0002
0000
2003
0000
3000
0000
,
1200
0000
0000
0000
0000
0000
0000
0000
0310
0001
0010
0001
1000
0010
0100
0001
,
1000
0000
0000
0010
0000
0000
0100
0000
0000
0000
0001
0100
0001
0000
0000
1000
0100
1000
0001
0000
0000
0010
0000
0000
,
1002
0000
0000
0000
0000
0000
0013
0100
2000
0000
0000
0000
0000
0000
3010
0100
,
0002
0000
0000
0000
0000
0000
1003
0010
0200
0000
0000
0000
0000
0000
0301
1000
,
0100
0001
0000
0100
0000
0010
0000
0001
1000
0010
0000
0210
0000
0000
0000
0000
,
0301
1000
0000
2100
0000
0000
0000
0000
3001
0100
0000
0201
0000
0000
0310
1000
,
0001
0010
0000
1000
0000
0010
0000
0100
1000
0001
0000
0201
0000
0000
0000
0000
,
0310
1000
0000
1200
0000
0000
0000
0000
0310
0001
0000
2001
0000
0000
0000
3010
,
0100
0010
1000
0001
0010
0100
0000
0001
0000
0100
0000
1000
0000
0000
0000
0010
,
0100
1000
0100
0010
1000
0001
0000
0010
0000
1000
0000
0010
0000
0000
0100
0000
,
1000
0000
0000
0000
0001
0000
0000
0000
0100
0000
0000
0000
0100
0000
0000
0000
0010
0000
0000
0000
1000
0000
0000
0000
0001
0000
0000
0000
0000
0000
0000
0000
0000
2200
0000
0000
0000
0000
0000
0000
0000
0000
3300
0000
0000
0000
0000
0000
,
1000
0000
0000
0000
0001
0000
0000
0000
1000
0000
0000
0000
1000
0000
0000
0000
0010
0000
0000
0000
0100
0000
0000
0000
0001
0000
0000
0000
0000
0000
0000
0000
0000
0022
0000
0000
0000
0000
0000
0000
0000
0000
0033
0000
0000
0000
0000
0000
,
0010
0100
0010
1000
0000
0010
0000
0100
1000
0000
1000
0001
0100
0010
0000
0110
,
0000
0000
0100
0001
1000
0001
0000
0010
0100
0000
0100
1000
0001
0100
0000
0000
,
0100
0010
0000
0010
0000
1000
0001
0010
0000
0100
0000
0100
1000
0000
1000
0001
,
0100
0010
0100
0001
1000
0010
0100
0010
1000
0100
0010
0100
1000
0001
0100
0001
,
1000
0010
0100
0010
0001
0010
0100
0010
1000
0100
0010
0100
0001
0100
0010
0100
,
1000
0001
0100
0001
0010
0100
0010
0001
1000
0010
0100
0010
0001
0010
1000
0001
,
0010
0100
1000
0100
0001
0100
0010
0001
1000
0010
0100
0010
1000
0001
0010
0100
,
1000
0001
1000
0010
0100
0001
0010
0100
2000
0000
0000
0000
3000
0000
0000
0000
,
0002
0000
0000
0000
2003
0000
0000
0000
3020
0000
0000
0000
0032
0000
0000
0000
0000
0000
0000
0000
0000
0013
0000
0000
,
0020
0000
0230
0000
,
0302
0000
0000
0000
2003
0000
0000
0000
3200
0000
0000
0000
0302
0000
0000
0000
0000
0000
0000
0000
0000
0103
0000
0000
,
0200
0000
0320
0000
,
0032
0000
0000
0000
2003
0000
0000
0000
3020
0000
0000
0000
0032
0000
0000
0000
0000
0000
0000
0000
0000
1003
0000
0000
,
2000
0000
3200
0000
,
0302
0000
0023
0000
,
2030
0000
0000
0000
0000
0000
0000
0000
3200
0000
0000
0000
0000
0301
1000
0001
,
0010
0100
0000
1000
0000
0001
1000
0010
0100
0001
1000
0100
0000
0001
0000
0000
,
0100
0010
0000
0010
0001
0100
0010
1000
0000
1000
0001
0010
0100
0010
0000
0010
,
0001
1000
0010
0100
0000
0100
0001
1000
0001
0010
0000
0010
0100
1000
0000
0000
,
0001
0000
0000
0100
0000
0000
0010
0000
0000
0000
0000
0000
0100
0000
0000
0010
0000
0000
0000
0000
0100
0000
0000
0000
1000
0000
0000
0000
0100
0000
0000
0000
0000
0001
0000
0000
0000
0000
0000
1000
0000
0000
0000
0000
0000
0100
0000
0000
,
0010
0001
1000
0010
0100
0010
0000
0001
0000
0010
0000
1000
0000
0000
0000
0001
,
0010
0100
1000
0001
1000
0100
0000
0001
0000
0100
0000
0010
0000
0000
0001
0000
,
1000
0010
0100
0100
0001
1000
0001
0010
0100
0100
1000
0001
,
0100
0010
1000
0001
0010
0100
1000
0001
0100
1000
0100
0001
1000
0000
0000
0000
,
0100
0010
0001
1000
0010
0100
0010
1000
0010
0001
0010
0100
0001
1000
0100
1000
,
0010
1000
0100
0010
0001
1000
0010
1000
0001
0100
1000
0100
0010
0100
0001
1000
,
0100
0010
0001
1000
0010
0100
0010
1000
0001
0010
0100
0001
0100
0010
0001
1000
,
0001
0100
0010
0001
0010
0100
0001
1000
0100
0010
0001
0000
1000
0010
0000
0000
,
1000
0010
0100
0010
0001
0010
0100
0001
1000
0100
0001
0100
0010
0001
1000
0010
,
0100
1000
0100
0001
0010
0100
1000
0001
1000
0010
0001
0010
1000
0100
0001
0000
,
0100
0010
0001
1000
0010
0100
0001
1000
0100
0001
0100
1000
0010
0001
0010
1000
,
0100
0010
0001
1000
0010
0001
0010
1000
0100
0010
0001
0100
0010
1000
0002
0000
,
0000
0000
0000
0000
,
0000
0003
0000
0000
;
