#TITLE:Please Don't Go;
#SUBTITLE:;
#ARTIST:Mike Posner;
#TITLETRANSLIT:;
#SUBTITLETRANSLIT:;
#ARTISTTRANSLIT:;
#GENRE:;
#CREDIT:;
#MUSIC:Please Don't Go.mp3;
#BANNER:;
#BACKGROUND:;
#CDTITLE:;
#SAMPLESTART:0.000;
#SAMPLELENGTH:0.000;
#SELECTABLE:YES;
#OFFSET:1.478;
#BPMS:0.000=120.016;
#STOPS:;
#BGCHANGES:1.478=Please Don't Go.avi=1.000=1=0=0=StretchNoLoop==CrossFade==,
99999.000=-nosongbg-=1.000=0=0=0=StretchNoLoop====
;
#FGCHANGES:;

//--------------- dance-single - blank ----------------
#NOTES:
     dance-single:
     blank:
     Beginner:
     1:
     0,0,0,0,0:
0000
0000
0000
0000
,
0000
0000
0000
0000
,
0000
0000
0000
0000
,
0000
0000
0000
0000
,
0000
0000
0000
0000
,
0000
0000
0000
0000
,
0000
0000
0000
0000
,
0000
0000
0000
0000
,
0000
0000
0000
0000
,
1000
0000
0000
0000
,
1000
0000
0000
0000
,
0100
0000
0000
0000
,
0010
0000
0000
0000
,
0010
0000
0000
0000
,
0100
0000
0000
0000
,
0000
0000
0001
0000
,
0000
0000
1000
0000
,
0100
0000
0000
0000
,
0001
0000
0000
0100
,
0001
0000
0000
0100
,
0010
0000
0000
1000
,
0010
0000
0000
0100
,
0001
0000
0000
0000
,
0010
0000
0000
0001
,
0100
0000
0000
0100
,
0010
0000
0000
0001
,
0001
0000
0000
0010
,
1000
0000
0000
0001
,
0010
0000
0000
0100
,
0001
0000
0000
0100
,
1000
0000
0000
0100
,
0001
0000
0000
0010
,
0100
0000
0000
0001
,
2000
0000
0000
0000
,
3010
0000
1000
0000
,
0000
0000
0000
0000
,
0000
0000
1000
1000
,
0001
0000
0010
0000
,
0001
0000
0100
0000
,
0000
0000
0000
0000
,
0000
0000
0000
1000
,
0010
0000
0001
0000
,
0100
0000
0000
0100
,
0010
0000
1000
0000
,
0100
0000
0000
1000
,
0001
0000
0010
1000
,
0010
0000
0000
0000
,
0000
0001
1000
0000
,
0010
0000
0001
0000
,
0001
0000
0000
1000
,
1000
0000
0000
0010
,
0010
0000
0000
0001
,
0100
0000
0000
1000
,
0010
0000
0000
0001
,
0010
0000
0000
0100
,
1000
0000
0000
0100
,
0001
0000
0000
0001
,
0001
0000
0000
0010
,
1000
0000
0000
0010
,
0001
0000
0000
0100
,
1000
0000
0000
0100
,
0001
0000
0000
0000
;

//--------------- dance-single - blank ----------------
#NOTES:
     dance-single:
     blank:
     Easy:
     4:
     0,0,0,0,0:
0000
0000
0000
0000
,
0000
0000
0000
0000
,
0000
0000
0000
0000
,
0000
0000
0000
0000
,
0000
0000
0000
0000
,
0000
0000
0000
0000
,
0000
0000
0000
0000
,
0000
0000
0000
0000
,
0000
0000
0000
0000
,
1000
0000
0010
0000
,
1000
0000
0000
0010
0000
0000
0010
0000
,
0100
0000
1000
0000
,
0010
0000
0000
0001
0000
0000
0100
0000
,
0010
0100
0001
0000
,
0100
0000
0000
1000
0000
0000
0000
0010
,
0000
0000
1000
0000
0001
0000
0000
0001
,
0000
0100
1000
0001
,
0100
0000
0000
0100
0000
0000
0100
0000
0000
0000
0000
0000
0010
0000
0000
0000
,
0001
0000
0000
0001
0000
0000
0001
0000
0000
0000
0000
0000
0100
0000
0000
0000
,
0001
0000
0000
0001
0000
0000
0001
0000
0000
0000
0000
0000
0100
0000
0000
0000
,
0010
0000
0000
0010
0000
0000
0010
0000
0000
0000
0000
0000
1000
0000
0000
0000
,
0010
0000
0000
0010
0000
0000
0010
0000
0000
0000
0000
0000
0100
0000
0000
0000
,
0001
0000
0000
0001
0000
0000
0001
0000
0000
0000
0000
0000
0000
0000
0100
0000
,
0010
0000
0000
0010
0000
0000
0010
0000
0000
0000
0000
0000
0001
0000
0000
0000
,
0100
0000
0000
0100
0000
0000
1000
0000
0000
0000
0010
0000
0100
0000
0000
0000
,
0010
0000
0000
0100
0000
0000
0100
0000
0000
0000
0001
0000
0001
0000
0000
0000
,
0001
0000
0000
0001
0000
0000
0001
0000
0000
0000
0100
0000
0010
0000
0000
0000
,
1000
0000
0000
1000
0000
0000
1000
0000
0000
0000
0100
0000
0001
0000
0000
0000
,
0010
0000
0000
0100
0000
0000
0010
0000
0000
0000
1000
0000
0100
0000
0000
0000
,
0001
0000
0000
1000
0000
0000
1000
0000
0000
0000
0001
0000
0100
0000
0000
0000
,
1000
0000
0000
0001
0000
0000
0001
0000
0000
0000
0010
0000
0100
0000
0000
0000
,
0001
0000
0000
1000
0000
0000
1000
0000
0000
0000
0100
0000
0010
0000
0000
0000
,
0100
0000
0000
0010
0000
0000
0001
0000
0000
0000
0010
0000
0001
0000
0000
0000
,
2000
0000
0000
0000
,
3010
0000
0001
0000
1000
0000
0000
1000
,
0000
0000
0000
0001
0000
0000
0000
0001
,
0000
0100
1000
1000
,
0001
1000
0010
0100
,
0001
0000
0010
0000
0100
0000
0000
0100
,
0000
0000
0000
0100
0000
0000
0000
0010
,
0000
0000
0001
0000
0000
0100
1000
0000
,
0020
0001
0001
0031
,
0100
0000
0000
0001
0000
0000
0100
0000
,
0020
1000
1000
1030
,
0100
0000
0000
1000
0000
0000
1000
0000
,
0001
0100
0010
1000
,
0010
0000
0000
0100
0000
0000
0000
0020
,
0000
0000
0001
0000
1030
0000
0000
0100
,
0010
0000
0001
1000
0001
0000
0100
0000
,
0001
0000
0000
0010
0000
0000
0001
0000
0000
0000
0001
0000
1000
0000
0000
0000
,
1000
0000
0000
0100
0000
0000
1000
0000
0000
0000
1000
0000
0010
0000
0000
0000
,
0010
0000
0000
0100
0000
0000
0001
0000
0000
0000
1000
0000
0001
0000
0000
0000
,
0100
0000
0000
0100
0000
0000
0100
0000
0000
0000
0001
0000
1000
0000
0000
0000
,
0010
0000
0000
0010
0000
0000
0001
0000
0000
0000
1000
0000
0001
0000
0000
0000
,
0010
0000
0000
0010
0000
0000
1000
0000
0000
0000
1000
0000
0100
0000
0000
0000
,
1000
0000
0000
0010
0000
0000
0001
0000
0000
0000
0001
0000
0100
0000
0000
0000
,
0001
0000
0000
0010
0000
0000
1000
0000
0000
0000
1000
0000
0001
0000
0000
0000
,
0001
0000
0000
0001
0000
0000
0001
0000
0000
0000
1000
0000
0010
0000
0000
0000
,
1000
0000
0000
1000
0000
0000
1000
0000
0000
0000
0100
0000
0010
0000
0000
0000
,
0001
0000
0000
0001
0000
0000
0001
0000
0000
0000
1000
0000
0100
0000
0000
0000
,
1000
0000
0000
0001
0000
0000
0010
0000
0000
0000
1000
0000
0200
0000
0320
0000
,
0031
0000
0000
0000
;

//--------------- dance-single - blank ----------------
#NOTES:
     dance-single:
     blank:
     Medium:
     7:
     0,0,0,0,0:
0000
0000
0000
0000
,
0000
0000
0000
0000
,
0000
0000
0000
0000
,
0000
0000
0000
0000
,
0000
0000
0000
0000
,
0000
0000
0000
0000
,
0000
0000
0000
0000
,
0000
0000
0000
0000
,
0000
0000
0000
0000
,
1000
0001
0010
0000
,
1000
0000
0000
0010
0000
0000
0010
0000
,
0100
0001
1000
0000
,
0010
0000
0000
0001
0000
0000
0100
0000
,
0010
0100
0001
1000
,
0100
0000
0000
1000
0000
0000
0000
0010
,
0000
0000
1000
0000
0001
0010
0000
0001
,
0010
0100
1000
0001
,
0100
0000
0000
0100
0000
0000
0100
0000
0000
0000
0010
0000
0010
0000
0000
0000
,
0001
0000
0000
0001
0000
0000
0001
0000
0000
0000
1000
0000
0100
0000
0000
0000
,
0001
0000
0000
0001
0000
0000
0001
0000
0000
0000
0010
0000
0100
0000
0000
0000
,
0010
0000
0000
0010
0000
0000
0010
0000
0000
0000
0100
0000
1000
0000
0000
0000
,
0010
0000
0000
0010
0000
0000
0010
0000
0000
0000
1000
0000
0100
0000
0000
0000
,
0001
0000
0000
0001
0000
0000
0001
0000
0000
0000
1000
0000
0001
0000
0100
0000
,
0010
0000
0000
0010
0000
0000
0010
0000
0000
0000
1000
0000
0001
0000
0000
0000
,
0100
0000
0000
0100
0000
0000
1000
0000
0100
0000
0010
0000
0100
0000
0000
0000
,
0010
0000
0000
0100
0000
0000
0100
0000
0000
0000
0001
0000
0001
0000
1000
0000
,
0001
0000
0000
0001
0000
0000
0001
0000
0000
0000
0100
0000
0010
0000
0100
0000
,
1000
0000
0000
1000
0000
0000
1000
0000
0000
0000
0100
0000
0001
0000
0100
0000
,
0010
0000
0000
0100
0000
0000
0010
0000
0000
0000
1000
0000
0100
0000
0010
0000
,
0001
0000
0000
1000
0000
0000
1000
0000
0000
0000
0001
0000
0100
0000
0010
0000
,
1000
0000
0000
0001
0000
0000
0001
0000
0000
0000
0010
0000
0100
0000
0010
0000
,
0001
0000
0000
1000
0000
0000
1000
0000
0000
0000
0100
0000
0010
0000
0001
0000
,
0100
0000
0000
0010
0000
0000
0001
0000
0010
0000
0010
0000
0001
0000
0000
0000
,
2000
0000
0000
0000
,
3010
0000
1001
0000
1000
0000
0010
1000
,
0000
0000
0010
0001
0000
0000
0100
0001
,
0000
0100
1000
1000
,
0001
1000
0010
0100
,
0001
0000
0010
0000
0100
0000
1000
0100
,
0000
0000
0001
0100
0000
0000
1000
0010
,
0000
0000
0001
0000
0000
0100
1000
0100
,
0020
0001
0001
0031
,
0100
0000
0000
0001
0100
0000
0100
0000
,
0020
1000
1000
1030
,
0100
0000
0000
1000
0100
0000
1000
0000
,
0001
0000
0100
0000
0010
0000
1000
0100
,
0010
0000
0001
0100
0000
0000
0100
0020
,
0000
0000
0001
0000
1030
0100
0000
0100
,
0010
0000
0001
1000
0001
0000
0100
0000
,
0001
0000
0000
0010
0000
0000
0101
0000
0000
0000
0001
0000
1000
0000
0000
0000
,
1000
0000
0000
0100
0000
0000
1001
0000
0000
0000
1000
0000
0010
0000
0000
0000
,
0010
0000
0000
0100
0000
0000
0101
0000
0000
0000
1000
0000
0001
0000
0000
0000
,
0100
0000
0000
0100
0000
0000
1100
0000
0000
0000
0001
0000
1000
0000
0100
0000
,
0010
0000
0000
0010
0000
0000
0011
0000
0000
0000
1000
0000
0001
0000
0000
0000
,
0010
0000
0000
0010
0000
0000
1010
0000
0000
0000
1000
0000
0100
0000
0000
0000
,
1000
0000
0000
0010
0000
0000
0011
0000
0000
0000
0001
0000
0100
0000
0000
0000
,
0001
0000
0000
0010
0000
0000
1010
0000
0000
0000
1000
0000
0001
0000
1000
0000
,
0001
0000
0000
0001
0000
0000
0001
0000
0000
0000
1000
0000
0010
0000
0010
0000
,
1000
0000
0000
1000
0000
0000
1000
0000
0000
0000
0100
0000
0010
0000
1000
0000
,
0001
0000
0000
0001
0000
0000
0001
0000
0000
0000
1000
0000
0100
0000
0001
0000
,
1000
0000
0000
0001
0000
0000
0010
0000
0000
0000
1000
0000
0200
0000
0320
0000
,
0031
0000
0000
0000
;

//--------------- dance-single - blank ----------------
#NOTES:
     dance-single:
     blank:
     Hard:
     11:
     0,0,0,0,0:
0000
0000
0000
0000
,
0000
0000
0000
0000
,
0000
0000
0000
0000
,
0000
0000
0000
0000
,
0000
0000
0000
0000
,
0000
0000
0000
0000
,
0000
0000
0000
0000
,
0000
0000
0000
0000
,
0000
0000
0000
0000
,
1000
0001
0010
0100
,
1000
0000
1000
0010
1000
0000
0010
0000
,
0100
0001
1000
0100
,
0010
0000
0010
0001
0010
0000
0100
1000
,
0010
0100
0001
1000
,
0100
0000
0100
1000
0100
0000
0100
0010
,
0001
0000
1000
0000
0001
0010
0000
0001
,
0010
0100
1000
0001
,
0100
0000
0000
0100
0000
0000
0100
0000
0000
0000
0010
0000
0010
0000
1000
0000
,
0001
0000
0000
0001
0000
0000
0001
0000
0000
0000
1000
0000
0100
0000
0010
0000
,
0001
0000
0000
0001
0000
0000
0001
0000
0000
0000
0010
0000
0100
0000
1000
0000
,
0010
0000
0000
0010
0000
0000
0010
0000
0000
0100
0000
1000
0000
0000
0100
0000
,
0010
0000
0000
0010
0000
0000
0010
0000
0000
0000
1000
0000
0100
0000
0010
0000
,
0001
0000
0000
0001
0000
0000
0001
0000
0000
0000
1000
0000
0001
0000
0100
0000
,
0010
0000
0000
0010
0000
0000
0010
0000
0000
0000
1000
0000
0001
0000
0010
0000
,
0100
0000
0000
0100
0000
0000
1000
0000
0100
0000
0010
0000
0100
0000
1000
0000
,
0010
0000
0000
0100
0010
0000
0100
0000
0000
0000
0001
0000
0001
0000
1000
0000
,
0001
0000
0000
0001
1000
0000
0001
0000
0000
0000
0100
0000
0010
0000
0100
0000
,
1000
0000
0000
1000
0100
0000
1000
0000
0000
0000
0100
0000
0001
0000
0100
0000
,
0010
0000
0000
0100
0010
0000
0010
0000
0000
0000
1000
0000
0100
0000
0010
0000
,
0001
0000
0000
1000
0100
0000
1000
0000
0000
0000
0001
0000
0100
0000
0010
0000
,
1000
0000
0000
0001
0100
0000
0001
0000
0000
0000
0010
0000
0100
0000
0010
0000
,
0001
0000
0000
1000
0010
0000
1000
0000
0000
0000
0100
0000
0010
0000
0001
0000
,
0100
0000
0000
0010
0100
0000
0001
0000
0010
0000
0010
0000
0001
0000
0001
0000
,
2000
0000
0000
0000
,
3010
0000
1001
0000
1000
0000
0010
1000
,
0100
0000
0010
0001
0100
0000
0100
0001
,
0010
0100
1000
1000
,
0001
1000
0010
0100
,
0001
0000
0010
0000
0100
0000
1000
0100
,
1000
0000
0001
0100
0001
0000
1000
0010
,
1000
0000
0001
0000
0010
0100
1000
0100
,
0020
0001
0001
0031
,
0100
0000
0100
0001
0100
0000
0100
0000
,
0020
1000
1000
1030
,
0100
0000
0100
1000
0100
0000
1000
0000
,
0001
0000
0100
0000
0010
0000
1000
0100
,
0010
0000
0001
0100
1000
0000
0100
0020
,
0000
0000
0001
0000
1030
0100
0000
0100
,
0010
0000
0001
1000
0001
0000
0100
0000
,
0001
0000
0000
0011
0000
0000
0101
0000
0000
0000
0001
0000
1000
0000
0010
0000
,
1000
0000
0000
1100
0000
0000
1001
0000
0000
0000
1000
0000
0010
0000
0100
0000
,
0010
0000
0000
0110
0000
0000
0101
0000
0000
0000
1000
0000
0001
0000
0010
0000
,
0100
0000
0000
0110
0000
0000
1100
0000
0000
0000
0001
0000
1000
0000
0100
0000
,
0010
0000
0000
0110
0000
0000
0011
0000
0000
0000
1000
0000
0001
0000
0100
0000
,
0010
0000
0000
0110
0000
0000
1010
0000
0000
0000
1000
0000
0100
0000
0010
0000
,
1000
0000
0000
1010
0000
0000
0011
0000
0000
0000
0001
0000
0100
0000
0010
0000
,
0001
0000
0000
0011
0000
0000
1010
0000
0000
0000
1000
0000
0001
0000
1000
0000
,
0001
0000
0000
0001
0100
0000
0001
0000
0000
0000
1000
0000
0010
0100
0010
0000
,
1000
0000
0000
1000
0100
0000
1000
0000
0000
0000
0100
0000
0010
0001
1000
0000
,
0001
0000
0000
0001
0100
0000
0001
0000
0000
0000
1000
0000
0100
0010
0001
0000
,
1000
0000
0000
0001
0100
0000
0010
0000
1000
0000
1000
0000
0200
0000
0320
0000
,
0031
0000
0000
0000
;
