#TITLE:PIPE LINE;
#SUBTITLE:;
#ARTIST:Kakeru Ishihama;
#TITLETRANSLIT:;
#SUBTITLETRANSLIT:;
#ARTISTTRANSLIT:;
#GENRE:;
#CREDIT:;
#MUSIC:PIPE LINE.mp3;
#BANNER:;
#BACKGROUND:;
#CDTITLE:;
#SAMPLESTART:60.568;
#SAMPLELENGTH:15.868;
#SELECTABLE:YES;
#OFFSET:0.920;
#BPMS:0.000=121.000;
#STOPS:;
#BGCHANGES:;
#FGCHANGES:;

//--------------- dance-single - eataninja ----------------
#NOTES:
     dance-single:
     eataninja:
     Beginner:
     2:
     0,0,0,0,0:
0000
0000
0000
0000
,
0000
0000
0000
0000
,
0000
0000
0000
0000
,
0000
0000
0000
0000
,
0000
0000
0000
0000
,
1001
0000
0000
0000
,
0100
0000
0010
0000
,
1001
0000
0000
0000
,
0010
0000
0100
0000
,
0002
0000
0000
0000
,
0003
0000
0000
0000
,
0100
0000
0000
0000
,
0010
0000
0000
0000
,
1000
0000
0000
0000
,
0100
0000
0000
0000
,
0010
0000
0000
0000
,
0001
0000
0000
0000
,
0100
0000
0001
0000
,
2002
0000
3003
0000
,
1000
0000
1000
0000
,
0001
0000
0001
0000
,
0010
0000
0010
0000
,
0010
0000
0010
0000
,
0001
0000
0001
0000
,
1000
0000
1000
0000
,
0010
0000
0010
0000
,
0010
0000
0010
0000
,
0200
0000
0300
0000
,
0002
0000
0003
0000
,
0010
0000
0100
0000
,
0220
0000
0330
0000
,
1001
0000
0000
0000
,
0100
0000
0010
0000
,
1001
0000
0000
0000
,
0010
0000
0100
0000
,
1001
0000
0000
0000
,
0100
0000
0010
0000
,
1001
0000
0000
0000
,
0010
0000
0100
0000
,
0001
0000
1000
0000
,
0100
0000
0010
0000
,
0001
0000
0100
0000
,
1000
0000
0100
0000
,
0010
0000
1000
0000
,
0100
0000
1000
0000
,
0001
0000
0010
0000
,
0100
0000
1000
0000
,
0002
0000
0000
0000
,
0003
0000
0000
0000
,
2000
0000
0000
0000
,
3000
0000
0000
0000
;

//--------------- dance-single - eataninja ----------------
#NOTES:
     dance-single:
     eataninja:
     Easy:
     4:
     0,0,0,0,0:
0000
0000
0000
0000
,
0000
0000
0000
0000
,
0000
0000
0000
0000
,
0000
0000
0000
0000
,
0000
0000
0000
0000
,
1001
0000
0100
0000
,
1000
0010
0100
0100
,
1001
0000
0001
0000
,
1000
0100
0001
0100
,
2000
0000
0000
0000
,
0001
0000
3100
0000
,
0220
0000
0330
0000
,
1000
0001
0100
0000
,
0010
0000
0010
0000
,
0100
0001
1000
0000
,
0100
0000
0100
0000
,
0010
0001
1000
0010
,
0002
0000
0000
0003
,
0010
1000
0100
0010
,
0001
0001
0001
0000
,
1000
1000
1000
0000
,
0010
0010
0100
0100
,
0001
0010
0100
1000
,
0001
0001
0001
0000
,
1000
1000
1000
0000
,
0010
0010
0100
0100
,
1000
0100
0001
0010
,
0200
0000
0000
0300
,
2000
0000
3010
0100
,
0020
0000
0000
0030
,
2002
0000
3003
0000
,
0101
0000
0000
0000
,
0100
0001
0010
0100
,
1100
0000
0000
0000
,
1000
0100
0001
0100
,
2000
0000
3001
0000
,
0010
0001
0100
0010
,
2000
0000
3001
0000
,
0001
0100
1000
0100
,
0010
1000
0001
0000
,
0010
0100
0010
0000
,
0001
1000
0010
0000
,
0100
1000
0100
0001
,
1000
0000
0001
0000
,
1000
0100
0010
0001
,
0100
0000
0010
0000
,
0110
0100
0001
1000
,
0200
0000
0000
0000
,
0000
0000
0000
0000
,
0300
0000
0000
0000
;

//--------------- dance-single - eataninja ----------------
#NOTES:
     dance-single:
     eataninja:
     Medium:
     7:
     0,0,0,0,0:
0000
0000
0000
0000
,
0000
0000
0000
0000
,
0000
0000
0000
0000
,
0000
0000
0000
0000
,
0000
0000
0000
0000
,
2010
0010
0001
3010
,
0100
0001
0100
0000
0020
0000
1030
0000
,
2100
0100
0001
3100
,
0010
0001
0010
0000
1000
0010
0001
0000
,
0200
0000
0000
0000
,
1000
0010
0301
0000
,
0020
0000
0000
0000
,
0001
1000
0130
0000
,
1001
0000
1000
0010
0000
0100
0000
0001
,
0000
0010
0100
0000
0110
0000
0000
0000
,
1001
0000
0001
0100
0000
0010
0000
1001
,
0000
0100
0010
0001
,
1000
0000
0010
1000
0000
0001
0010
0100
,
1000
0010
0100
0001
,
0010
0010
0010
0010
0010
0010
0010
0000
,
0100
0100
0100
0100
0100
0100
0100
0000
,
1000
1000
1000
0000
0001
0001
0001
0000
,
1000
0010
0001
0010
,
0100
0100
0100
0100
0100
0100
0100
0000
,
0010
0010
0010
0010
0010
0010
0010
0000
,
1000
1000
1000
0000
0001
0001
0001
0000
,
0010
1000
0100
0001
,
0020
0001
0100
0031
,
2000
3001
0200
0320
,
2030
0100
0100
3001
,
0202
0000
0303
0000
,
1010
0000
0000
0000
0000
0000
0000
2100
,
0000
0100
0001
3010
,
0101
0000
0000
0000
0000
0000
0000
0012
,
0000
0100
0010
1003
,
1000
0000
0100
0010
0000
0001
0000
1000
,
0000
0010
0100
0000
1001
0000
0100
0000
,
0001
0000
1000
0100
0000
1000
0000
0010
,
0000
0100
0001
0000
0010
0100
1000
0000
,
0001
0100
1000
0100
,
0001
1000
0001
0000
2200
0000
3300
0000
,
0010
0000
0001
0100
0010
0000
1000
0000
,
0001
1000
0100
0010
,
0001
1000
0001
0000
0100
0010
0100
0000
,
1000
0000
0100
0000
0001
0000
0010
1000
,
0010
0100
1000
0001
,
1000
0010
0100
0000
0001
0010
0100
1000
,
0002
0000
0013
0000
,
0002
0000
0103
0000
,
0002
0000
0013
0000
,
0002
0000
0103
0000
;

//--------------- dance-single - eataninja ----------------
#NOTES:
     dance-single:
     eataninja:
     Hard:
     10:
     0,0,0,0,0:
0000
0000
0000
0000
,
0000
0000
0000
0000
,
0000
0000
0000
0000
,
1000
0000
0000
1000
0010
0000
0100
0000
0000
0000
0001
0000
1000
0000
0002
0000
,
0000
0010
0013
0000
0110
0000
1001
0000
,
0001
0000
0000
0001
0010
0000
0100
0000
0000
0000
1000
0000
0001
0000
1000
0000
,
0010
0100
0001
0100
1000
0100
0001
0000
,
1000
0000
0000
1000
0010
0000
0100
0000
0000
0000
0001
0000
1000
0000
0001
0000
,
0100
0010
0100
0001
0010
0100
1000
0010
,
0200
0000
0000
1000
0000
0000
0000
0010
,
0000
1000
0301
0000
,
0020
0000
0000
0100
0000
0000
0000
1000
,
0000
0001
0130
0000
,
1000
0001
1000
0020
0000
0130
0001
2000
,
0000
0010
3001
0000
,
0001
1000
0001
0020
0000
0130
1000
0002
,
0000
0010
0100
1003
,
0100
0010
0100
1000
0000
0001
0100
0001
,
0020
1000
0100
0031
,
1000
0010
1000
0010
1000
0010
1000
0000
,
0001
0100
0001
0100
0001
0100
0001
0000
,
1000
0001
0001
1000
0100
0100
0010
0100
,
1000
0001
0100
0001
1000
0001
0010
0000
,
0001
0010
0001
0010
0001
0010
0001
0000
,
1000
0100
1000
0100
1000
0100
1000
0000
,
0001
1000
1000
0001
0010
0010
0100
0010
,
0001
1000
0010
1000
0001
1000
0100
0000
,
2000
0000
0000
0000
0001
0000
0000
0000
0100
0000
0000
0000
3001
0000
0010
0100
,
0020
0000
0001
0130
,
1000
0001
1000
0001
0100
0010
0100
0010
,
2001
0000
0100
3100
,
1000
0000
0000
1000
0001
0000
0100
0000
0000
0000
0010
0000
0100
0000
0102
0000
,
0000
0003
1001
0000
1100
0000
0110
0000
,
0001
0000
0000
0001
1000
0000
0100
0000
0000
0000
0010
0000
0100
0000
2100
0000
,
0000
3000
1001
0000
0001
0010
1000
0010
,
0100
0000
0000
0100
0010
0000
0001
0000
0000
0000
1000
0000
0001
0000
0200
0000
,
0000
0310
1000
0001
0010
1000
0010
0001
,
0100
0000
0000
0100
0010
0000
1000
0000
0000
0000
0001
0000
1000
0000
0200
0000
,
0000
0310
0100
1000
0001
0100
0001
0010
,
0200
0001
0010
1300
,
0001
1000
0001
0000
0100
0000
0010
0000
0200
0000
0000
0000
0300
0000
0000
0000
,
0001
0000
0010
0100
0000
1000
0001
0000
0100
0000
0000
0000
0001
0000
1000
0000
,
0010
0100
0001
0010
0100
0001
0100
1000
,
0001
0000
0000
0010
0000
0000
0100
0000
0000
1000
0000
0000
0010
0000
0000
0100
0000
0000
0001
0000
1000
0000
0001
0000
,
0100
0000
0001
0000
1000
0100
0000
2000
0000
0000
0000
0000
3001
0000
0010
0000
,
0100
0000
1000
0001
0000
0001
0100
0000
0010
0000
0001
0000
0010
0000
1000
0000
,
0001
0010
1000
0000
0010
0001
0100
0001
,
2000
0000
0100
0000
,
0010
0000
0100
0000
,
3001
0000
0000
0000
;
