#TITLE:Outta My Way;
#SUBTITLE:;
#ARTIST:Smashtrax;
#TITLETRANSLIT:;
#SUBTITLETRANSLIT:;
#ARTISTTRANSLIT:;
#GENRE:;
#CREDIT:;
#MUSIC:39. Outta My Way.mp3;
#BANNER:;
#BACKGROUND:;
#CDTITLE:;
#SAMPLESTART:25.670;
#SAMPLELENGTH:15.000;
#SELECTABLE:YES;
#OFFSET:-0.070;
#BPMS:0.000=150.000
,152.000=75.000
,156.000=150.000
;
#STOPS:;
#BGCHANGES:;
#FGCHANGES:;

//--------------- dance-single - eataninja ----------------
#NOTES:
     dance-single:
     eataninja:
     Beginner:
     3:
     0,0,0,0,0:
0000
0000
0000
0000
,
0000
0000
0000
0000
,
0000
0000
0000
0000
,
0000
0000
0000
0000
,
1000
0000
0100
0000
,
0001
0000
0100
0000
,
0010
0000
0001
0000
,
1000
1000
1000
0000
,
0010
0000
0100
0000
,
0001
0000
0010
0000
,
0100
0100
0100
0000
,
1000
0000
1001
0000
,
0001
0000
0100
0000
,
0010
0010
0010
0000
,
1000
0000
1001
0000
,
0010
0000
0100
0000
,
2000
0000
3000
0000
,
0002
0000
0003
0000
,
0100
0010
0100
0000
,
0010
0100
0010
0000
,
2000
0000
3000
0000
,
0002
0000
0003
0000
,
0010
0100
0010
0000
,
0100
0010
0100
0000
,
0020
0000
0030
0000
,
0200
0000
0300
0000
,
0001
1000
0001
0000
,
1000
0001
1000
0000
,
0200
0000
0300
0000
,
0020
0000
0030
0000
,
0002
0000
0003
0000
,
1000
0000
1001
0000
,
0001
0000
0100
0000
,
1000
0000
0100
0000
,
0001
0000
0100
0000
,
0000
0000
0000
0000
,
0001
0000
0010
0000
,
1000
0000
0010
0000
,
0001
0000
0000
0000
,
1000
0000
1001
0000
,
0001
0000
1001
0000
,
0010
0000
0100
0000
,
1000
1000
1000
0000
,
0001
0000
1001
0000
,
1000
0000
1001
0000
,
0010
0000
0100
0000
,
0001
0001
0001
0000
,
1000
0000
0100
0000
,
0010
0010
0010
0000
,
0001
0000
1001
0000
,
0010
0000
0100
0000
,
0001
0000
1000
0000
,
0100
0100
0100
0000
,
1000
0000
1001
0000
,
0010
0000
0100
0000
,
0002
0000
0003
0000
,
2000
0000
3000
0000
,
0001
0010
0001
0000
,
0010
0001
0010
0000
,
0002
0000
0003
0000
,
2000
0000
3000
0000
,
0001
0100
0001
0000
,
0100
0001
0100
0000
,
0020
0000
0030
0000
,
0200
0000
0300
0000
,
0001
1000
0001
0000
,
1000
0001
1000
0000
,
0200
0000
0300
0000
,
0020
0000
0030
0000
,
0002
0000
0003
0000
,
0001
0000
1001
0000
,
1000
0000
0010
0000
,
0001
0000
0010
0000
,
1000
0000
0010
0000
,
0000
0000
0000
0000
,
1000
0000
0100
0000
,
0001
0000
0100
0000
,
1000
0000
0100
0000
,
0000
0000
0000
0000
,
1000
0000
0010
0000
,
0001
0000
0010
0000
,
1000
0000
0100
0000
;

//--------------- dance-single - eataninja ----------------
#NOTES:
     dance-single:
     eataninja:
     Easy:
     5:
     0,0,0,0,0:
0000
0000
0000
0000
,
0000
0000
0000
0000
,
0000
0000
0000
0000
,
0000
0000
0000
0000
,
1000
0010
0100
0000
,
0001
0010
0100
0000
,
1000
0001
0100
0100
,
0010
1000
0100
0010
,
0001
0000
0101
0000
,
1000
0000
1100
0000
,
0001
1000
0010
0010
,
0100
0001
1000
0000
,
0001
0000
0011
0000
,
1000
0000
1010
0000
,
0001
1000
0001
0001
,
0100
0010
1000
0000
,
0001
0100
0020
0000
,
0230
0000
0302
0000
,
1003
0001
1000
0000
,
0001
0010
0001
0000
,
1000
0010
0200
0000
,
0302
0000
2003
0000
,
3100
0010
0100
0000
,
1000
1000
0001
0100
,
0010
1000
0002
0000
,
0023
0000
0230
0000
,
1300
0001
1000
0000
,
0010
0100
0001
0000
,
1000
0100
0020
0000
,
0230
0000
2300
0000
,
3002
0000
0203
0000
,
0310
1000
0100
0001
,
0100
0100
0010
0100
,
0100
0010
0100
1000
,
0001
0001
0100
0000
,
0110
0000
1001
0000
,
0100
0100
0010
0100
,
0100
0010
0100
0001
,
2000
0000
0000
3000
0000
0000
0000
0000
,
0001
0001
0010
0010
,
0100
0100
1000
1000
,
0010
0010
0100
0100
,
0001
0001
1000
0000
,
0001
0001
0200
0300
,
1000
1000
0200
0300
,
0001
1000
0001
0001
,
0010
0100
1000
1000
,
0001
0000
0101
0000
,
1000
0000
1010
0000
,
0001
1000
0100
0100
,
0010
0001
1000
0000
,
1000
0000
1010
0000
,
0001
0000
0101
0000
,
1000
0001
1000
1000
,
0100
0100
0010
0000
,
0001
1000
0020
0000
,
0230
0000
2300
0000
,
3100
0001
1000
0000
,
0001
0010
0100
0000
,
1000
0001
0020
0000
,
2030
0000
3020
0000
,
0130
1000
0001
0000
,
1000
0010
1000
0000
,
0001
1000
0020
0000
,
0032
0000
0023
0000
,
0130
0001
1000
0000
,
0001
0010
0100
0000
,
2000
0000
3002
0000
,
0203
0000
2300
0000
,
3200
0000
0320
0000
,
1030
0001
0010
0100
,
1000
1000
0001
1000
,
1000
0001
0100
0010
,
1000
1000
0001
0000
,
1001
0000
0110
0000
,
0001
0001
1000
0001
,
0001
1000
0010
0100
,
0001
0001
1000
0000
,
1001
0000
0110
0000
,
1000
1000
0010
0001
,
0001
0010
1000
0001
,
0010
0010
0100
0000
;

//--------------- dance-single - eataninja ----------------
#NOTES:
     dance-single:
     eataninja:
     Medium:
     9:
     0,0,0,0,0:
0000
0000
0000
0000
,
0000
0000
0000
0000
,
0000
0000
0000
0000
,
0000
0000
0000
0000
,
1000
1000
0000
0000
1001
0000
0000
0000
,
0001
0001
0000
0000
1001
0000
0000
0000
,
0010
0010
0000
0000
0110
0000
0000
1000
,
0001
0001
0000
0000
0100
0100
0000
0000
,
0010
0010
1000
0000
1001
0000
0000
0000
,
0010
0010
0100
0000
1100
0000
0000
0000
,
0001
0001
1000
0000
1010
0000
0000
0010
,
0100
0100
0000
0000
0001
0001
0000
0000
,
1000
1000
0100
0000
0110
0000
0000
0000
,
0001
0001
0100
0000
0110
0000
0000
0000
,
1000
1000
0001
0000
0011
0000
1000
0000
,
0010
0100
0001
0000
0010
0100
1000
0000
,
0001
0100
0001
0000
2000
0000
0100
0000
,
3020
0001
0230
0301
,
1000
0100
0010
0001
0000
0000
1000
0100
,
0010
0001
0000
0000
0100
0001
1000
0000
,
0001
0010
0001
0000
2000
0000
0010
0000
,
3200
0001
2300
3010
,
0100
0001
1000
0100
0000
0000
0100
1000
,
0001
0100
0000
0000
0010
0100
0001
0000
,
1000
0001
0010
0000
0200
0000
0001
0000
,
2300
0010
3002
0103
,
0010
0100
0001
1000
0000
0000
0010
0100
,
0001
1000
0000
0000
0100
0010
0001
0000
,
1000
0001
0100
0000
0020
0000
0001
0000
,
2030
0001
3020
0100
,
2030
3200
0302
0203
,
2300
0010
0001
3100
,
1000
0001
0100
0010
0000
0000
1000
0001
,
0100
0010
0000
1000
0100
0010
0001
0000
,
1000
0001
0100
0010
0000
0000
1010
0000
,
1000
0000
0001
0010
0000
0010
0100
0000
,
1000
0001
0010
0100
0000
0000
1000
0001
,
0010
0100
0000
1000
0001
0100
0010
0000
,
1000
0001
0010
0200
0000
0000
0300
0000
0000
0000
0000
0000
0000
0000
0000
0000
,
1000
1000
0100
0000
1100
0000
0101
0000
,
0001
0001
0100
0000
0101
0000
1100
0000
,
0001
0010
0100
0000
1000
0010
0100
0000
,
0001
1000
0001
1000
0010
0000
0100
0000
,
0001
0001
1000
0000
2200
0000
3300
0000
,
1000
1000
0001
0000
0202
0000
0303
0000
,
0100
0010
1000
0000
0001
0000
0010
0100
,
0000
0010
0001
0000
1000
0010
1000
0000
,
0001
0000
0100
1000
0100
1000
0100
0000
,
0001
0000
0010
0100
0010
0100
0010
0000
,
0001
0000
1000
0010
0001
0000
0010
0100
,
0001
0001
0000
0000
1000
1000
0000
0000
,
0001
0000
0010
1000
0010
1000
0010
0000
,
0001
0000
0100
0010
0100
0010
0100
0000
,
0001
0000
1000
0100
0010
0000
0011
0000
,
1000
1000
0000
0000
0001
0001
0000
0000
,
1000
0010
0001
0000
0020
0000
0100
0000
,
2030
0100
3002
0013
,
0001
0010
0100
1000
0000
0000
1000
0010
,
0100
0001
0000
0000
1000
0001
1000
0000
,
0001
0010
1000
0000
0020
0000
0100
0000
,
0032
1000
0023
0130
,
1000
0010
0100
0010
0000
0000
1000
0001
,
0010
0001
0000
0000
1000
0010
0100
0000
,
0001
0010
0100
1000
0002
0000
0100
0000
,
0023
1000
0032
0103
,
0010
1000
0001
0010
0000
0000
0100
1000
,
0001
0100
0000
0000
0010
0100
0010
0000
,
1000
0001
0010
0100
2000
0000
0001
0000
,
3200
0001
0320
0031
,
2000
3020
0032
0023
,
2030
0100
0001
3010
,
1000
0001
0010
0100
0000
0000
1000
0001
,
0010
0100
0000
1000
0001
0100
0010
0000
,
1000
0001
0010
0100
0000
0000
1100
0000
,
0001
0000
0101
0000
0100
0010
1000
0000
,
0001
0100
0010
1000
0000
0000
0001
0100
,
0010
1000
0000
0001
0010
0100
1000
0000
,
0001
0100
0010
1000
0000
0000
1010
0000
,
0001
0000
0011
0000
1000
0001
1000
0000
,
0001
0010
1000
0010
0000
0000
0001
0010
,
1000
0010
0000
0001
1000
0010
0100
0000
,
0001
0100
1000
0200
0000
0000
0300
0000
;

//--------------- dance-single - eataninja ----------------
#NOTES:
     dance-single:
     eataninja:
     Hard:
     11:
     0,0,0,0,0:
0000
0000
0000
0000
,
0000
0000
0000
0000
,
0000
0000
0000
0000
,
0000
0000
0000
0000
,
1000
1000
0001
0100
2000
0000
3000
0000
,
0100
0010
0100
0001
1000
0000
0000
0000
,
0001
0001
0010
0100
1000
0010
0100
0000
,
0001
1000
0001
0000
0010
0100
1000
0000
,
0010
0000
0100
0100
0001
0001
0010
2000
,
0000
3000
0010
0100
1000
1000
0001
0100
,
0000
0010
0100
0010
1000
1000
0001
0010
,
0100
0100
1000
0001
0001
0000
0000
0000
,
0100
0010
0100
0100
0001
1000
0100
0002
,
0000
0003
0100
0010
0001
0001
1000
0010
,
0000
0100
0010
0100
0001
0000
1001
0000
,
1000
0000
0010
0100
1000
0100
0001
0000
,
1000
0010
1000
0010
0200
0000
0301
0000
,
1000
0100
1000
0100
0020
0000
0130
0000
,
1000
0000
0000
0001
0000
0000
0100
0000
0000
1000
0000
0000
0000
0000
0000
0000
0001
0000
0000
0000
0010
0000
0000
0000
,
1000
0000
0100
0000
0010
0000
0001
0000
1000
0000
0010
0000
,
0100
0001
0100
0001
2000
0000
3100
0000
,
0010
0001
0010
0001
2000
0000
3010
0000
,
1000
0001
0010
1000
0001
0100
0000
0010
,
0000
0011
0000
1100
0000
0001
2000
0000
,
3001
0100
0001
0100
0010
1000
0010
0000
,
1000
0100
1000
0100
0010
0001
0100
0000
,
0001
0100
1000
0001
0010
0100
0000
0110
,
0000
1001
0000
0001
0010
0100
1000
0001
,
0100
0010
1000
0001
0100
0010
1000
0000
,
0001
0010
0100
1000
0001
0010
0001
0000
,
2000
0010
0001
3010
,
1000
0000
0100
0000
0010
0000
0001
0000
0100
0000
0010
0000
,
1000
0001
1000
0200
0000
0300
0001
1000
,
0001
0200
0000
0310
1000
0100
0010
0000
,
0001
1000
0001
0020
0000
0030
0100
1000
,
0001
0000
0100
0010
0000
0010
1000
0000
,
0001
0010
0001
0200
0000
0300
1000
0010
,
1000
0200
0000
0310
0001
1000
0001
0000
,
1000
0010
0100
0020
0000
0000
0030
0000
0000
0000
0000
0000
0000
0000
0000
0000
,
1000
1000
0001
0010
1000
0010
0001
0000
,
0100
0100
0010
0100
1000
0100
0001
0000
,
1000
0001
0010
0010
0100
0100
1000
0001
,
0100
0010
0100
0001
0010
0100
1000
0000
,
0001
0001
1000
0010
0002
0000
2003
0000
,
3100
0010
1000
1000
0001
0010
0100
0100
,
1001
0000
1000
0010
0200
0000
0310
2000
,
0000
3001
0010
0100
1000
0001
0100
0000
,
0010
1000
0001
0001
0010
0010
0100
0002
,
0000
0103
1000
0001
1000
0010
0100
2000
,
0000
3100
0010
1000
0001
0001
0010
0100
,
0001
0001
0100
1000
0001
0001
0100
0000
,
0010
1000
0001
0001
0010
0100
0010
2000
,
0000
3010
0100
0100
1000
1000
0010
0002
,
0000
0013
0100
0001
1000
0001
0010
0000
,
0100
0100
1000
0000
0001
0100
0010
0000
,
1000
0001
1000
0001
0010
1000
0010
0001
,
1000
0010
1000
0010
0100
1000
0100
0001
,
1000
1000
0100
0020
0000
0030
0001
1000
,
0020
0000
0130
0000
1000
0100
0001
0000
,
1000
0010
1000
0010
0100
0001
0010
0100
,
0001
0100
0001
0100
1000
0010
0100
0010
,
1000
1000
0001
0001
0100
0010
0000
0001
,
0000
1000
0000
1200
0000
0301
1000
0100
,
0010
0001
0010
0001
1000
0010
0001
0010
,
0100
0001
0100
0001
0010
1000
0010
0001
,
1000
0010
0100
0100
1000
0001
0000
0010
,
0000
0100
0001
1000
0000
0001
0010
0100
,
1000
0001
1000
0001
0100
0010
1000
0100
,
0001
0100
0001
0100
0010
0001
1000
0010
,
0200
2300
3002
0023
,
0130
0000
0001
0000
1000
0000
0100
0000
0010
0000
0001
0000
,
1000
1000
0010
0002
0000
0003
1000
1000
,
0010
0200
0000
0301
0001
0010
0100
0000
,
1000
1000
0001
0200
0000
0300
0110
0000
,
1000
0000
1001
0000
0001
0010
0100
0000
,
1000
1000
0100
0002
0000
0003
1000
1000
,
0100
0020
0000
0031
0001
1000
0010
0000
,
0100
0100
0010
2000
0000
3000
1001
0000
,
0100
0000
1100
0000
0001
1000
0010
0000
,
0100
0010
0010
2000
0000
3000
0100
0001
,
0001
2000
0000
3100
0010
0001
1000
0000
,
0010
0100
0100
0002
0000
0000
0003
0000
;
