#TITLE:Out of Control;
#SUBTITLE:;
#ARTIST:nc ft. NRG Factory;
#TITLETRANSLIT:;
#SUBTITLETRANSLIT:;
#ARTISTTRANSLIT:;
#GENRE:;
#CREDIT:;
#MUSIC:24. Out Of Control.mp3;
#BANNER:;
#BACKGROUND:;
#CDTITLE:;
#SAMPLESTART:72.873;
#SAMPLELENGTH:15.000;
#SELECTABLE:YES;
#OFFSET:1.584;
#BPMS:0.000=145.000;
#STOPS:82.750=0.414
,209.750=0.414
,224.000=0.414
;
#BGCHANGES:;
#FGCHANGES:;

//--------------- dance-single - forcednature ----------------
#NOTES:
     dance-single:
     forcednature:
     Beginner:
     3:
     0,0,0,0,0:
0000
0000
0000
0000
,
0000
0000
0000
0000
,
0000
0000
0000
0000
,
0000
0000
0000
0000
,
0000
0000
0000
0000
,
0010
0000
0010
0000
,
0000
0000
0010
0000
,
0000
0000
0010
0000
,
0000
0000
0010
0000
,
0100
0000
0100
0000
,
0000
0000
0100
0000
,
0100
0000
0100
0000
,
0100
0000
0000
0000
,
1001
0000
0000
0000
,
1000
0000
0000
0000
,
0001
0000
0000
0000
,
0100
0000
0000
0000
,
0010
0000
0010
0000
,
0010
0000
0000
0000
,
0100
0000
0100
0000
,
0100
0000
0000
1001
,
0000
0000
0000
1000
,
0000
0000
0000
0001
,
0000
0001
0000
0001
,
0000
0000
0000
1001
,
0000
0000
0000
0001
,
0000
0000
0000
1000
,
0000
1000
0000
1000
,
0000
0000
0000
0110
,
0000
0000
0000
0001
,
0000
0001
0000
0001
,
0000
0000
0000
1000
,
0000
1000
0000
1000
,
0000
0000
0000
0100
,
0000
0100
0000
0100
,
0000
0000
0000
0010
,
0000
0010
0000
1001
,
0000
0000
0000
1000
,
0000
0000
0000
0010
,
0000
0000
0000
0100
,
0000
0000
0000
0001
,
0000
0000
0000
0010
,
0000
0000
0000
0100
,
0000
0100
0000
0100
,
0000
0000
0000
1001
,
0000
0000
0000
1000
,
0000
0010
0000
1000
,
0000
0000
0000
0001
,
0000
0010
0000
0001
,
0000
0000
0000
0100
,
0000
0001
0000
0100
,
0000
0000
0000
0100
,
0000
0010
1001
0000
,
0000
0000
1000
0000
,
0010
0000
1000
0000
,
0000
0000
0001
0000
,
0000
1001
0000
0000
,
0000
0100
0000
0100
,
0000
0010
0000
0000
,
0000
0100
0000
0100
,
0000
1001
0000
0000
;

//--------------- dance-single - forcednature ----------------
#NOTES:
     dance-single:
     forcednature:
     Easy:
     6:
     0,0,0,0,0:
0000
0000
0000
0000
,
0000
0000
0000
0000
,
0000
0000
0000
0000
,
0000
0000
0000
0000
,
0000
0000
0000
0000
,
1000
1000
1000
0000
,
0001
0001
0001
0000
,
0100
0010
0100
0000
,
0010
0100
0010
0000
,
1000
0100
1000
0100
,
0001
0100
0001
0100
,
0010
0001
1000
0010
,
2002
3003
0000
0000
,
0110
0000
0001
0001
,
1000
1000
0010
0010
,
0100
0001
0100
0001
,
1000
0010
1000
0010
,
1000
0000
0100
0100
,
0010
0010
0100
1000
,
0001
0100
0001
1000
,
0100
0000
0000
0000
1000
0000
0000
0000
0020
0000
0000
0030
1001
0000
0000
0000
,
0000
0001
0100
0001
,
1000
0010
1000
0001
,
0000
1000
0100
0010
,
0001
0010
0100
1000
,
0000
0010
0100
0001
,
1000
0100
0010
0001
,
0000
0100
1000
0100
,
0010
0100
0001
1001
,
0000
1000
0100
0010
,
0001
0010
1000
0010
,
0000
0100
1000
0001
,
1000
0010
0100
0001
,
0000
0100
1000
0001
,
0010
1000
0001
1000
,
0000
0100
0001
1000
,
0010
0001
1000
1001
,
0000
0000
0000
0010
,
0000
0010
0000
0100
,
0000
0100
0000
0001
,
0000
0001
0000
1000
,
1000
0001
0001
0010
,
0010
0100
0100
1000
,
0001
0100
0010
2002
,
3003
0100
0100
0110
,
0001
0000
1000
1000
1000
0000
0010
0000
,
0100
0001
0010
0100
,
1000
0000
0010
0010
0010
0000
0100
0000
,
0001
1000
0100
0010
,
0001
0000
0100
0100
0100
0000
0010
0000
,
1000
0001
0010
0001
,
0100
0000
0001
0001
0001
0000
1000
0000
,
0100
0000
0000
0000
0010
0000
0000
0010
0100
0000
0000
0000
1000
0000
0000
0000
,
0001
0001
0001
0000
1000
0000
0010
0000
,
0100
0100
0100
0000
0001
0000
1000
0000
,
0100
0100
0100
0000
0010
0000
0001
0000
,
1001
0000
1000
0000
0010
0000
1000
1000
,
1000
0000
0100
0000
0010
0000
0001
0001
,
0001
0000
0100
0000
0001
0000
1000
1000
,
1000
0000
0010
0000
0100
0000
0001
0001
,
0001
2002
0000
0000
,
0000
3003
0000
0000
;

//--------------- dance-single - forcednature ----------------
#NOTES:
     dance-single:
     forcednature:
     Medium:
     11:
     0,0,0,0,0:
0000
0000
0000
0000
,
0000
0000
0000
0000
,
0000
0000
0000
0000
,
0000
0000
0000
0000
,
0000
0000
0000
0000
,
1000
1000
0001
0001
,
0100
0100
0010
0010
,
1000
0001
0010
0100
,
1000
0001
0100
0000
,
0010
1000
0010
0000
0100
0001
0100
0000
,
0001
0010
0001
0000
1000
0100
1000
0000
,
0010
0100
0010
0100
0001
1000
0001
1000
,
0200
0000
0300
0000
0010
0010
0010
0000
,
1001
0000
0001
0000
1000
0010
0100
0000
,
0001
0001
1000
1000
,
0100
0100
0001
0000
0100
0000
0010
0000
,
0100
0100
1000
0000
0010
0000
1000
0000
,
1001
0001
0100
0010
,
1000
0001
0010
0000
0100
0000
1000
0000
,
0100
0100
0001
0000
0100
0000
0010
0000
,
0100
0000
0100
0000
1000
0000
0000
0000
0020
0000
0000
0030
1001
0000
0000
0000
,
0001
0000
0100
1000
0100
0001
1000
0000
,
0100
0010
0100
1000
,
0001
0000
0100
0010
1000
0001
0010
0000
,
1000
0010
0100
1001
,
1000
0000
0010
0100
0001
0010
0100
0000
,
0001
1000
0010
0001
,
1000
0000
0010
0100
1000
0001
0010
0000
,
1000
0001
0010
0110
,
1000
0000
0001
0100
0010
1000
0001
0000
,
0010
1000
0010
0100
,
1000
0000
0001
0100
1000
0100
0010
0000
,
1000
0001
1000
0110
,
0001
0000
1000
0010
0100
0001
0010
0000
,
1000
0010
0100
1000
,
0001
0000
1000
0010
0100
1000
0100
0000
,
0001
0010
0100
2002
,
3003
0001
0001
1000
,
1000
0010
0010
0100
,
0001
1000
0100
0010
,
0001
0000
1000
0000
0010
0000
0100
1000
,
0100
0000
0100
0001
0100
0000
0010
1000
,
0010
0000
0010
0001
0010
0000
1000
0001
,
1000
0001
0010
0100
0010
0100
1001
0000
,
0100
0000
0100
0000
0010
0000
0010
0000
0100
0000
0000
0000
1001
0000
0000
0001
,
0000
0001
0000
0001
0000
0001
0000
0001
0000
0001
0100
0001
0000
0000
1000
0000
,
0100
0000
0010
0000
0001
0000
1000
0000
0010
0000
0000
0000
1001
0000
0000
1000
,
0000
1000
0000
1000
0000
1000
0000
1000
0000
1000
0100
1000
0000
0000
0010
0000
,
0100
0000
0001
0000
1000
0000
0100
0000
0010
0000
0000
0000
0110
0000
0000
0010
,
0000
0010
0000
0010
0000
0010
0000
0010
0000
0010
0100
0010
0000
0000
0001
0000
,
1000
0000
0001
0000
0100
0000
0010
0000
1000
0000
0000
0000
0110
0000
0000
0100
,
0000
0100
0000
0100
0000
0100
0000
0100
0000
0100
0010
0100
0000
0000
0001
0000
,
1000
0000
0100
0000
0110
0000
0000
1001
1010
0000
0000
1000
0000
0001
0000
1000
,
0000
0001
0000
1000
0000
0001
1000
0001
0000
0000
0100
0000
0001
0000
0010
0000
,
0100
0000
1000
0000
0010
0000
0000
0000
0110
0000
0000
0100
0000
0010
0000
0100
,
0000
0010
0000
0100
0000
0010
0100
0010
0000
0000
0100
0000
0001
0000
0010
0000
,
2002
3003
0000
0000
1001
0000
0000
1000
0000
0010
0000
1000
0000
0001
0000
0100
,
0000
0001
1000
0001
0000
0000
1000
0000
0100
0000
0010
0000
0001
0000
0100
0000
,
0010
0000
0000
0000
0110
0000
0000
0010
0000
1000
0000
0100
0000
0010
0000
0001
,
0000
1000
0001
1000
0000
0000
0100
0000
0001
0000
0100
0000
1000
0000
0001
0000
,
0100
2002
0000
0000
,
0000
3003
0000
0000
;

//--------------- dance-single - forcednature ----------------
#NOTES:
     dance-single:
     forcednature:
     Hard:
     14:
     0,0,0,0,0:
0000
0000
0000
0000
,
0000
0000
0000
0000
,
0000
0000
0000
0000
,
0000
0000
0000
0000
,
0000
0000
0000
0000
,
0001
0000
0000
0001
0000
0000
1000
0000
0000
1000
0000
0000
0100
0000
0000
0100
,
0000
0000
0010
0000
0000
0010
0000
0000
0100
0000
0000
0100
0000
0000
1000
0000
,
0000
0001
0000
0100
0000
0010
0000
1000
,
0000
0100
0000
0010
0000
0001
0000
0000
,
0100
0001
1000
0010
1000
0001
1000
0100
,
0001
0100
0010
1000
0010
0001
1000
0010
,
0001
0010
0100
1000
0100
0001
0010
0100
,
0220
0000
0330
0000
1000
0001
1001
0000
,
0001
0000
0000
0100
0001
0000
1000
0000
0000
0010
1000
0000
0001
0000
0000
1000
,
0100
0000
0010
0000
0000
0001
0010
0000
0100
0000
0000
1000
0001
0000
0100
0000
,
0001
1000
0010
1000
0001
0010
0100
0000
,
0001
0100
1000
0001
1000
0010
0200
0300
,
1000
0100
0001
1000
0001
0010
1000
0001
,
0100
0000
0000
1000
0001
0000
1000
0000
0000
0010
0100
0000
0001
0000
0000
0000
,
0010
0001
0100
0010
0001
0010
1000
0001
,
2000
0000
0000
0000
0100
0000
0000
0000
0020
0000
0000
3030
1001
0000
0000
0001
,
0100
0000
0010
1000
0001
1000
0100
0010
,
0001
0000
0000
0000
0100
0000
0010
0000
1000
0000
0001
0000
1000
0000
0000
0100
,
0010
0000
0100
1000
0001
1000
0010
0100
,
1000
0000
0100
0001
0100
0010
1000
0000
1001
0000
0000
0000
0110
0000
0000
1000
,
0001
0000
1000
0000
0100
0000
0001
0000
0100
1000
0001
0000
0010
0000
0100
0000
,
0001
0000
0100
0000
1000
0000
0001
0000
1000
0000
0000
0000
0010
0000
0000
0100
,
0001
0000
0100
0000
1000
0000
0100
0000
0010
1000
0010
0000
0100
0000
0000
0000
,
1001
0000
0000
0000
1000
0000
0010
0000
1000
0000
0000
0000
0011
0000
0000
0010
,
0100
0000
0000
0000
1000
0000
0001
0000
0100
0010
1000
0000
0100
0000
0010
0000
,
0100
0000
1000
0000
0001
0000
0010
0000
0100
0000
0000
0000
0001
0000
0000
0100
,
0010
0000
0001
0000
1000
0000
0010
0000
0100
0001
1000
0000
0010
0000
0001
0000
,
0010
1000
0010
0000
0100
0001
0100
0000
0001
1000
0000
0000
1001
0000
0000
1000
,
0100
0000
0000
0000
0010
0000
0001
0000
0010
0100
0010
0000
1000
0000
0010
0000
,
0100
0000
1100
0000
0001
0000
1000
0000
0010
0000
0100
0000
0001
0000
0000
0100
,
1000
0000
0100
0000
0010
0000
1000
0000
0001
0010
0001
0000
0100
0000
0010
0000
,
1000
0000
0100
0000
0010
0100
0010
0100
0010
0001
0010
0001
2000
0000
0000
0000
,
3010
1000
0001
0100
,
0001
0010
0100
0001
,
0100
1000
0001
1000
,
0010
0000
0100
0000
0001
0000
1000
0100
,
1000
0100
0010
0001
0010
0001
0100
1000
,
0100
1000
0001
0010
0001
0010
1000
0001
,
1000
0100
0001
1000
0010
0001
1001
0000
,
0100
0000
0010
0000
1000
0001
1000
0001
0010
0100
0010
0100
1000
0000
0001
0010
,
0000
0100
0000
0001
0000
0100
0000
0010
0000
0001
1000
0001
0000
0000
0100
0000
,
1000
0000
0001
0000
0010
0000
1000
0000
0001
1000
0001
0000
0010
0000
0000
0100
,
0000
1000
0000
0001
0000
1000
0000
0010
0000
0100
0001
0100
0000
0000
0010
0000
,
1000
0000
0001
0000
0010
0100
1000
0000
0010
0100
0001
0000
1001
0000
0000
1000
,
0000
0010
0000
0001
0000
0010
0000
0100
0000
0001
0010
0100
0000
0000
0001
0000
,
0100
0000
1000
0000
0010
0000
1000
0000
0001
0100
0001
0000
1000
0000
0000
0010
,
0000
0001
0000
0010
0000
0100
0000
0001
0000
1000
0100
0010
0000
0000
0100
0000
,
1000
0000
0001
0000
1001
0000
0000
0110
1010
0000
0001
0100
0000
0001
0000
0010
,
0000
1000
0000
0010
0000
0100
1000
0001
0000
0000
0100
0000
1000
0000
0100
0000
,
0010
0000
1000
0000
0001
0010
0100
0000
0010
0000
0001
0100
0000
1000
0000
0100
,
0000
0010
0000
1000
0000
0001
1000
0100
0000
0000
0001
0000
0100
0000
0010
0000
,
2002
0000
3003
0000
1001
0000
1000
0010
0000
0100
0000
1000
0000
0100
0000
0001
,
0000
1000
0100
0010
0000
0000
1000
0000
0010
0000
0001
0000
1000
0000
0001
0000
,
0100
0010
1000
0000
0100
0000
0010
0001
0000
0100
0000
1000
0000
0100
0000
0010
,
0000
1000
0001
0010
0000
0000
0100
0000
0010
0001
0010
0000
0100
1000
0100
1000
,
0001
0100
0001
0100
0020
0000
0000
0000
0000
0000
0000
0000
0000
0000
0000
0000
,
0000
0030
0000
0000
;
