#TITLE:Opus 5;
#SUBTITLE:;
#ARTIST:Big Idea;
#TITLETRANSLIT:;
#SUBTITLETRANSLIT:;
#ARTISTTRANSLIT:;
#GENRE:;
#CREDIT:;
#MUSIC:16. Opus 5 (1).mp3;
#BANNER:;
#BACKGROUND:;
#CDTITLE:;
#SAMPLESTART:0.000;
#SAMPLELENGTH:0.000;
#SELECTABLE:YES;
#OFFSET:0.490;
#BPMS:0.000=200.000;
#STOPS:;
#BGCHANGES:;
#FGCHANGES:;

//--------------- dance-single - WIO Step Team ----------------
#NOTES:
     dance-single:
     WIO Step Team:
     Beginner:
     5:
     0,0,0,0,0:
0000
0000
0000
0000
,
0000
0000
0000
0000
,
0000
0000
0000
0000
0000
0000
0001
0000
0000
0000
1000
0000
,
0000
0000
0001
0000
0000
0000
1000
0000
0000
0000
0001
0000
,
0000
0000
1000
0000
0000
0000
0010
0000
0000
0000
0100
0000
,
0000
0000
0010
0000
0000
0000
0100
0000
0000
0000
0010
0000
,
0000
0000
0100
0000
0000
0000
0001
0000
0000
0000
1000
0000
,
0000
0000
0001
0000
0000
0000
1000
0000
0000
0000
0001
0000
,
0000
0000
1000
0000
0000
0000
0100
0000
0000
0010
0000
0000
,
0100
0010
0100
0010
,
0100
0010
0001
1000
,
0001
1000
0001
1000
,
0001
1000
0010
0100
,
0010
0100
0010
0100
,
0010
0100
0001
1000
,
0001
1000
0001
1000
,
0001
1000
0100
0010
,
0100
0010
0100
0010
,
0100
0010
0001
1000
,
0001
1000
0001
1000
,
0001
1000
0010
0100
,
0010
0100
0010
0100
,
0010
0100
0001
1000
,
0001
1000
0001
1000
,
0001
1000
0100
0010
,
0100
0010
0100
0010
,
0100
0000
0000
0010
0000
0000
0001
0000
1000
0000
0000
0000
,
0001
1000
0001
1000
,
0001
1000
0010
0100
,
0010
0100
0010
0100
,
0010
0100
0001
1000
,
0001
1000
0001
1000
,
0001
1000
0100
0010
,
0100
0010
0100
0010
,
0100
0000
0000
0010
0000
0000
0001
0000
0000
0000
1000
0000
,
0000
0000
0001
0000
0000
0000
1000
0000
0000
0000
0001
0000
,
0000
0000
1000
0000
0000
0000
0010
0000
0000
0000
0100
0000
,
0000
0000
0010
0000
0000
0000
0100
0000
0000
0000
0010
0000
,
0000
0000
0100
0000
0000
0000
0001
0000
0000
0000
1000
0000
,
0000
0000
0001
0000
0000
0000
1000
0000
0000
0000
0001
0000
,
0000
0000
1000
0000
0000
0000
0100
0000
0000
0010
0000
0000
,
0100
0010
0100
0010
,
0100
0010
0001
0000
,
1000
0000
0001
0000
,
1000
0000
0010
0000
,
0100
0000
0010
0000
,
0100
0000
0001
0000
,
1000
0000
0001
0000
,
1000
0000
0100
0000
,
0010
0000
0100
0000
,
0010
0000
0001
0000
,
1000
0000
0001
0000
,
1000
0000
0010
0000
,
0100
0000
0010
0000
,
0100
0000
0001
0000
,
1000
0000
0001
0000
,
1000
0000
0100
0000
,
0010
0000
0001
0000
,
1000
0000
0010
0000
,
0100
0000
0001
0000
,
1000
0000
0100
0000
,
0010
0000
0000
0000
0000
0000
0001
0000
0000
0000
1000
0000
,
0000
0000
0001
0000
0000
0000
1000
0000
0000
0000
0001
0000
,
0000
0000
1000
0000
0000
0000
0010
0000
0000
0000
0100
0000
,
0000
0000
0010
0000
0000
0000
0100
0000
0000
0000
0010
0000
,
0000
0000
0100
0000
0000
0000
0001
0000
0000
0000
1000
0000
,
0000
0000
0001
0000
0000
0000
1000
0000
0000
0000
0001
0000
,
0000
0000
1000
0000
0000
0000
0100
0000
0000
0010
0000
0000
,
0100
0010
0100
0010
,
0100
0010
0001
1000
,
0001
1000
0001
0100
,
0010
0100
0010
0000
,
1001
0000
0000
0000
;

//--------------- dance-single - about-blank ----------------
#NOTES:
     dance-single:
     about-blank:
     Easy:
     12:
     0,0,0,0,0:
0000
0000
0000
0000
,
0000
0000
0000
0000
,
0000
0000
1000
0010
,
0100
0000
0001
0000
0001
0000
0100
0000
0000
0001
0000
0000
,
1000
0000
0010
0000
0010
0000
0100
0000
0000
0001
0000
0000
,
1000
0000
0010
0000
1000
0000
0001
0000
0000
0010
0000
0000
,
0100
0000
1000
0000
0010
0000
0100
0000
0000
0001
0000
0000
,
0010
0000
0001
0000
0010
0000
0100
0000
0000
1000
0000
0000
,
0010
0000
0100
0000
0001
0000
1000
0000
0000
1100
0000
0000
,
0010
0101
1000
0110
,
0002
0000
0000
0103
0000
0000
0001
0000
0010
0001
0000
0010
,
0001
0200
2300
3200
,
0302
0000
0023
0000
0032
0000
1003
0000
0010
1000
0000
0010
,
1000
0200
0302
0203
,
2300
0000
3020
0000
2030
0000
3001
0000
0010
0001
0000
0000
,
1000
0000
0100
1000
0000
0000
0001
0000
0010
0001
0000
0000
,
2000
0000
0000
0000
0000
0000
3010
0000
0100
0010
0000
0000
,
1000
0000
0001
1000
0000
0000
0100
0000
0010
0100
0000
0000
,
2000
0000
0000
3020
0000
0000
0130
0000
0001
0100
0000
0000
,
0101
0000
0000
0000
0000
0000
0010
0000
1000
0010
0000
0000
,
1010
0000
0000
0000
0000
0000
1000
0000
0100
1000
0000
0000
,
1100
0000
0000
0000
0000
0000
0001
0000
0010
0001
0000
0000
,
0011
0000
1001
0000
,
0110
0000
0000
0000
0000
0000
1000
0000
0010
0100
0000
0000
,
0001
0000
0010
0100
0000
0000
1000
0000
0100
0010
0000
0000
,
0001
0000
0100
0010
0000
0000
1000
0000
0001
0000
1000
0000
,
0001
0000
0000
0000
0000
0000
0010
0000
0000
0000
0010
0100
,
0010
0001
1000
0010
,
1000
0000
0100
0000
0010
0000
0001
0000
0000
0000
0100
0001
,
0100
0000
0000
0001
0000
0000
1000
0000
0010
0000
1000
0000
,
0010
0000
0000
0000
0000
0000
0100
0000
0000
0000
0001
1000
,
0001
0010
0100
0010
,
0100
0000
1000
0000
0010
0000
0200
0000
0000
0302
0000
0000
,
2003
0000
0000
3020
0000
0000
0130
0000
0100
0000
0100
0000
,
1001
0000
0001
1000
,
0010
0000
1000
0000
0100
0000
0010
0000
0000
0001
0000
0000
,
0100
0000
0010
0000
0100
0000
0001
0000
0000
0010
0000
0000
,
0001
0000
1000
0000
0010
0000
0100
0000
0000
0001
0000
0000
,
0100
0000
1000
0000
0100
0000
0001
0000
0000
0010
0000
0000
,
0100
0000
0001
0000
0100
0000
1000
0000
0000
0010
0000
0000
,
0100
0000
0010
0000
1000
0000
0010
0000
0000
0100
0000
0000
,
0010
0001
1000
0100
,
0001
0000
0000
0000
0000
0000
0010
0000
0000
0000
0110
0000
,
1000
0000
0000
0000
0110
0000
0001
0000
0000
0000
0110
0000
,
1000
0000
0000
0000
0110
0000
0001
0000
0000
0000
0101
0000
,
0010
0000
0000
0000
1100
0000
0010
0000
0000
0000
0101
0000
,
0010
0000
1000
0000
0001
0000
0010
0000
0000
0000
1001
0000
,
0100
0000
0000
0000
1001
0000
0010
0000
0000
0000
1001
0000
,
1000
0000
0010
0000
0100
0000
0001
0000
0000
0000
0011
0000
,
0100
0000
0000
0000
1010
0000
0100
0000
0000
0000
0011
0000
,
0100
0000
1000
0000
0001
0000
1000
0000
2000
0000
0000
0000
,
0000
0000
3010
0000
0010
0000
0100
0000
0200
0000
0000
0000
,
0000
0000
0310
0000
0010
0000
1000
0000
2000
0000
0000
0000
,
0000
0000
3001
0000
0001
0000
0010
0000
0000
0001
0000
0000
,
0100
0000
0000
0010
0000
0000
1000
0000
2000
0000
0000
0000
,
0000
0000
3010
0000
0010
0000
0100
0000
0200
0000
0000
0000
,
0000
0000
0301
0000
0001
0000
0010
0000
0020
0000
0000
0000
,
0000
0000
0031
0000
0100
0000
1010
0000
0000
1010
0000
0000
,
1010
0000
0101
0101
,
0101
0000
1001
0110
,
1001
0000
0000
0000
0000
0000
0110
0000
0000
0000
0000
0000
0000
0000
0000
0001
0000
0000
0000
1000
0000
0000
0000
0100
,
0000
0000
0000
0010
0000
0000
0000
0001
0000
0000
0000
0000
0100
0000
0000
0000
0000
0000
0100
0000
0000
0000
0000
0000
,
0001
0000
0010
0000
0001
0000
0010
0000
0000
0010
0000
0000
,
0100
0000
1000
0000
0010
0000
0100
0000
0000
0001
0000
0000
,
1000
0000
0100
0000
0010
0000
0001
0000
0000
1000
0000
0000
,
0001
0000
0010
0000
0100
0000
1000
0010
0000
0100
0000
0000
,
0001
0000
0010
0000
0001
0000
0100
0001
0000
1000
0000
0000
,
0010
0000
1000
0000
0100
0000
0010
0000
0000
0101
0000
0000
,
0010
1100
0001
0110
,
2000
0001
0001
3001
,
0000
0000
0100
0000
0100
0000
0010
0000
0000
1000
0000
0000
,
0001
0000
0000
1001
0000
0000
1001
0000
0000
0000
1000
0001
,
1000
0000
0000
0000
;

//--------------- dance-single - about-blank ----------------
#NOTES:
     dance-single:
     about-blank:
     Medium:
     15:
     0,0,0,0,0:
0000
0000
0000
0000
,
0000
0000
0000
0000
,
0000
0000
1000
0010
,
0100
0000
0001
0010
0001
0000
1000
0000
0000
0001
0000
0000
,
0010
0000
0100
0010
0100
0000
1000
0000
0000
0100
0000
0000
,
0010
0000
0001
0010
0001
0000
1000
0000
0000
0010
0000
0000
,
0100
0000
0001
0100
0001
0000
1000
0000
0000
0001
0000
0000
,
0100
0000
0010
0100
0010
0000
1000
0000
0000
0001
0000
0000
,
0010
0000
0100
0010
0100
0000
1000
0000
0000
0110
0000
0000
,
0001
0110
1000
0110
,
2002
0000
0000
0000
3003
0000
0001
0010
0001
0010
0001
0010
,
0001
0011
0101
1100
,
1000
0000
0100
0000
0010
0000
0001
1000
0001
1000
0001
1000
,
0001
1001
1100
0011
,
0001
0000
0100
0000
0010
0000
1000
0100
1000
0100
1000
0000
,
0010
0100
0010
0100
0010
0000
0100
0001
0100
0001
0100
0000
,
0002
0000
0023
0000
0230
0000
1300
0001
1000
0001
1000
0000
,
0100
0010
0100
0010
0100
0000
1000
0001
1000
0001
1000
0000
,
1010
0000
0000
0101
0000
0000
0001
0000
0010
0100
0000
0010
,
0001
0000
0000
0110
0000
0000
1000
0000
0010
0100
0000
0010
,
1000
0000
0000
0110
0000
0000
0001
0000
0100
0010
0000
0100
,
0001
0000
0000
0110
0000
0000
1000
0000
0100
0010
0000
0100
,
1000
0000
0000
0110
0000
0000
0001
1000
0001
1000
0000
0000
,
0010
0100
0010
0100
0000
0000
0001
0000
0001
0010
0000
0010
,
0100
0000
0100
1000
0000
1000
0001
0000
0001
0100
0000
0100
,
0010
0000
0010
1000
0000
1000
0100
0000
0100
0000
0010
0000
,
1001
0000
0000
0000
0000
0000
2000
0000
0000
0000
3010
0100
,
0001
0000
0000
0001
0010
0000
0010
0000
0000
0100
1000
0000
,
0100
0000
0010
0000
0001
0000
0200
0000
0000
0000
0301
0010
,
0001
0000
0000
0001
0000
0100
1000
0000
0100
0000
0010
0100
,
0010
0000
0000
0000
0000
0000
0200
0000
0000
0000
0310
1000
,
0001
0000
0000
0001
0010
0000
0100
0000
0000
1000
0010
0000
,
0100
0000
0001
0000
0010
0000
0201
0000
0000
1000
0000
0000
,
0001
0000
0000
0000
0000
0000
1000
0000
0300
0000
0000
0000
0000
0000
0000
0010
0000
0000
0000
0110
0000
0000
0000
1000
,
0000
0001
0000
1001
0000
0000
0001
0010
0000
0100
0000
0000
,
1000
0000
0010
1000
0010
0000
1000
0001
0000
0100
0000
0000
,
0001
0000
0010
0001
0010
0000
0001
0100
0000
0001
0000
0000
,
1000
0000
0010
0100
0001
0000
0010
0100
0000
1000
0000
0000
,
0001
0000
0100
0001
1000
0000
0100
0010
0000
0100
0000
0000
,
1000
0000
0010
0100
0010
0000
1000
0001
0000
0100
0000
0000
,
0001
0000
0010
0100
0010
0000
0001
0010
0001
0010
0001
0000
,
0100
0010
0100
0010
0100
0000
0001
1000
0001
1000
0001
0000
,
0200
0000
0000
0010
0300
0000
1000
0000
0100
0000
0010
0000
,
0001
0000
1000
0000
0010
0000
0100
0000
0001
0000
0010
0000
,
0001
0000
0100
0000
0010
0000
1000
0000
0010
0000
0100
0000
,
0001
0000
0010
0000
0100
0000
1000
0000
0010
0000
0100
0000
,
0001
0000
0100
0000
0010
0000
1000
0000
0001
0000
0010
0000
,
0100
0000
1000
0000
0010
0000
1000
0000
0100
0000
1000
0000
,
0010
0000
0100
0000
0001
0000
1000
0000
0010
0000
1000
0000
,
0100
0000
0001
0000
0100
0000
1000
0000
0010
0000
0001
0000
,
1000
0000
0100
0000
0001
0000
0010
0000
0020
0000
0000
0000
,
0000
0000
0031
0000
0001
0000
1000
0000
2000
0000
0000
0000
,
0000
0000
3010
0000
0010
0000
0100
0000
0200
0000
0000
0000
,
0000
0000
0301
0000
0001
0000
0011
0000
0000
0101
0000
0000
,
1001
0000
0000
0101
0000
0000
1010
0000
0202
0000
0000
0000
,
0303
0000
1100
0000
1100
0000
0011
0000
0022
0000
0000
0000
,
0033
0000
1001
0000
1001
0000
0110
0000
0220
0000
0000
0000
,
0330
0000
1010
0000
1010
0000
0101
0000
0000
0101
0000
0000
,
0001
1000
0001
1000
0000
0000
1100
0000
0000
1100
0000
0000
,
1000
0001
1000
0001
0000
0000
1010
0000
0000
1100
0000
0000
,
0011
0000
0000
0000
0000
0000
0101
0000
0000
0000
0000
0000
0000
0000
0000
0110
0000
0000
0000
1100
0000
0000
0000
0101
,
0000
0000
0011
0000
1010
0000
0001
1000
0000
0001
0000
0000
,
0010
0100
0010
0100
0010
0000
0100
1000
0000
0100
0000
0000
,
1000
0010
1000
0010
1000
0000
0001
0100
0000
0001
0000
0000
,
1000
0100
0010
0001
1000
0000
0010
0100
0000
0010
0000
0000
,
1000
0001
0100
0010
1000
0000
0001
0010
0000
0001
0000
0100
,
0001
1000
0010
1000
0010
0000
1000
0100
0000
1000
0000
0100
,
0010
0001
0010
0001
0010
0000
0100
0000
0100
1000
0000
1000
,
0010
0000
0010
0100
0000
0100
0001
0000
0001
0010
0000
0010
,
0002
1000
1000
1003
,
0001
0000
0100
0000
0100
0000
1000
0010
0000
0100
0001
0000
,
1001
0000
0000
0101
0000
0000
1010
0000
0000
0000
0001
2000
,
0002
0000
0000
0000
,
0000
0000
3003
0000
0000
0000
0000
0000
0000
0000
0000
0000
;

//--------------- dance-single - about-blank ----------------
#NOTES:
     dance-single:
     about-blank:
     Hard:
     17:
     0,0,0,0,0:
0000
0000
0000
0000
,
0000
0000
0000
0000
,
0000
0000
0000
0000
0000
0000
0001
1000
0000
0001
0000
0100
,
0010
0100
0001
1000
0010
0000
1000
0100
0000
1000
0000
0010
,
1000
0001
0100
0001
0010
0000
0001
1000
0000
0001
0000
0010
,
0001
1000
0010
1000
0100
0000
0010
0001
0000
1001
0000
1000
,
0100
0010
0100
1000
0100
0000
0010
0001
0000
0100
0000
0010
,
1000
0001
0100
0010
1000
0000
0001
1000
0000
0100
0000
0010
,
0001
1000
0100
0010
0001
0000
0100
0001
0100
0001
1000
0010
,
1000
0100
1000
0100
0010
0001
1000
0010
0100
0001
0010
0100
,
2000
0000
0000
0001
0000
3000
0010
0100
0010
0001
1000
0100
,
0010
0000
0000
1001
0000
0000
0002
0000
0003
0020
0000
0030
,
2000
0000
3020
0000
0032
0000
0103
0010
0100
1000
0001
0010
,
0100
0000
0000
1001
0000
0000
2000
0000
3000
0200
0000
0300
,
0002
0000
0203
0000
2300
0000
3001
0010
0001
1000
0100
0010
,
0001
0100
0001
1000
0010
0100
0001
0010
0001
0100
0010
1000
,
0002
0000
0023
0000
0230
0000
1300
0010
1000
0001
0100
0010
,
1000
0100
1000
0001
0010
0100
1000
0010
1000
0001
0100
0001
,
0010
0000
0000
0110
0000
0000
1000
0100
0010
1000
0010
0100
,
2000
0000
0000
0100
0000
0000
3001
0100
0010
0001
0010
0100
,
0002
0000
0000
0010
0000
0000
1003
0010
0100
1000
0100
0010
,
2000
0000
0000
0010
0000
0000
3001
0010
0100
0001
0100
0010
,
0002
0000
0000
0100
0000
0000
1003
0100
1000
0100
0000
0000
,
0001
0010
0001
0010
0000
0000
1000
0010
1000
0001
0100
0001
,
0010
0001
0010
0100
1000
0100
0001
0100
1000
0001
0100
1000
,
0001
0010
1000
0001
0010
1000
0001
0000
1001
0000
1001
0000
,
1001
0000
0000
0000
0000
0000
2000
0000
3000
0000
1000
0100
,
0001
0000
0000
0100
1000
0000
0010
0000
0010
0100
0001
0000
,
1000
0000
0100
0000
0010
0000
0002
0000
0003
0000
0001
0100
,
1000
0000
0000
0100
0000
0001
0010
0000
0010
0000
0010
0100
,
1001
0000
0000
0000
0000
0000
2000
0000
3000
0000
0010
0100
,
1000
0000
0000
0001
0010
0000
1000
0000
1000
0100
0010
0000
,
0010
0000
0001
0000
1000
0000
0002
0100
0003
2000
0010
3000
,
0002
0000
0100
0000
0003
0000
2000
0000
0010
0000
3000
0000
0000
0000
0000
0011
0000
0000
0000
1010
0000
0000
0000
0101
,
0000
0000
0000
0000
0000
1001
0000
0000
0000
0000
0000
0000
0001
0000
1000
0000
0000
0000
0110
0000
0000
0000
0001
0000
,
1000
0100
0010
0001
1000
0000
0010
0100
0000
1010
0000
0001
,
0100
0001
1000
0010
0100
0000
0001
0010
0000
1100
0000
0001
,
1000
0001
0100
0010
0100
0000
0001
1000
0000
0011
0000
0001
,
0100
1000
0100
0001
1000
0000
0010
0100
0000
0101
0000
0001
,
0010
0001
0100
0010
1000
0000
0001
0010
0000
0110
0000
0100
,
1000
0100
0010
0001
0010
0000
0001
1000
0001
1000
0100
0010
,
0001
1000
0001
1000
0010
0100
0001
1000
0010
0100
0001
2000
,
0002
0000
0000
0000
3003
0000
0001
0000
0100
0000
0110
0000
,
1000
0000
0100
0000
0110
0000
0001
0000
0010
0000
0110
0000
,
1000
0000
0010
0000
0110
0000
1001
0000
0010
0000
0101
0000
,
1001
0000
0100
0000
1000
0000
1001
0000
0100
0000
0011
0000
,
1001
0000
0010
0000
1000
0000
1001
0000
0100
0001
0100
0000
,
1000
0000
0100
1000
0100
0000
0001
0000
0010
0001
0010
0000
,
1000
0000
0010
1000
0010
0000
1001
0000
0100
0010
0001
0000
,
1001
0000
0010
0100
1000
0000
1001
0000
0010
0100
0001
0000
,
1001
0000
0100
0010
1000
0000
0022
0000
0033
0000
1000
0000
,
0001
0000
0100
0000
0110
0000
2020
0000
3030
0000
0001
0000
,
1000
0000
0100
0000
0110
0000
0022
0000
0033
0000
1000
0000
,
0001
0000
0011
0000
0110
0000
2100
0000
0000
3001
0000
0000
,
0012
0000
0000
1003
0000
0000
1001
0000
1001
0000
1000
0100
,
0010
0001
0100
0010
0001
0010
1000
0000
0110
0000
0001
0010
,
0100
1000
0010
0100
1000
0100
0001
0000
0110
0000
1000
0001
,
0100
0010
1000
0001
0100
0010
1000
0000
0000
0110
0000
0000
,
1001
0000
1001
0110
,
1001
0000
0011
1001
,
1100
0000
0000
0000
0000
0000
0011
0000
0000
0000
0000
0000
0000
0000
0000
1001
0000
0000
0000
0101
0000
0000
0000
0011
,
0000
0000
0000
0000
0000
0000
0000
0101
0000
0000
0000
0000
0000
0000
0000
0000
1010
0000
0000
0000
0000
0000
0000
0000
0002
0000
0000
0000
0010
0000
0000
0000
0003
0000
0000
0000
1100
0000
0000
0000
0000
0000
0000
0000
0001
0000
0000
0000
,
0100
0001
1000
0100
1000
0000
0020
0001
0030
1010
0000
0001
,
0010
0001
1000
0100
0010
0000
0002
1000
0003
0110
0000
1000
,
0010
0100
0001
0010
0001
0000
2000
0010
3000
0101
0000
0001
,
1000
0010
0100
0001
1000
0000
0011
1000
0000
0101
0000
0001
,
1000
0001
0010
0100
0010
0000
1100
0001
0000
1010
0000
1000
,
0100
0010
0001
0100
0010
0000
1000
0100
0010
1000
0010
0001
,
0100
1000
0100
0001
0010
0100
1000
0001
0010
1000
0001
0100
,
2000
0001
0001
3001
,
1000
0010
0100
0001
0010
0001
0100
0100
1000
0010
0010
0001
,
1000
0000
0000
0110
0000
0000
1001
0000
0000
0000
0001
2000
,
0002
0000
0000
0000
,
0000
0000
3003
0000
0000
0000
0000
0000
0000
0000
0000
0000
;

//--------------- dance-single - UNI4 Step Team ----------------
#NOTES:
     dance-single:
     UNI4 Step Team:
     Challenge:
     17:
     0,0,0,0,0:
0000
0000
0000
0000
,
0000
0000
0000
0000
,
0000
0000
0011
0010
,
0100
0000
1000
0010
1000
0000
0101
0000
0000
1000
0000
0000
,
0010
0000
0100
0010
0100
0000
1001
0000
0000
0001
0000
0000
,
0100
0000
0010
1000
0010
0000
0101
0000
0000
0010
0000
0000
,
0100
0000
1000
0001
1000
0000
0110
0000
0000
1001
0000
0000
,
0010
0000
0100
0001
1000
0000
0011
0000
0000
1100
0000
0000
,
0010
0000
0100
0010
0100
0000
0001
0000
0000
0110
0000
0000
,
1000
0110
0001
0110
,
2002
0000
0000
0000
3003
0000
1000
0010
1000
0010
1000
0010
,
1000
1010
1100
0101
,
0001
0000
0100
0000
0010
0000
1000
0001
1000
0001
1000
0001
,
1000
1001
0101
1010
,
1000
0000
0100
0000
0010
0000
0001
0100
0001
0100
0001
0100
,
0010
1000
0010
1000
0010
1000
0100
1000
0100
1000
0100
1000
,
0002
0000
0023
0000
0230
0000
1300
0001
1000
0001
1000
0010
,
0100
0010
0100
0010
0100
0001
1000
0001
1000
0001
1000
0001
,
0010
0000
0000
1100
0000
0000
1000
0010
0100
0001
0100
0000
,
1001
0000
0000
0110
0000
0000
0001
0010
0100
0010
0001
0000
,
1001
0000
0000
0110
0000
0000
1000
0100
0010
0001
0100
0000
,
0011
0000
0000
1100
0000
0000
0001
0100
0010
1000
0100
0000
,
1100
0000
0000
0011
0000
0000
1000
0001
1000
0001
0000
0000
,
0010
0100
0010
0100
0000
0000
1000
0010
1000
0010
0100
0010
,
0100
0001
0100
0001
1000
0001
1000
0010
1000
0100
1000
0100
,
0010
0100
0010
0001
0100
0001
0100
0000
0110
0000
0110
0000
,
1001
0000
0001
1000
0010
0100
0002
0000
0000
0000
0013
0100
,
1000
0000
0000
1000
0010
0000
0010
0000
0000
0100
0001
0000
,
0100
0000
0000
0000
0000
0000
0000
0000
0000
0000
0000
0000
0000
0000
0000
0010
0000
0000
0000
0000
0000
0000
0000
0000
0000
0000
0000
0000
0000
0000
1000
0000
0000
0000
0000
0000
0000
0000
0000
0000
0000
0000
0000
0000
0000
0000
0000
0000
0200
0000
0000
0000
0000
0000
0000
0000
0000
0000
0000
0000
0000
0000
0000
0000
0000
0000
0000
0000
0000
0000
0000
0000
0000
0000
0000
0000
0000
0000
0000
0000
1300
0000
0000
0000
0000
0000
0000
0000
0010
0000
0000
0000
0000
0000
0000
0000
,
1000
0000
0000
1000
0000
0100
0001
0000
0100
0000
1000
0100
,
0010
0001
0000
0001
0000
0001
0200
0000
0000
0000
0310
1000
,
0001
0000
0000
1000
0010
0000
0100
0000
0000
0001
0010
0000
,
0100
0000
0000
0000
0000
1000
0000
0000
0000
0000
0010
0000
0000
0000
0000
0000
1200
0000
0000
0000
0000
0000
0000
0000
0001
0000
0000
0000
0000
0000
0000
0000
,
1000
0000
0000
0000
0000
0000
0000
0000
0000
0000
0000
0000
0000
0000
0000
0000
0000
0000
0000
0000
0000
0000
0000
0000
0000
0000
0000
0000
0000
0000
0000
0000
0000
0000
0000
0000
0000
0000
0000
0000
0000
0000
0000
0000
0000
0000
0000
0000
0001
0000
0000
0000
0000
0000
0000
0000
0000
0000
0000
0000
0000
0000
0000
0000
0300
0000
0000
0000
0000
0000
0000
0000
0000
0000
0000
0000
0000
0000
0000
0000
0000
0000
0000
0000
0000
0000
0000
0000
0000
0000
0000
0000
0000
0000
0000
0000
0000
0000
0000
0000
0000
0000
0000
0000
0000
0000
0000
0000
0000
0000
0000
0000
0000
0000
0000
0000
0000
0000
0000
0000
0010
0000
0000
0000
0000
0000
0000
0000
0000
0000
0000
0000
0000
0000
0000
0000
0000
0000
0000
0000
0000
0000
0000
0000
0000
0000
0000
0000
0000
0000
0110
0000
0000
0000
0000
0000
0000
0000
0000
0000
0000
0000
0000
0000
0000
0000
0000
0000
0000
0000
0000
0000
0000
0000
0000
0000
0000
0000
0000
0000
0000
0000
0000
0000
0000
0100
0000
0000
0000
0000
0000
0000
,
0000
1000
0000
1001
0000
0000
1000
0010
0000
0100
0000
0001
,
1000
0001
0010
0001
0010
0000
0001
1000
0000
0100
0000
0010
,
0001
0010
0100
1000
0010
0000
1000
0001
0000
0100
0000
0001
,
1000
0100
0010
0001
1000
0000
0010
0100
0000
0001
0000
0010
,
0100
0010
0001
0100
0010
0000
1000
0100
0000
0011
0000
1000
,
0001
0100
0010
1000
0001
0000
0010
0100
0000
1100
0000
0001
,
1000
0010
0100
0001
0010
0000
0100
1000
0100
1000
0010
0100
,
0001
0010
0001
0010
0001
0100
0010
0100
0001
1000
0010
1000
,
0200
0000
0000
0010
0300
0000
0001
0000
0100
0000
1010
0000
,
1000
0000
0100
0000
0011
0000
0100
0000
1000
0000
0011
0000
,
0100
0000
0001
0000
1010
0000
0001
0000
0010
0000
0101
0000
,
1000
0000
0010
0000
1100
0000
0001
0000
0010
0000
0110
0000
,
1000
0000
0100
0000
0110
0000
0011
0000
1000
0000
0011
0000
,
1100
0000
0001
0000
1100
0000
1010
0000
0001
0000
1010
0000
,
0011
0000
1000
0000
0011
0000
0101
0000
0010
0000
0101
0000
,
1100
0000
0010
0000
1100
0000
0101
0000
0011
0000
1010
0000
,
1100
0000
1010
0000
0011
0000
1001
0000
0120
0000
0000
0000
,
0000
0000
1030
0000
1001
0000
0011
0000
0102
0000
0000
0000
,
0000
0000
0013
0000
1001
0000
1010
0000
1200
0000
0000
0000
,
0000
0000
1300
0000
1001
0000
1010
0000
0000
1100
0000
0000
,
1001
0000
0000
1100
0000
0000
0011
0000
2100
0000
0001
0000
,
3100
0000
0101
0000
0101
0000
1010
0000
2010
0000
0001
0000
,
3010
0000
1001
0000
1001
0000
0110
0000
0210
0000
0001
0000
,
0310
0000
0110
0000
0110
0000
1001
0000
0000
1100
0000
0000
,
1000
0001
1000
0001
0010
0100
1001
0000
0000
0101
0000
0000
,
0001
1000
0001
1000
0010
0100
1001
0000
0000
0101
0000
0000
,
1010
0000
0000
0000
0000
0000
0000
0000
0000
0000
0000
0000
0000
0000
0000
0000
0000
0000
0000
0000
0000
0000
0000
0000
0000
0000
0000
0000
0000
0000
0000
0000
0000
0000
0000
0000
0000
0000
0000
0000
0000
0000
0000
0000
0000
0000
0000
0000
1100
0000
0000
0000
0000
0000
0000
0000
0000
0000
0000
0000
0000
0000
0000
0000
0000
0000
0000
0000
0000
0000
0000
0000
0000
0000
0000
0000
0000
0000
0000
0000
0000
0000
0000
0000
0000
0000
0000
0000
0000
0000
0000
0000
0000
0000
0000
0000
0000
0000
0000
0000
0000
0000
0000
0000
0000
0000
0000
0000
0000
0000
0000
0000
0000
0000
0000
0000
0000
0000
0000
0000
0110
0000
0000
0000
0000
0000
0000
0000
0000
0000
0000
0000
0000
0000
0000
0000
0000
0000
0000
0000
0000
0000
0000
0000
0000
0000
0000
0000
0000
0000
0000
0000
0000
0000
0000
0101
0000
0000
0000
0000
0000
0000
0000
0000
0000
0000
0000
0000
0000
0000
0000
0000
0000
0000
0000
0000
0000
0000
0000
0000
0000
0000
0000
0000
0000
0000
0000
0000
1100
0000
0000
0000
,
0000
0000
0000
0000
0000
0000
0000
0000
1010
0000
0000
0000
0000
0000
0000
0011
0000
0000
0000
0000
0000
0000
0000
0000
1000
0000
0000
0000
0001
0000
0000
0000
0000
0000
0000
0000
1010
0000
0000
0000
0000
0000
0000
0000
1000
0000
0000
0000
,
0010
0100
0010
0100
0010
0000
0100
0001
0000
0101
0000
1000
,
0001
0010
0001
0010
0001
0000
1000
0100
0000
1010
0000
0100
,
0001
0100
0010
1000
0001
0000
0010
0100
0000
0110
0000
1000
,
0001
1000
0100
0010
0001
0000
1000
0010
0000
1001
0000
0001
,
1000
0001
0010
0001
0010
0000
0001
0100
0000
0101
0000
0100
,
0010
1000
0010
1000
0010
0000
0100
0001
0100
0001
1000
0001
,
0010
0001
0010
0100
0010
0100
1000
0010
1000
0010
0100
0010
,
2000
0000
0000
0000
0000
0000
0000
0000
0000
0000
0000
0000
0000
0000
0000
0000
0000
0000
0000
0000
0000
0000
0000
0000
0001
0000
0000
0000
0000
0000
0000
0000
0000
0000
0000
0000
0000
0000
0000
0000
0000
0000
0000
0000
0000
0000
0000
0000
0001
0000
0000
0000
0000
0000
0000
0000
0000
0000
0000
0000
0000
0000
0000
0000
0000
0000
0000
0000
0000
0000
0000
0000
3001
0000
0000
0000
0000
0000
0000
0000
0000
0000
0000
0000
0000
0000
0000
0000
0000
0000
0000
0000
0000
0000
0000
1001
,
0000
0000
0000
0000
0000
0000
0000
0000
0000
0000
0000
0000
0000
0000
0000
1100
0000
0000
0000
0000
0000
0000
0000
0000
0000
0000
0000
0000
0000
0000
0000
0101
0000
0000
0000
0000
0000
0000
0000
0000
0000
0000
0000
0000
0000
0000
0000
0001
0000
0000
0000
0000
0000
0000
0000
0010
0000
0000
0000
0000
0000
0000
0000
0000
0000
0000
0000
0000
0000
0000
0000
0000
0100
0000
0000
0000
0000
0000
0000
0000
1000
0000
0000
0000
0000
0000
0000
0000
0000
0000
0000
0000
0000
0000
0000
0000
,
1001
0000
0000
1100
0000
0000
0011
0000
0000
0000
1000
0002
,
2000
0000
0000
0000
,
0000
0000
3003
0000
0000
0000
0000
0000
0000
0000
0000
0000
;
