#TITLE:Open Up To Me;
#SUBTITLE:;
#ARTIST:Studio Bongo Mango feat. MAYUKI & AKLO;
#TITLETRANSLIT:;
#SUBTITLETRANSLIT:;
#ARTISTTRANSLIT:;
#GENRE:;
#CREDIT:;
#MUSIC:18. Open Up To Me.mp3;
#BANNER:;
#BACKGROUND:;
#CDTITLE:;
#SAMPLESTART:42.737;
#SAMPLELENGTH:14.222;
#SELECTABLE:YES;
#OFFSET:1.707;
#BPMS:0.000=135.000;
#STOPS:;
#BGCHANGES:;
#FGCHANGES:;

//--------------- dance-single - forcednature ----------------
#NOTES:
     dance-single:
     forcednature:
     Beginner:
     3:
     0,0,0,0,0:
0000
0000
0000
0000
,
0000
0000
0000
0000
,
0000
0000
0000
0000
,
0000
0000
0000
0000
,
0000
0000
0000
0000
,
1001
0000
0000
0000
,
0010
0000
0000
0000
,
0001
0000
0000
0000
,
0100
0000
0000
0000
,
1001
0000
0000
0000
,
1000
0000
0000
0000
,
0100
0000
0000
0000
,
0010
0000
0010
0000
,
0010
0000
0000
0000
,
0001
0000
0000
0000
,
0100
0000
0000
0000
,
1001
0000
0000
0000
,
0110
0000
0000
0000
,
0001
0000
1000
0000
,
0001
0000
0000
0000
,
1000
0000
0001
0000
,
1000
0000
0000
0000
,
0100
0000
0010
0000
,
0100
0000
0000
0000
,
0010
0000
0000
0000
,
1001
0000
0000
0000
,
0001
0001
0001
0000
,
0100
0000
0000
0000
,
0010
0010
0010
0000
,
1000
0000
0000
0000
,
0100
0100
0100
0000
,
1000
0000
0000
0000
,
0001
0000
0000
0000
,
1001
0000
0000
0000
,
0010
0000
0010
0000
,
0100
0000
0100
0000
,
0001
0000
1000
1000
,
1000
0000
0100
0000
,
0010
0000
0001
0000
,
0100
0000
0010
0000
,
1000
0000
0000
0000
,
1001
0000
0000
0001
,
0100
0000
0001
0000
,
1000
0000
0000
0010
,
1000
0000
0001
0000
,
1000
0000
0000
0100
,
0010
0000
0001
0000
,
0010
0000
0000
0100
,
1000
0000
0010
0000
,
1001
0000
0000
0100
,
0100
0000
0010
0000
,
1001
0000
0000
0000
;

//--------------- dance-single - forcednature ----------------
#NOTES:
     dance-single:
     forcednature:
     Easy:
     7:
     0,0,0,0,0:
0000
0000
0000
0000
,
0000
0000
0000
0000
,
0000
0000
0000
0000
,
0000
0000
0000
0000
,
0000
0000
0000
0000
,
0001
0001
0100
0100
,
1000
1000
0100
0100
,
0001
0010
1000
0010
,
0220
0000
0330
0000
,
1001
0000
0001
0000
0100
0100
0100
0000
,
0010
0000
1000
0000
0100
0100
0100
0000
,
0010
0000
0001
0000
1000
1000
1000
0000
,
0010
0000
1000
0000
0001
0001
0001
0000
,
0101
0000
1010
0000
1000
0100
1000
0000
,
0010
0000
0100
0000
0001
0010
0001
0000
,
0100
0000
0001
0000
1000
0010
1000
0000
,
0200
0000
0310
0010
,
0001
0100
0001
0000
1000
0000
0100
0000
,
1000
0000
0010
0000
0100
0100
0100
0000
,
0001
1000
0001
0000
1000
0000
0100
0000
,
1000
0000
0010
0000
1000
1000
1000
0000
,
0100
0010
0100
0000
1000
0000
0010
0000
,
0100
0000
0001
0000
0010
0010
0010
0000
,
0100
1000
0100
0000
0010
0000
0001
0000
,
1000
0000
0000
0000
0010
0010
0010
0000
,
1002
0100
1000
0010
,
1000
0100
2003
0010
,
3200
0001
0010
1000
,
0310
0000
0000
0000
0000
0000
0000
0000
0000
0000
0000
0000
0100
0000
0100
0000
0000
0100
0000
0000
0100
0000
0000
0000
,
2001
0100
0001
0010
,
0001
0100
3002
0100
,
0023
0100
1000
0001
,
0130
0010
0000
0000
,
0201
0001
0010
0010
,
1000
1000
0010
0310
,
1000
1000
1000
0000
0001
0001
0001
0000
,
0010
0000
0000
0010
0000
0000
0010
0000
0000
0000
0000
0000
0100
0000
0100
0000
0000
0100
0000
0000
0100
0000
0000
0000
,
1000
1000
1000
0000
0001
0000
0001
0000
,
0001
0001
0001
0000
1000
0000
1000
0000
,
0010
0010
0010
0000
0100
0100
0100
0000
,
2002
0000
3003
0000
,
1001
0000
0001
0000
0100
0100
0100
0000
,
0010
1000
0010
0000
0100
0001
0100
0000
,
0001
0000
1000
0000
0100
0100
0100
0000
,
0010
0000
0010
0000
0100
0100
0100
0000
,
1001
0000
0001
0000
1000
0010
1000
0000
,
0001
0100
0001
0000
1000
0000
0100
0000
,
0010
0000
0001
0000
1000
0010
1000
0000
,
0001
0100
0001
0000
0010
0010
0010
0000
,
0210
0000
0000
2300
,
3002
0000
0203
0000
,
0320
0000
0000
0000
0000
0000
0000
0000
0000
0000
0000
0000
0030
0000
0000
1000
0000
0000
0000
0000
0001
0000
0000
1000
;

//--------------- dance-single - forcednature ----------------
#NOTES:
     dance-single:
     forcednature:
     Medium:
     11:
     0,0,0,0,0:
0000
0000
0000
0000
,
0000
0000
0000
0000
,
0000
0000
0000
0000
,
0000
0000
0000
0000
,
0000
0000
0000
0000
,
0001
0100
0001
0100
0010
1000
0010
1000
,
0000
0001
0010
0100
1000
0100
0010
0001
,
0000
0100
1000
0100
0001
0100
1000
0100
,
0000
0010
1000
0001
1000
0100
0010
0000
,
0100
1000
0000
0001
0000
0100
0001
0000
0010
0000
0010
0000
0010
0000
0000
0000
,
0100
1000
0001
0100
0001
1000
0100
0000
,
0010
0001
0000
1000
0000
0010
0100
0000
0001
0000
0001
0000
0001
0000
0000
0000
,
1000
0000
0000
0100
0000
0000
1000
0000
0000
0001
0000
0000
0100
0000
0001
0000
0000
0100
0000
0000
0001
0000
0000
0000
,
1000
0100
0000
0010
0000
0001
1000
0000
0001
0000
0100
0000
0010
0000
1000
0000
,
0001
1000
0100
1000
0001
0100
0001
0000
,
0010
0100
0000
1000
0000
0001
0100
0000
0010
0000
1000
0000
0001
0000
0100
0000
,
0001
0010
0100
1000
0100
0001
0100
1000
,
0010
0000
0000
1000
0000
0000
0000
0000
0000
0001
0000
0000
0000
0000
0000
0100
0000
0000
0001
0000
0000
0000
0000
0000
0000
0000
0000
0000
0000
0000
0010
0000
0000
0000
0000
0000
0000
0000
0000
0000
0010
0000
0000
0000
0000
0000
0010
0000
,
0000
0000
0000
0000
0000
0000
0000
0000
0100
1000
0100
1000
0100
0000
0000
0000
,
0010
0000
0000
0001
0000
0000
0000
0000
0000
1000
0000
0000
0000
0000
0000
0001
0000
0000
0100
0000
0000
0000
0000
0000
0000
0000
0000
0000
0000
0000
0010
0000
0000
0000
0000
0000
0000
0000
0000
0000
0010
0000
0000
0000
0000
0000
0010
0000
,
0000
0000
0000
0000
0000
0000
0000
0000
1000
0001
1000
0001
1000
0000
0000
0000
,
0100
0000
0000
1000
0000
0000
0000
0000
0000
0001
0000
0000
0000
0000
0000
0100
0000
0000
0010
0000
0000
0000
0000
0000
0000
0000
0000
0000
0000
0000
1000
0000
0000
0000
0000
0000
0000
0000
0000
0000
1000
0000
0000
0000
0000
0000
1000
0000
,
0000
0000
0000
0000
0000
0000
0000
0000
0100
0010
0100
0010
0100
0000
0000
0000
,
1000
0000
0000
0001
0000
0000
0000
0000
0000
0100
0000
0000
0000
0000
0000
0001
0000
0000
0010
0000
0000
0000
0000
0000
0000
0000
0000
0000
0000
0000
0100
0000
0000
0000
0000
0000
0000
0000
0000
0000
0100
0000
0000
0000
0000
0000
0100
0000
,
0000
0000
0000
0000
0000
0000
0000
0000
0010
0001
0010
0001
0010
0000
0000
0000
,
0100
1000
0010
0001
0010
0100
0001
1000
,
0010
0001
0010
0100
0001
1000
0100
0000
,
0001
0100
0010
1000
0010
0001
1000
0010
,
0100
0000
0000
0001
0000
0000
0010
0000
0000
0000
0000
0000
0100
0000
0100
0000
0000
0100
0000
0000
0100
0000
0000
0000
,
1000
0010
1000
0100
0001
1000
0010
0001
,
1000
0001
0100
1000
0100
0010
1000
0000
,
0001
0010
0100
0001
1000
0010
0100
1000
,
0010
0000
0000
2002
0000
0000
3003
0000
,
1000
1000
0100
0100
0001
0001
0100
0100
,
1000
1000
0010
0010
0001
0001
0010
0000
,
1000
0100
1000
0100
1000
0000
0000
0000
0001
0100
0001
0100
0001
0000
0000
0000
,
0010
0000
0000
0010
0000
0000
0010
0000
0000
0000
0000
0000
0100
0000
0100
0000
0000
0100
0000
0000
0100
0000
0000
0000
,
1000
0001
0000
1000
0000
0001
1000
0000
0010
0000
0010
0000
0010
0000
0010
0000
,
0100
0001
0010
0001
0100
0010
1000
0000
,
0100
0010
0000
0100
0000
0010
0100
0000
0010
0000
0010
0000
0010
0000
0010
0000
,
0001
1000
0010
0100
0001
1000
0100
0010
,
0001
0000
0000
0100
0000
0000
0000
0000
0000
0001
0000
0000
0000
0000
0000
1000
0000
0000
0010
0000
0000
1000
0000
0000
0000
0000
0000
0000
0000
0000
0100
0000
0000
0000
0000
0000
0000
0000
0000
0000
0100
0000
0000
0000
0000
0000
0100
0000
,
0000
0000
0000
0000
0000
0000
0000
0000
0010
0001
0010
0001
1000
0000
0000
0000
,
0010
0000
0000
1000
0000
0000
0000
0000
0000
0001
0000
0000
0000
0000
0000
0100
0000
0000
0001
0000
0000
0100
0000
0000
0000
0000
0000
0000
0000
0000
0010
0000
0000
0000
0000
0000
0000
0000
0000
0000
0010
0000
0000
0000
0000
0000
0010
0000
,
0000
0000
0000
0000
0000
0000
0000
0000
1000
0001
1000
0001
1000
0000
0000
0000
,
0100
0000
0000
1000
0000
0000
0000
0000
0000
0100
0000
0000
0000
0000
0000
0010
0000
0000
0001
0000
0000
0010
0000
0000
0000
0000
0000
0000
0000
0000
0100
0000
0000
0000
0000
0000
0000
0000
0000
0000
0100
0000
0000
0000
0000
0000
0100
0000
,
0000
0100
1000
0010
0100
1000
0100
0001
,
0010
0000
0000
0001
0000
0000
0000
0000
0000
1000
0000
0000
0000
0000
0000
0010
0000
0000
0100
0000
0000
0010
0000
0000
0000
0000
0000
0000
0000
0000
1000
0000
0000
0000
0000
0000
0000
0000
0000
0000
1000
0000
0000
0000
0000
0000
1000
0000
,
0000
0000
0000
0000
0000
0000
0000
0000
0001
0100
0001
0100
0010
0000
0000
0000
,
1000
0000
0000
0100
0000
0000
0000
0000
0000
0010
0000
0000
0000
0000
0000
0001
0000
0000
0100
0000
0000
0000
0000
0000
0000
0000
0000
0000
0000
0000
0010
0000
0000
0000
0000
0000
0000
0000
0000
0000
0010
0000
0000
0000
0000
0000
0010
0000
,
0000
0000
0200
0000
,
0301
0000
0000
1000
0000
0000
0000
0000
0000
0100
0000
0000
0000
0000
0000
1000
0000
0000
0001
0000
0000
0000
0000
0000
0000
0000
0000
0000
0000
0000
0100
0000
0000
0000
0000
0000
0000
0000
0000
0000
0100
0000
0000
0000
0000
0000
0100
0000
;

//--------------- dance-single - forcednature ----------------
#NOTES:
     dance-single:
     forcednature:
     Hard:
     14:
     0,0,0,0,0:
0000
0000
0000
0000
,
0000
0000
0000
0000
,
0000
0000
0000
0000
,
0000
0000
0000
0000
,
0000
0000
0000
0000
,
0001
0000
1000
0010
1000
0000
0001
0100
0001
0000
1000
0100
1000
0000
0010
0000
,
0000
0000
0100
0001
1000
0000
1000
0001
0100
0000
0001
0010
0001
0000
1000
0000
,
0000
0000
0100
0010
0100
0000
0100
1000
0010
0000
0100
0001
0100
0000
0010
0000
,
1000
0000
0000
0100
0000
0000
1000
0000
0000
0100
0000
0000
1000
0000
0000
0000
0000
0000
0000
0000
0000
0000
0000
0000
0000
0000
0000
0000
0000
0000
0000
0000
0000
0000
0000
0000
0001
0000
1000
0000
0001
0000
1000
0000
0000
0001
0000
0000
,
0100
0001
0000
1000
0000
0010
1000
0000
0001
0000
1000
0000
0200
0000
0000
0000
,
0310
0001
0010
1000
0010
0100
0210
0000
,
1300
0010
0000
1000
0000
0001
0100
0000
0001
0000
0010
0000
1000
0000
0010
0000
,
0100
0000
0000
1000
0000
0000
0001
0000
0000
0100
0000
0000
0010
0000
1000
0000
0000
0001
0000
0000
1000
0100
0000
0000
,
0010
0000
0000
0001
0000
0000
0000
0000
0000
0100
0000
0000
0000
0000
0000
0010
0000
0000
0100
0000
0000
0000
0000
0000
0001
0000
0000
0000
0000
0000
1000
0000
0000
0000
0000
0000
0000
0000
0000
0000
0010
0000
0000
0000
0000
0000
0010
0000
,
0100
0001
0000
1000
0000
0100
0010
0000
0100
0000
1000
0100
1000
0000
0001
0100
,
0001
0000
0000
0010
0000
0000
0000
0000
0000
0100
0000
0000
0000
0000
0000
1000
0000
0000
0001
0000
0000
0000
0000
0000
1000
0000
0000
0000
0000
0000
0010
0000
0000
0000
0000
0000
0000
0000
0000
0000
0010
0000
0000
0000
0000
0000
0010
0000
,
0200
0000
0000
0300
,
0001
0000
0000
0010
0000
0000
0000
0000
0000
0001
0000
0000
0000
0000
0000
0100
0000
0000
0010
0000
0000
0000
0000
0000
1000
0000
0000
0000
0000
0000
0001
0000
0000
0000
0000
0000
0000
0000
0000
0000
0010
0000
0000
0000
0000
0000
0010
0000
,
0100
1000
0000
0001
0100
0000
0000
0000
0010
1000
0010
1000
0020
0000
0000
0000
,
0130
0000
0000
0001
0000
0000
0000
0000
0000
1000
0000
0000
0000
0000
0000
0001
0000
0000
0010
0000
0000
0000
0000
0000
0000
0000
0000
0000
0000
0000
0100
0000
0000
0000
0000
0000
0000
0000
0000
0000
0100
0000
0000
0000
0000
0000
0100
0000
,
0010
0001
0000
1000
0010
0000
0000
0000
0100
0001
0100
0001
0200
0000
0000
0000
,
0310
0000
0000
1000
0000
0000
0000
0000
0000
0001
0000
0000
0000
0000
0000
1000
0000
0000
0100
0000
0000
0000
0000
0000
0000
0000
0000
0000
0000
0000
1000
0000
0000
0000
0000
0000
0000
0000
0000
0000
1000
0000
0000
0000
0000
0000
1000
0000
,
0010
0100
0000
0001
0000
1000
0100
0000
1000
0001
1000
0001
2000
0000
0000
0000
,
3010
0000
0000
0100
0000
0000
0000
0000
0000
0001
0000
0000
0000
0000
0000
1000
0000
0000
0010
0000
0000
0000
0000
0000
0000
0000
0000
0000
0000
0000
0100
0000
0000
0000
0000
0000
0000
0000
0000
0000
0100
0000
0000
0000
0000
0000
0100
0000
,
0001
0000
0000
0000
0000
0000
1000
0000
0000
0001
0000
0000
0000
0000
0000
0000
0000
0000
0000
0000
0000
0000
0000
0000
0010
0000
0000
0001
0000
0000
0010
0000
0000
0001
0000
0000
1000
0000
0100
0000
1000
0000
0100
0000
0000
1000
0000
0000
,
0010
0000
0000
1000
0000
0000
0000
0000
0000
0001
0000
0000
0000
0000
0000
0100
0000
0000
0001
0000
0000
0000
0000
0000
0000
0000
0000
0000
0000
0000
0010
0000
0000
0000
0000
0000
0000
0000
0000
0000
0010
0000
0000
0000
0000
0000
0010
0000
,
0100
1000
0000
0100
0010
0000
0000
0000
0001
0000
0100
0000
1000
0000
0100
0000
,
0010
0000
0000
1000
0000
0000
0000
0000
0000
0001
0000
0000
0000
0000
0000
0010
0000
0000
0100
0000
0000
0000
0000
0000
0000
0000
0000
0000
0000
0000
0010
0000
0000
0000
0000
0000
0000
0000
0000
0000
0010
0000
0000
0000
0000
0000
0010
0000
,
0001
0000
0000
1000
0000
0000
0000
0000
0000
0001
0000
0000
1000
0000
0000
0000
0000
0000
0000
0000
0000
0000
0000
0000
0010
0000
0000
0000
1000
0000
0000
0000
0000
0000
0101
0000
0000
0000
0000
0000
1100
0000
0000
0000
0000
0000
0000
0000
,
0001
0000
0000
0010
0000
0000
0000
0000
0000
0001
0000
0000
0000
0000
0000
0100
0000
0000
0010
0000
0000
0000
0000
0000
0000
0000
0000
0000
0000
0000
1000
0000
0000
0000
0000
0000
0000
0000
0000
0000
1000
0000
0000
0000
0000
0000
1000
0000
,
0100
0000
0000
0010
0000
0000
0000
0000
0000
0001
0000
0000
0000
0000
0000
0100
0000
0000
0001
0000
0000
0000
0000
0000
1000
0000
0000
0000
0000
0000
0100
0000
0000
0000
1000
0000
0001
0000
0000
0000
0000
0000
0100
0000
0000
0000
0001
0000
,
0010
0000
0000
0001
0000
0000
0000
0000
0000
1000
0000
0000
0000
0000
0000
0010
0000
0000
0100
0000
0000
0000
0000
0000
0000
0000
0000
0000
0000
0000
0001
0000
0000
0000
0000
0000
0000
0000
0000
0000
0001
0000
0000
0000
0000
0000
0001
0000
,
1000
0100
0000
1000
0100
0000
0020
0000
0001
0000
0000
0000
0030
0000
0000
0000
,
0001
0100
1000
0100
0001
0010
1000
0010
,
0100
1000
0010
0001
1000
0100
0001
1000
,
0100
0010
0100
0010
0100
0000
0000
0000
1000
0001
1000
0001
1000
0000
0000
0000
,
0001
0000
0000
0100
0000
0000
0001
0000
0000
1000
0000
0000
0010
0000
0000
0000
0000
0000
1000
0000
0000
0000
0000
0000
0100
0000
0000
0000
0100
0000
0000
0000
0000
0000
0100
0000
0000
0000
0000
0000
0100
0000
0000
0000
0000
0000
0000
0000
,
0010
0001
0000
1000
0000
0010
0100
0001
0100
0000
0010
1000
0000
0001
0000
0001
,
0010
0000
0000
0000
0000
0000
0100
0000
0000
0000
0000
0000
0001
0000
0000
0000
0000
0000
0100
0000
0000
0000
0000
0000
1000
0000
0000
0100
0000
0000
1000
0000
0000
0100
0000
0000
0010
0000
0000
0000
0000
0000
0001
0000
0000
0000
0010
0000
,
0001
0000
0000
0100
0000
0000
0000
0000
0000
0001
0000
0000
0000
0000
0000
1000
0000
0000
0010
0000
0000
1000
0000
0000
0000
0000
0000
0000
0000
0000
0100
0000
0000
0000
0000
0000
0000
0000
0000
0000
0100
0000
0000
0000
0000
0000
0100
0000
,
0020
0000
0000
0030
,
0001
0000
0000
0100
0000
0000
0000
0000
0000
0010
0000
0000
0000
0000
0000
1000
0000
0000
0100
0000
0000
1000
0000
0000
0000
0000
0000
0000
0000
0000
0010
0000
0000
0000
0000
0000
0000
0000
0000
0000
0100
0000
0000
0000
0000
0000
0100
0000
,
0001
1000
0000
0100
0000
0010
0001
0000
0100
0001
1000
0010
0200
0000
0000
0000
,
0310
0000
0000
1000
0000
0000
0000
0000
0000
0001
0000
0000
0000
0000
0000
1000
0000
0000
0100
0000
0000
0010
0000
0000
0000
0000
0000
0000
0000
0000
0001
0000
0000
0000
0000
0000
0000
0000
0000
0000
0100
0000
0000
0000
0000
0000
0100
0000
,
0010
1000
0100
0000
1000
0000
0001
0000
1000
0100
0010
0001
2000
0000
0000
0000
,
3010
0000
0000
1000
0000
0000
0000
0000
0000
0001
0000
0000
0000
0000
0000
0100
0000
0000
0001
0000
0000
0010
0000
0000
0000
0000
0000
0100
0000
0000
1000
0000
0000
0000
0000
0000
0010
0000
0000
0000
1000
0000
0000
0000
0000
0000
0001
0000
,
0100
0000
0000
0001
0000
0000
0000
0000
0000
1000
0000
0000
0000
0000
0000
0100
0000
0000
0010
0000
0000
0000
0000
0000
0001
0000
0000
0000
0000
0000
0100
0000
0000
0000
0001
0000
1000
0000
0000
0000
0000
0000
0100
0000
0000
0000
1000
0000
,
0001
0000
0000
0100
0000
0000
0000
0000
0000
0010
0000
0000
0000
0000
0000
1000
0000
0000
0001
0000
0000
1000
0000
0000
0000
0000
0000
0100
0000
0000
0010
0000
0000
0000
0000
0000
0001
0000
0000
0000
0100
0000
0000
0000
0000
0000
0010
0000
,
1000
0000
0000
0001
0000
0000
0000
0000
0000
0010
0000
0000
0100
0000
0000
0000
0000
0000
0000
0000
0000
0000
0000
0000
1000
0000
0000
0001
0000
0000
0100
0000
0000
0010
0000
0000
1000
0000
0001
0000
1000
0000
0001
0000
0000
0010
0000
0000
,
0100
0000
0000
1000
0000
0000
0000
0000
0000
0010
0000
0000
0000
0000
0000
0100
0000
0000
0001
0000
0000
0000
0000
0000
0000
0000
0000
0000
0000
0000
0011
0000
0000
0000
0000
0000
0000
0000
0000
0000
1000
0000
0000
0000
0000
0000
0001
0000
,
0100
0001
0000
1000
0000
0010
1000
0000
0200
0000
0000
0000
0000
0000
0000
0000
,
0310
0000
0000
0001
0000
0000
0000
0000
0000
0100
0000
0000
0000
0000
0000
0010
0000
0000
1000
0000
0000
0000
0000
0000
0000
0000
0000
0000
0000
0000
0101
0000
0000
0000
0000
0000
0000
0000
0000
0000
1100
0000
0000
0000
0000
0000
1001
0000
;
