#TITLE:Only One;
#SUBTITLE:;
#ARTIST:Sammy Adams;
#TITLETRANSLIT:;
#SUBTITLETRANSLIT:;
#ARTISTTRANSLIT:;
#GENRE:;
#CREDIT:;
#MUSIC:Only One.mp3;
#BANNER:;
#BACKGROUND:;
#CDTITLE:;
#SAMPLESTART:59.633;
#SAMPLELENGTH:10.781;
#SELECTABLE:YES;
#OFFSET:-5.727;
#BPMS:0.000=128.000;
#STOPS:;
#BGCHANGES:-12.500=Only One.avi=1.000=1=0=0,
99999=-nosongbg-=1.000=0=0=0 // don't automatically add -songbackground-
;
#FGCHANGES:;

//--------------- dance-single - OrangeRight ----------------
#NOTES:
     dance-single:
     OrangeRight:
     Beginner:
     2:
     0,0,0,0,0:
0000
0000
0000
0000
,
1000
0000
0000
0000
,
1000
0000
0000
0000
,
0001
0000
0000
0000
,
1001
0000
0000
0000
,
1000
0000
1000
0000
,
1000
0000
0000
0000
,
0001
0000
0001
0000
,
0001
0000
0000
0000
,
1000
0000
0001
0000
,
1000
0000
0000
0000
,
0100
0000
0010
0000
,
0100
0000
0000
0000
,
1000
0000
1000
0000
,
0100
0000
0000
0000
,
0010
0000
0010
0000
,
0001
0000
0000
0000
,
0001
0000
0100
0000
,
0001
0000
0000
0000
,
1000
0000
0100
0000
,
1000
0000
0001
0000
,
1000
0000
0000
0000
,
1000
0000
0000
0000
,
0001
0000
0000
0000
,
0001
0000
0000
0000
,
1000
0000
0000
0000
,
0001
0000
0000
0000
,
0100
0000
0000
0000
,
0010
0000
0000
0000
,
1000
0000
1000
0000
,
0100
0000
0010
0000
,
0001
0000
0001
0000
,
0100
0000
0010
0000
,
1000
0000
1000
0000
,
0001
0000
1000
0000
,
0100
0000
0100
0000
,
0010
0000
0100
0000
,
1000
0000
0000
0000
,
0001
0000
0000
0000
,
0100
0000
0000
0000
,
0001
0000
0000
0000
,
1000
0000
0100
0000
,
1000
0000
0000
0000
,
0001
0000
0100
0000
,
0001
0000
0000
0000
,
1000
0000
1000
0000
,
0010
0000
0000
0000
,
0100
0000
0100
0000
,
0001
0000
0000
0000
,
1000
0000
0010
0000
,
1000
0000
0000
0000
,
0001
0000
0010
0000
,
0001
0000
1000
0000
,
0001
0000
0000
0000
,
0100
0000
0000
0000
,
0010
0000
0000
0000
,
1000
0000
0000
0000
,
1000
0000
0000
0000
,
0100
0000
0000
0000
,
0010
0000
0000
0000
,
0001
0000
1000
0000
,
0001
0000
0001
0000
,
0100
0000
0010
0000
,
1000
0000
1000
0000
,
0100
0000
0010
0000
,
0001
0000
0001
0000
,
1000
0000
0001
0000
,
0100
0000
0100
0000
,
0010
0000
0100
0000
,
0001
0000
0010
0000
,
0100
0000
0000
0000
,
1000
0000
0010
0000
,
0100
0000
0000
0000
,
0001
0000
1000
0000
,
0100
0000
0000
0000
,
1000
0000
0001
0000
,
1001
0000
0000
0000
;

//--------------- dance-single - OrangeRight ----------------
#NOTES:
     dance-single:
     OrangeRight:
     Easy:
     4:
     0,0,0,0,0:
0000
0000
0000
0000
,
1000
0000
0001
0000
,
0200
0000
0300
0000
,
0001
0000
1000
0000
,
0100
0100
0100
0100
,
1000
0000
0001
0000
,
0100
0001
1000
0000
,
0100
0000
0010
0000
,
0001
0100
0010
0000
,
1000
0001
0010
0000
,
0100
0000
1000
0000
,
0001
0000
0100
0000
,
0010
0000
1000
0001
,
1000
0100
1000
0000
,
0010
0100
0002
0003
,
1000
0010
1000
0000
,
0010
0100
0001
0100
,
0010
0000
1000
0000
,
0001
0010
0100
1000
,
0010
0000
0100
0000
,
0001
0001
1000
1000
,
0002
0000
0003
0000
,
0200
0000
0300
0000
,
0020
0000
0030
0000
,
2000
3000
0002
0003
,
2000
0000
3000
0000
,
0200
0000
0300
0000
,
0020
0000
0030
0000
,
0002
0003
0002
0003
,
1000
0000
1000
0010
,
1000
0010
0100
0000
,
0001
0000
0001
0010
,
0001
0010
0100
0000
,
1000
0000
1000
0100
,
0010
0001
1000
0000
,
0001
0000
0001
0000
,
1000
1000
0001
0001
,
1000
0100
0010
0000
,
0001
0000
0200
0300
,
0001
0100
0010
0000
,
1000
0100
0010
0001
,
1000
0000
0010
0100
,
0001
0000
0010
0100
,
1000
0000
0010
0000
,
0100
0001
1000
0001
,
1000
0010
1000
0000
,
0100
0010
0001
0000
,
0001
0100
0001
0000
,
0010
0100
1000
0000
,
1000
0001
1000
0001
,
0200
0300
0001
1000
,
0100
0010
0001
1000
,
0010
0010
0100
0100
,
0002
0000
0003
0000
,
2000
0000
3000
0000
,
0200
0000
0300
0000
,
0020
0030
0200
0300
,
2000
0000
3000
0000
,
0002
0000
0003
0000
,
0200
0000
0300
0000
,
0020
0030
0020
0030
,
1000
0001
1000
0001
,
0100
0000
0010
0000
,
1000
0001
1000
0001
,
0010
0000
0100
0000
,
1000
0100
0010
0001
,
1000
0000
1000
0000
,
0001
0100
0010
1000
,
0001
0001
1000
1000
,
0010
0100
0001
0100
,
0020
0000
1030
0000
,
1000
0100
0010
0100
,
2000
0000
3001
0000
,
1000
0001
0100
0010
,
2000
0000
3100
0000
,
0100
0010
0001
0100
,
0010
0010
0010
0010
;

//--------------- dance-single - OrangeRight ----------------
#NOTES:
     dance-single:
     OrangeRight:
     Medium:
     7:
     0,0,0,0,0:
0000
0000
0000
0000
,
2000
3100
0020
0031
,
0002
0100
0103
0000
,
0002
0103
0020
1030
,
0001
1000
0001
1000
0001
1000
0001
0000
,
1000
0100
0010
0001
,
0200
0301
1000
0100
,
0010
0001
0100
0010
,
2000
0000
3001
0000
0100
0010
0100
0000
,
0002
1003
0010
0100
,
0001
0010
0100
1000
,
0010
1000
0001
0100
,
0002
0000
0103
0000
0001
0001
0001
0000
,
2000
0000
3100
0000
1000
0001
1000
0000
,
0001
0100
0001
0000
2000
0000
3001
0000
,
0010
0100
0010
0000
0001
0100
0001
0000
,
0100
0010
1000
0000
0002
0000
1003
0000
,
0100
0000
1000
0010
1000
0000
0010
0100
,
0010
0000
0100
0001
0100
0000
0001
0010
,
0100
1000
0001
0100
0010
1000
0001
1000
,
0010
0100
0010
0100
0010
0100
0010
0000
,
2000
0000
3200
0000
,
0310
0001
0200
0000
,
0302
0000
0203
0000
,
0310
1000
0001
0000
,
0002
0000
0203
0000
,
0310
1000
0100
0000
,
2000
0000
3002
0000
,
0023
0000
0230
0000
,
1300
0100
1000
0000
1000
0010
1000
0002
,
0000
0103
0001
0200
0000
0310
0100
0000
,
0001
0100
0001
0000
0001
0010
0001
2000
,
0000
3100
1000
0200
0000
1300
0100
0000
,
0100
0010
0100
0000
0100
1000
0001
0200
,
0000
0301
1000
0002
0000
1003
0010
0000
,
0010
0100
0001
0000
0010
0100
1000
0000
,
0001
1000
0001
1000
0001
1000
0001
0000
,
1000
1001
0000
0001
,
0100
0010
2000
3001
,
1000
0100
0010
0001
,
0100
0010
1000
1001
,
1000
0010
1000
0010
0200
0000
0301
0000
,
0001
0010
0001
0010
0100
0000
1000
0000
,
0010
0100
0010
0000
1000
0001
1000
0000
,
0100
0010
0100
0000
1000
0001
1000
0001
,
1000
0000
1100
0000
1000
0001
1000
0000
,
0001
0000
0101
0000
0001
1000
0001
0000
,
1000
0000
0010
0100
0010
0000
1000
0001
,
1000
0000
1001
0000
0001
0100
0010
0000
,
1000
0000
0100
0000
0010
0001
0010
0001
,
0200
0000
0300
0000
0010
0100
0001
0000
,
0010
0100
1000
0000
0010
0100
0001
0000
,
1000
0001
1000
0001
1000
0001
1000
0000
,
0002
0000
0203
0000
,
0310
1000
0100
0000
,
2000
0000
3200
0000
,
0310
0001
1000
0000
,
0002
0000
0023
0000
,
0130
1000
0010
0000
,
0200
0000
0302
0000
,
2003
0000
3002
0000
,
1003
0001
1000
0000
0001
0100
0001
0020
,
0000
0130
1000
0002
0000
0103
0010
0000
,
1000
0001
1000
0000
0001
0010
0001
0200
,
0000
0310
1000
0002
0000
0013
0100
0000
,
0010
0001
0100
0000
0010
1000
0100
0020
,
0000
0031
0100
0020
0000
1030
0001
0000
,
1000
0100
0010
0000
0001
0100
0010
0000
,
1000
0001
1000
0001
1000
0001
1000
0000
,
0001
0001
0100
0000
0100
0100
0010
0000
,
0010
1000
0100
1000
0010
0000
0000
0000
,
1000
1000
0100
0000
0100
0100
0010
0000
,
0010
0001
0100
0001
0010
0000
0100
0000
,
1000
1000
0001
0000
0001
0001
0100
0000
,
0001
0100
0010
0100
0001
0000
1000
0000
,
0001
0001
0010
0000
0100
0100
1000
0000
,
0001
1000
0001
1000
0001
1000
0001
1000
;

//--------------- dance-single - OrangeRight ----------------
#NOTES:
     dance-single:
     OrangeRight:
     Hard:
     11:
     0,0,0,0,0:
0000
0000
0000
0000
,
1000
1000
0100
0000
0100
0010
0000
0010
,
0001
1000
0001
0000
1000
0000
1001
0000
,
0001
0001
0100
0000
0010
0010
1000
0000
,
1000
0001
1000
0001
1000
0001
1000
0001
1000
0001
1000
0001
1000
0001
1000
0001
,
1000
0100
0010
0001
0100
0010
0100
0001
,
0020
0000
0130
0000
0100
1000
0010
0100
,
0002
0000
1003
0001
0010
0100
1000
0010
,
0200
0000
0301
0000
0001
1000
0100
1000
,
0020
0000
0130
0000
0100
0001
0010
1000
,
0010
0001
0100
0010
1000
0001
1000
0100
,
0010
0001
0100
1000
0100
0001
1000
0010
,
0200
0000
0000
0000
0301
0000
0000
0000
0100
0000
0010
0000
0100
0010
0100
0010
,
2000
0000
3001
0000
0001
0010
0100
1000
,
0010
0100
0010
1000
0200
0000
0310
0000
,
0010
0001
0100
0001
1000
0001
0010
1000
,
0010
0001
0100
0010
2000
0000
3001
0000
,
0002
0000
0103
0010
1000
0100
0001
0100
,
1000
0010
0100
0001
0010
1000
0010
0001
,
0100
0010
0100
0001
0010
0100
0010
0001
,
1000
1000
0010
0010
0100
0100
0001
0001
,
2000
0100
0010
0100
,
3002
0000
1003
0002
0000
0000
0003
0000
,
0002
0010
0100
0010
,
2003
3020
0230
0000
,
0302
0100
0010
0100
,
2003
0000
3100
0020
0000
0000
0130
0000
,
1000
0100
0010
0001
0100
0010
0100
0002
,
0000
0000
1003
0200
0000
0000
0310
0001
,
1000
1000
0010
0000
0010
0010
0100
0001
,
0010
0100
1000
0001
1000
0010
0110
0000
,
0001
0001
0100
0000
0100
0100
0010
1000
,
0100
0010
0001
0100
0010
0100
0101
0000
,
0001
0001
0010
0000
0100
0100
1000
0010
,
0100
0001
0010
1000
0010
0001
1001
0000
,
1000
0100
1100
0000
0001
0100
0101
0000
,
1000
1000
0001
0001
0010
0010
0100
0100
,
1000
0000
1100
0000
1000
0010
1000
0001
,
1000
0100
0010
0001
0200
0000
0301
0000
,
0001
0100
0010
1000
0100
1000
0010
1000
,
0001
0100
1000
0100
0001
0000
1001
0000
,
0001
0100
0001
0010
0001
0100
0010
0000
,
1000
0100
0010
0100
1000
0010
0100
0001
,
1000
0100
0010
1000
0010
0001
0100
0010
,
0200
0000
0000
0000
0301
0000
1000
0000
0001
0000
1000
0000
0001
1000
0001
1000
,
0002
0000
0103
0010
1000
0100
0001
0100
,
2000
0000
3100
1000
0010
0001
0010
1000
,
0001
0000
0000
0001
0100
0000
0010
0000
1000
0000
0100
0000
0001
0000
0100
0000
,
2000
0000
0000
0000
3001
0000
0000
0001
0010
0000
0100
0000
1000
0000
0001
0000
,
1000
0010
0100
0001
0010
0100
0010
0001
,
0200
0000
0310
1000
0100
0010
0001
1000
,
0001
0010
1000
0010
0001
0100
0010
1000
,
0001
0001
0010
0010
0100
0100
1000
1000
,
0001
0100
0010
1000
0100
0010
0001
2000
,
0000
3001
0100
0020
0000
0000
1030
0000
,
1000
0100
0010
0001
0100
0010
1000
0002
,
0000
1003
0100
0010
0000
0110
0000
0000
,
0100
1000
0010
0100
0001
0010
0001
0200
,
0000
0310
1000
0002
0000
0000
1003
0000
,
0001
0100
0010
0100
0001
0010
0100
2000
,
0000
3010
0100
0002
0000
0013
0100
1000
,
0001
0001
0010
0000
0010
0010
0100
1000
,
0010
0010
0100
0001
1000
0001
1001
0000
,
1000
1000
0100
0000
0100
0100
0010
0001
,
0100
0100
0010
1000
0100
0010
0011
0000
,
0001
0001
0010
0000
0100
0100
1000
0001
,
0100
0100
0001
1000
0100
0010
0110
0000
,
0010
0100
1100
0000
0010
0100
0101
0000
,
0001
0001
0100
0100
1000
1000
0100
0100
,
0001
1000
1001
0000
1000
0001
1001
0000
,
1000
0010
0001
0010
1000
0100
0010
0000
,
0001
0010
0011
0000
1000
0100
1100
0000
,
1000
0100
0001
0100
0010
0001
0100
0000
,
0100
0010
0110
0000
1000
0001
1001
0000
,
1000
0010
0001
0010
1000
0100
0010
0000
,
0001
0100
1001
0000
1000
0010
1001
0000
,
1000
0001
1000
0001
1000
0001
1000
0001
1000
0001
1000
0001
1000
0001
1000
0001
;

//--------------- dance-double - OrangeRight ----------------
#NOTES:
     dance-double:
     OrangeRight:
     Easy:
     4:
     0,0,0,0,0:
00000000
00000000
00000000
00000000
,
10000000
00000000
00010000
00000000
,
02000000
00000000
03000000
00000000
,
00010000
00000000
01000000
00000000
,
00010000
10000000
00010000
10000000
,
00010000
00000000
00100000
00000000
,
00001000
00010000
00000100
00000000
,
00001000
00000000
00000010
00000000
,
00001000
00000100
00001000
00000000
,
00000100
00010000
00001000
00000000
,
00100000
00000000
00010000
00000000
,
01000000
00000000
00100000
00000000
,
10000000
00010000
10000000
00010000
,
10000000
01000000
10000000
00000000
,
00100000
01000000
00020000
00030000
,
00100000
00000000
00001000
00000000
,
00010000
00000000
00000100
00001000
,
00000100
00000000
00010000
00000000
,
00001000
00010000
00000010
00001000
,
00000001
00000000
00001000
00000000
,
00000001
00000001
00001000
00001000
,
00000200
00000300
00020000
00030000
,
00002000
00000000
00003000
00000000
,
02000000
03000000
00002000
00003000
,
00020000
00000000
00030000
00000000
,
00002000
00003000
00020000
00030000
,
00000200
00000000
00000300
00000000
,
00002000
00003000
00000020
00000030
,
00000200
00000300
00000002
00000003
,
00001000
00000001
00000100
00000001
,
00001000
00000000
00000100
00000000
,
00010000
00001000
00010000
00001000
,
00100000
00000000
00010000
00000000
,
10000000
00010000
00100000
00010000
,
10000000
00000000
01000000
00000000
,
00100000
00000000
00100000
00000000
,
00010000
10000000
00010000
10000000
,
00010000
01000000
00001000
00000000
,
00010000
00000100
00002000
00003000
,
00000001
00000000
00000100
00000000
,
00000010
00000000
00001000
00000100
,
00010000
00001000
02000000
03000000
,
00010000
01000000
00001000
00010000
,
00000100
00000000
00001000
00000000
,
00000001
00001000
00000001
00001000
,
00000001
00000100
00000001
00000000
,
00001000
00000100
00001000
00000000
,
00000010
00000100
00000001
00000000
,
00000010
00000100
00001000
00000000
,
00000100
00010000
00001000
01000000
,
00020000
00030000
01000000
00010000
,
10000000
00000000
00010000
00000000
,
10000000
10000000
00010000
00010000
,
02000000
03000000
00002000
00003000
,
00020000
00000000
00030000
00000000
,
00000200
00000300
00020000
00030000
,
00002000
00000000
00003000
00000000
,
00020000
00030000
00002000
00003000
,
00200000
00000000
00300000
00000000
,
00020000
00030000
02000000
03000000
,
00200000
00300000
20000000
30000000
,
00010000
10000000
01000000
10000000
,
00010000
00000000
01000000
00000000
,
00001000
00010000
00001000
00010000
,
00000010
00000000
00001000
00000000
,
00000001
00001000
00000010
00001000
,
00000001
00000000
00000100
00000000
,
00000010
00000000
00000010
00000000
,
00001000
00000001
00001000
00000001
,
00001000
00001000
00000100
00000100
,
00010000
00001000
00010000
00000000
,
00001000
00001000
00100000
00100000
,
00010000
01000000
00010000
00000000
,
10000000
10000000
01000000
01000000
,
00100000
00010000
01000000
00000000
,
00001000
00001000
00010000
00010000
,
00001000
00010000
00001000
00010000
;

//--------------- dance-double - OrangeRight ----------------
#NOTES:
     dance-double:
     OrangeRight:
     Medium:
     7:
     0,0,0,0,0:
00000000
00000000
00000000
00000000
,
20000000
31000000
00020000
01030000
,
00002000
00010000
00013000
00000000
,
00020000
00000100
00032000
01000000
,
00013000
00001000
00010000
00001000
00010000
00001000
00010000
00000000
,
00001000
00100000
00010000
01000000
,
00200000
01300000
00010000
00100000
,
00001000
00010000
00000100
00001000
,
00000002
00000000
00001003
00000000
00001000
00000001
00001000
00000000
,
00000200
00010300
00001000
00100000
,
00010000
01000000
00100000
10000000
,
00010000
10000000
01000000
00100000
,
00020000
00000000
10030000
00000000
00010000
00010000
00010000
00000000
,
20000000
00000000
31000000
00000000
10000000
00010000
10000000
00000000
,
00010000
01000000
00010000
00000000
00200000
00000000
00301000
00000000
,
00010000
00001000
00010000
00000000
00000100
00001000
00000100
00000000
,
00001000
00000010
00000100
00000000
00000002
00000000
00001003
00000000
,
00000100
00000000
00001000
00000001
00001000
00000000
00000100
00010000
,
00001000
00000000
00001000
01000000
00010000
00000000
10000000
00000000
,
00010000
00100000
00010000
00100000
01000000
10000000
01000000
10000000
,
00100000
01000000
00100000
01000000
00100000
01000000
00100000
00000000
,
20000000
00000000
32000000
00000000
,
03100000
00010000
02000000
00000000
,
03002000
00000000
00023000
00000000
,
00030100
00001000
00000001
00000000
,
00000002
00000000
00000203
00000000
,
00000310
00001000
00000100
00000000
,
00020000
00000000
00032000
00000000
,
20003000
00000000
30020000
00000000
,
10030000
01000000
10000000
00000000
10000000
00100000
10000000
00020000
,
00000000
01030000
00010000
02000000
00000000
03100000
01000000
00000000
,
00010000
01000000
00010000
00000000
00100000
00010000
00100000
00002000
,
00000000
00013000
00001000
00020000
00000000
00030100
00001000
00000000
,
00000010
00000100
00000010
00000000
00001000
00000001
00001000
00000200
,
00000000
00000310
00000001
00002000
00000000
00003010
00000100
00000000
,
00000001
00000010
00000100
00000000
00001000
00000010
00000100
00000000
,
00000001
00001000
00000001
00001000
00000001
00001000
00000001
00000000
,
00001000
00001010
00000000
00000010
,
00010000
00001000
00100000
00110000
,
00010000
01000000
00010000
00000000
10000000
01000000
10000000
00000000
,
01000000
10000000
00010000
00000000
02000000
00000000
03010000
00000000
,
10000000
00010000
10000000
00010000
02000000
00000000
03001000
00000000
,
00010000
00001000
00010000
00000100
00001000
00000000
00000001
00000000
,
00001000
00000010
00001000
00000000
00000001
00000010
00000001
00000000
,
00001000
00000001
00001000
00000000
00000001
00000001
00000001
00000000
,
00001000
00000000
00001100
00000000
00000100
00010000
00001000
00000000
,
00100000
00000000
00110000
00000000
00010000
10000000
00010000
00000000
,
10000000
00000000
00100000
01000000
00010000
00000000
00100000
00001000
,
00010000
00000000
00011000
00000000
00001000
00010000
00001000
00000000
,
00010000
00000000
00000100
00000000
00001000
00000001
00000100
00000001
,
00000020
00000000
00000030
00000000
00000100
00001000
00000010
00000000
,
00000100
00000010
00000100
00000010
00001000
00000001
00001000
00000001
,
00001000
00000100
00000010
00000001
00001000
00000010
00000100
00000000
,
00000002
00000000
00000023
00000000
,
00000130
00001000
00000020
00000000
,
00020030
00000000
00032000
00000000
,
00103000
00010000
10000000
00000000
,
20000000
00000000
30200000
00000000
,
01300000
00010000
00100000
00000000
,
00002000
00000000
00023000
00000000
,
00030002
00000000
00002003
00000000
,
00003001
00000010
00000001
00000000
00000001
00000100
00000001
00002000
,
00000000
00003100
00010000
00002000
00000000
00013000
00000100
00000000
,
00001000
00000010
00001000
00000000
00000100
00001000
00000100
00020000
,
00000000
00031000
00100000
00020000
00000000
01030000
00010000
00000000
,
01000000
00100000
01000000
00000000
00010000
10000000
00010000
00200000
,
00000000
01300000
10000000
00020000
00000000
01030000
00100000
00000000
,
10000000
01000000
00100000
00000000
00010000
01000000
00100000
00000000
,
10000000
00010000
01000000
00100000
10000000
00010000
00100000
00000000
,
00010000
00010000
00100000
00000000
00100000
00100000
00001000
00000000
,
00020000
00030200
00002300
00003000
,
00001000
00001000
00000010
00000000
00000010
00000010
00010000
00000000
,
00002000
02003000
03020000
10030000
,
10000000
10000000
01000000
00000000
00100000
00100000
00010000
00000000
,
00100000
00001000
00010000
00000100
00001000
00000000
00000001
00000000
,
00001000
00000010
00000100
00000000
00000001
00000010
00000100
00000000
,
00001000
00000001
00001000
00000001
00001000
00000001
00001000
00000001
;

//--------------- dance-double - OrangeRight ----------------
#NOTES:
     dance-double:
     OrangeRight:
     Hard:
     11:
     0,0,0,0,0:
00000000
00000000
00000000
00000000
,
10000000
10000000
00100000
00000000
01000000
01000000
00010000
00100000
,
00000000
00100000
00001000
00010000
00000000
00000100
00001000
00000000
,
00000001
00000001
00000100
00000000
00000010
00000010
00001000
00000000
,
00000001
00001000
00000001
00001000
00000001
00001000
00000001
00001000
00000001
00001000
00000001
00001000
00000001
00001000
00000001
00001000
,
00000001
00000100
00000010
00001000
00000100
00000010
00000100
00001000
,
00000002
00000000
00001003
00000000
00001000
00000100
00010000
00001000
,
00200000
00000000
00310000
01000000
00100000
01000000
00010000
00100000
,
02000000
00000000
13000000
00000000
00010000
10000000
00010000
00000000
,
10020000
00000000
01030000
00000000
01000000
00001000
00010000
00000000
,
00001000
00010000
00000100
00001000
00000010
00000100
00000001
00001000
,
00000001
00000010
00000100
00001000
00000010
00010000
00001000
00100000
,
00020000
00000000
00000000
00000000
01030000
00000000
00000000
00000000
00010000
00000000
10000000
00000000
00010000
10000000
00010000
10000000
,
00020000
00000000
00130000
00000000
00100000
00001000
00010000
00000100
,
00010000
00001000
01000000
00010000
00200000
00000000
01300000
00000000
,
01000000
10000000
00100000
01000000
00010000
01000000
00001000
00010000
,
00000100
00001000
00000010
00000100
00000002
00000000
00001003
00000000
,
00002000
00000000
00003100
00010000
00001000
00100000
00010000
01000000
,
00100000
10000000
00010000
00100000
01000000
10000000
00010000
00100000
,
00010000
01000000
00100000
10000000
00010000
00010000
00100000
01000000
,
10000000
10000000
00010000
00010000
01000000
01000000
00100000
00100000
,
20000000
01000000
00100000
01000000
,
30020000
00000000
01030000
00001000
00010000
00000000
00000000
00000000
,
00002000
01000000
00010000
01000000
,
00023000
00030200
00002300
00003000
,
00000002
00000100
00000010
00000100
,
00002003
00000000
00003010
00010000
00001000
00000000
00000000
00000000
,
00020000
00000010
00001000
00000010
,
00032000
00000000
01003000
00020000
00000000
00000000
00130000
01000000
,
10000000
10000000
00010000
00000000
01000000
01000000
00001000
00020000
,
00000000
00030100
00001000
00000020
00000000
00000130
00000001
00000000
,
00000001
00000001
00001000
00000000
00000010
00000010
00010000
00002000
,
00000000
00103000
00010000
02000000
00000000
03100000
10000000
00000000
,
01000000
01000000
00100000
00000000
00010000
00010000
00100000
00002000
,
00000000
00013000
00000100
00002000
00000000
00003010
00000100
00000000
,
00000010
00000010
00001000
00000000
00000100
00000100
00010000
00001000
,
00100000
00100000
00010000
00010000
01000000
01000000
00100000
00100000
,
10000000
00000000
10010000
00000000
10000000
01000000
10000000
00100000
,
10000000
00010000
01000000
00001000
02000000
00000000
03001000
00000000
,
00010000
00000100
00001000
00000010
00000100
00000010
00001000
00000100
,
00000010
00000001
00001000
00000010
00000100
00000000
00001001
00000000
,
00000001
00000100
00001000
00000100
00000001
00000000
00001001
00000000
,
00001000
00000010
00000001
00000010
00001000
00000100
00010000
00001000
,
00100000
00010000
01000000
10000000
01000000
00010000
10000000
01000000
,
00200000
00000000
00000000
00000000
00310000
00000000
01000000
00000000
01000000
00000000
01000000
00000000
00100000
01000000
00100000
00000000
,
20000000
00000000
31000000
00100000
00010000
01000000
00001000
00010000
,
00002000
00000000
00013000
00000100
00001000
00000010
00000100
00000001
,
00000020
00000000
00000031
00000100
00000010
00001000
00000100
00000010
,
00000002
00000000
00001003
00000000
00001000
00000010
00000100
00000001
,
00000010
00000010
00000100
00001000
00000100
00010000
00001000
00100000
,
00020000
00000000
01030000
00100000
10000000
01000000
00100000
00010000
,
01000000
00001000
00010000
00000100
00001000
00000010
00000100
00000001
,
00001000
00001000
00000100
00000100
00000010
00000010
00000001
00000001
,
00002000
00000100
00000001
00000100
,
00003020
00000000
00001030
00000100
00020000
00000000
00030000
00000000
,
00002000
00100000
00010000
01000000
,
00023000
00032000
00203000
00300000
,
00020000
00100000
10000000
00100000
,
02030000
00000000
03010000
00100000
00002000
00000000
00003000
00000000
,
00010000
00001000
00010000
00000000
00001000
00010000
00001000
00200000
,
00000000
00000000
00310000
02000000
00000000
00000000
03100000
10000000
,
00010000
00010000
00100000
00000000
01000000
01000000
10000000
00100000
,
01000000
01000000
00010000
00100000
00001000
00010000
00000100
00000000
,
00001000
00001000
00000010
00000000
00000100
00000100
00000001
00000010
,
00000100
00000100
00001000
00000010
00010000
00001000
01000000
00000000
,
00010000
00010000
00100000
00000000
00001000
00001000
00010000
00000100
,
00001000
00001000
00000010
00000100
00000001
00001000
00000001
00000000
,
00001000
00001000
00000100
00000000
00010000
00010000
00001000
00000000
,
00100000
00100000
00001000
00001000
00010000
00010000
00000100
00000100
,
00001000
00000010
00001000
00000100
00010000
00001000
00100000
00020000
,
00000000
01030000
00100000
20000000
00000000
30010000
10010000
00000000
,
00010000
00100000
00010000
01000000
00001000
00010000
00000010
00002000
,
00000000
00003100
00000010
00000002
00000000
00001003
00000110
00000000
,
00000010
00001000
00001100
00000000
00000010
00000001
00000101
00000000
,
00000001
00000100
00001000
00000100
00000010
00001000
00000100
00000000
,
00010000
00001000
00101000
00000000
00100000
00010000
01010000
00000000
,
00010000
10000000
00010000
10000000
00010000
10000000
00010000
10000000
00010000
10000000
00010000
10000000
00010000
10000000
00010000
10000000
;
