#TITLE:One Night Gig;
#SUBTITLE:;
#ARTIST:oo39.com;
#TITLETRANSLIT:;
#SUBTITLETRANSLIT:;
#ARTISTTRANSLIT:;
#GENRE:;
#CREDIT:;
#MUSIC:One Night Gig.mp3;
#BANNER:;
#BACKGROUND:;
#CDTITLE:;
#SAMPLESTART:31.455;
#SAMPLELENGTH:14.769;
#SELECTABLE:YES;
#OFFSET:1.776;
#BPMS:0.000=130.000;
#STOPS:;
#BGCHANGES:;
#FGCHANGES:;

//--------------- dance-single - OrangeRight ----------------
#NOTES:
     dance-single:
     OrangeRight:
     Beginner:
     3:
     0,0,0,0,0:
0000
0000
0000
0000
,
0000
0000
0000
0000
,
0000
0000
0000
0000
,
0000
0000
0000
0000
,
0000
0000
0000
0000
,
1001
0000
0000
0000
,
1000
0000
0100
0000
,
1000
0000
0001
0000
,
0100
0000
0001
0000
,
0010
0000
0100
0000
,
1000
0000
0010
0000
,
1000
0000
0001
0000
,
0010
0000
0001
0000
,
0100
0000
0010
0000
,
1000
0000
1000
0000
,
0001
0000
0001
0000
,
1000
0000
1000
0000
,
0001
0000
1001
0000
,
1000
0100
1000
0000
,
1000
0000
0001
0000
,
0100
0000
0010
0000
,
1000
0000
1000
1000
,
0001
0010
0001
0000
,
0001
0000
1000
0000
,
0010
0000
0100
0000
,
0001
0000
0001
0000
,
1001
0000
0000
0000
,
1001
0000
0000
0000
,
1000
0000
0001
0000
,
1000
0000
0000
0000
,
1001
0000
0000
0000
,
1001
0000
0000
0000
,
1001
0000
0000
0000
,
1000
0001
1000
0000
,
1001
0000
1000
0000
,
1001
0000
0001
0000
,
1001
0000
1000
0000
,
1001
0000
0001
0000
,
1000
0000
1000
1000
,
0001
0000
0001
0001
,
1000
0000
1000
1000
,
0100
0000
0010
0000
,
1001
0000
0000
0000
,
1000
0010
1000
0000
,
0001
0010
0001
0000
,
1000
0000
0001
0000
,
0100
0000
0010
0000
,
1000
0100
1000
0000
,
0001
0100
0001
0000
,
1000
0000
0001
0000
,
0010
0000
0100
0000
,
1000
0100
1000
0000
,
0001
0010
0001
0000
,
1000
0000
0001
0000
,
0100
0000
0010
0000
,
1000
0010
1000
0000
,
0001
0100
0001
0000
,
1000
0100
1000
0000
,
0001
0010
0001
0000
,
1001
0000
0000
0000
,
1001
0000
0000
0000
,
1001
0000
0000
0000
,
1001
0000
0000
0000
,
1001
0000
1001
0000
;

//--------------- dance-single - OrangeRight ----------------
#NOTES:
     dance-single:
     OrangeRight:
     Easy:
     6:
     0,0,0,0,0:
0000
0000
0000
0000
,
0000
0000
0000
0000
,
0000
0000
0000
0000
,
0000
0000
0000
0000
,
0000
0000
0000
0000
,
2002
0000
0000
3003
,
1000
0100
0010
0001
,
1000
0001
1000
0000
,
0001
0100
0010
1000
,
0001
1000
0100
0000
,
1000
0010
0100
0001
,
1000
0001
1000
0000
,
0001
0010
0100
1000
,
0010
0100
0010
0000
,
1000
1000
1000
0000
,
0001
0001
0001
0000
,
1000
1000
1000
0000
,
0001
1000
0002
0003
,
1000
0100
0010
0100
,
1000
0001
1000
1000
,
0001
0100
0010
0100
,
0001
0100
0001
0001
,
1000
0010
0100
0010
,
1000
0001
1000
1000
,
0001
0010
0100
0010
,
0001
0100
0010
1000
,
2002
3003
1000
0001
,
2002
3003
1000
0001
,
1000
0100
0010
0001
,
1000
0001
1000
0000
,
0220
0330
1000
0000
,
0220
0330
0001
0000
,
2002
3003
0100
0010
,
1000
0001
1000
0000
,
2000
0000
3000
0000
1000
1000
1000
0000
,
0020
0000
0030
0000
0010
0010
0010
0000
,
0200
0000
0300
0000
0100
0100
0100
0000
,
2002
0000
3003
0000
1000
0001
1000
0000
,
0002
0000
0003
0000
0001
0001
0001
0000
,
0200
0000
0300
0000
0100
0100
0100
0000
,
0220
0000
0330
0000
0010
0100
0010
0000
,
1000
0100
0010
0001
,
2000
0000
3002
0000
,
1003
0010
0001
0010
,
1000
0100
0010
0000
,
0001
0100
1000
0100
,
0001
1000
0001
1000
,
0001
0010
1000
0010
,
0001
0100
0010
0000
,
1000
0100
0001
0100
,
1000
0001
0200
0300
,
0010
0100
0001
0100
,
1000
0100
0010
1000
,
0100
0010
0100
0001
,
0100
0000
1000
0000
0100
0010
0100
0000
,
1000
0010
0100
0010
,
0001
0010
1000
0100
,
0001
0100
0010
0100
,
1000
0000
0010
0000
0100
0010
0100
0000
,
0220
0330
1000
0001
,
0220
0330
0001
1000
,
2002
3003
0100
0010
,
2002
0000
3003
0000
1000
0001
1000
0000
,
0220
0000
0330
0000
;

//--------------- dance-single - OrangeRight ----------------
#NOTES:
     dance-single:
     OrangeRight:
     Medium:
     10:
     0,0,0,0,0:
0000
0000
0000
0000
,
0000
0000
0000
0000
,
0000
0000
0000
0000
,
0000
0000
0000
0000
,
0000
0000
0000
0000
,
2002
0000
0000
3003
,
1000
0100
1000
0010
1000
0100
0010
0000
,
0001
0100
0001
0000
1000
0100
1000
0000
,
0001
0100
0010
0100
0001
0000
1000
0000
,
0100
0010
0100
1000
0001
0000
1000
0000
,
0001
0100
0001
0010
0001
0100
0010
0000
,
1000
0100
1000
0000
0001
0100
0001
0000
,
1000
0010
0100
0010
1000
0000
0001
0000
,
0010
0100
0010
0001
1000
0000
0001
0000
,
1000
0100
1000
0000
0001
0000
0001
0000
,
1000
0100
1000
0000
0001
0010
0001
0000
,
1000
0010
1000
0000
0001
0000
0001
0000
,
0100
0010
0200
0000
0020
0000
0330
0000
,
1000
0010
1000
0001
1000
0100
0010
0000
,
0001
0010
0001
0000
1000
0010
1000
0000
,
0001
1000
0100
1000
0001
0000
1000
0000
,
0010
0100
0010
1000
0001
0000
1000
0000
,
0001
0010
0001
1000
0001
0100
0010
0000
,
1000
0010
1000
0000
0001
0010
0001
0000
,
1000
0001
0010
0001
1000
0000
0001
0000
,
0100
0010
0100
0001
1000
0000
0001
0000
,
2002
0000
3003
0000
1000
0001
1000
0000
,
2002
0000
3003
0000
0001
1000
0001
0000
,
1100
0110
0011
1001
,
0001
0100
0010
1000
0001
0000
1000
0000
,
2002
0000
3003
0000
0001
0100
0001
0000
,
2002
0000
3003
0000
1000
0100
1000
0000
,
2002
0000
3003
0000
0100
0010
0100
0000
,
0010
1000
0001
1000
0100
0000
1000
0000
,
2200
0000
3300
0000
1000
0100
1000
0000
,
0220
0000
0330
0000
0100
0010
0100
0000
,
0022
0000
0033
0000
0010
0001
0010
0000
,
2002
0000
3003
0000
0001
0100
0010
0000
,
0220
0000
0330
0000
0010
1000
0001
0000
,
2002
0000
3003
0000
0001
1000
0100
0000
,
0220
0000
0330
0000
0010
0001
1000
0000
,
0001
0100
0010
1000
0001
0100
0010
1000
,
0002
1000
2000
3003
,
1000
0010
1000
0100
1000
0010
0100
0000
,
0001
1000
0001
0000
1000
0001
1000
0000
,
0001
0010
0100
0010
0001
0000
1000
0000
,
0010
0100
0010
1000
0001
0000
1000
0000
,
0001
0010
0001
0100
0001
0010
0100
0000
,
1000
0001
1000
0000
0001
1000
0001
0000
,
1000
0010
0100
0001
1000
0000
0001
0000
,
0010
0100
0010
0001
2000
0000
0001
0000
,
3001
0100
0010
0100
0001
1000
0100
0000
,
1000
0001
1000
0000
0001
1000
0001
0000
,
1000
0100
1000
0010
1000
0000
0001
0000
,
0010
0100
0010
0001
1000
0100
1000
0000
,
1000
0100
0010
0100
1000
0001
0100
0000
,
0001
1000
0001
0000
1000
0001
1000
0000
,
0001
0100
0001
0010
0100
0000
1000
0000
,
0010
0100
0010
1000
0001
0100
0001
0000
,
0202
0000
0303
0000
0001
0100
0010
0000
,
2020
0000
3030
0000
1000
0100
0010
0000
,
0022
0000
0033
0000
0001
0010
0100
0000
,
2200
0000
3300
0000
1000
0001
1000
0000
,
2002
3003
0200
0300
;

//--------------- dance-single - OrangeRight ----------------
#NOTES:
     dance-single:
     OrangeRight:
     Hard:
     13:
     0,0,0,0,0:
0000
0000
0000
0000
,
0000
0000
0000
0000
,
0000
0000
0000
0000
,
0000
0000
0000
0000
,
0000
0000
0000
0000
,
2002
0000
0000
3003
,
1000
0000
0100
0000
0010
0000
0001
0000
1000
0001
0000
0001
1000
0000
0000
0000
,
0001
0100
0010
0000
0100
0010
1000
0000
,
0001
1000
0100
1000
0010
0000
0100
0000
,
0001
0100
0001
0000
0100
0000
0010
0000
1000
0000
0001
0000
1000
0000
0000
0000
,
0001
0000
0010
0000
0100
0000
1000
0000
0010
0100
0000
0100
0010
0000
0000
0000
,
1000
0100
0010
0000
0100
0010
0001
0000
,
0010
0001
0100
0001
1000
0000
0001
0000
,
1000
0100
1000
0000
0010
0000
0100
0000
0001
0000
1000
0000
0001
0000
0000
0000
,
1000
0000
0001
0000
0100
0001
0000
0000
0100
0000
0000
0010
0000
0000
1000
0000
,
0001
0000
1000
0000
0100
1000
0000
0000
1000
0000
0001
0000
0100
0001
0000
0000
,
1000
0000
0100
0000
0010
0001
0000
0000
0010
0000
0000
0100
0000
0000
1000
0000
,
0010
0000
1000
0000
0100
0010
0001
0000
2000
0000
0000
0000
3001
0000
0000
0000
,
1000
0000
0100
0000
0010
0000
0001
0000
0100
0010
0000
0010
0100
0000
0000
0000
,
0001
0100
0010
1000
0100
0010
0001
0000
,
1000
0010
1000
0000
0001
0100
0001
0000
1000
0000
0100
0000
0010
0000
0000
0000
,
0001
0010
0001
0000
0100
0000
0010
0000
1000
0000
0001
0000
1000
0000
0000
0000
,
0001
0000
0100
0000
0010
0000
1000
0000
0001
0010
0000
0010
0001
0000
0000
0000
,
1000
0100
0010
0001
0100
0010
1000
0001
,
1000
0100
1000
0000
0001
0010
0001
0000
1000
0000
0100
0000
0010
0000
0000
0000
,
0001
0100
0001
0000
0010
0000
0100
0000
1000
0000
0001
0000
1000
0000
0000
0000
,
2002
0000
3003
0000
1000
0001
0100
0000
,
0202
0000
0303
0000
0001
0100
0010
1000
,
1000
0100
0100
0010
0010
0001
0001
1000
,
0001
0000
0100
0000
0010
0000
1000
0001
0000
0000
0010
0000
0100
0000
0000
0000
,
0220
0000
0000
0000
0330
0000
0010
0000
0100
0000
1000
0000
0001
1000
0000
0000
,
2002
0000
0000
0000
3003
0000
1000
0000
0001
0000
1000
0000
0100
0010
0000
0000
,
0220
0000
0000
0000
0330
0000
0100
0000
0010
0000
0001
0000
1000
0001
0000
0000
,
1000
0001
1000
0001
1000
0000
0010
0100
0000
0000
0001
0000
0100
0000
0000
0000
,
0102
0000
1003
0100
0010
0001
1000
0001
,
0102
0000
0013
0100
1000
0010
0100
0001
,
0201
0000
0310
1000
0100
1000
0001
1000
,
2001
0000
0000
0000
3100
0000
0010
0000
0001
1000
0001
0000
1000
0010
0000
0000
,
2010
0000
0000
0000
3001
0000
0100
0000
0010
0000
1000
0000
0001
1000
0000
0000
,
2010
0000
0000
0000
3100
0000
0010
0000
0001
0000
0100
0000
0010
1000
0000
0000
,
1020
0000
0000
0000
0130
0000
0001
0000
0010
0000
0001
0000
1000
0001
0000
0000
,
1000
0100
1000
0000
0100
0000
0010
0100
0010
0000
0000
0001
0000
0000
0100
0000
,
0102
0010
2000
3003
,
0001
0010
0001
0000
1000
0100
1000
0000
0001
1000
0000
1000
0001
0100
0000
0000
,
0100
0010
1000
0100
0001
0100
1000
0010
,
0100
0001
0100
0000
0010
1000
0010
0000
0100
0000
0001
0000
1000
0000
0000
0000
,
0001
0010
0001
0000
1000
0000
0010
0000
0100
0000
0010
0000
1000
0000
0000
0000
,
0001
0100
0001
0000
1000
0010
1000
0000
0001
1000
0000
1000
0001
0010
0000
0000
,
0001
0010
0100
1000
0100
0001
0100
0010
,
0100
1000
0100
0000
0010
0001
0010
0000
0100
0000
1000
0000
0010
0000
0100
0000
,
0001
0010
0001
0000
1000
0010
0100
0000
0002
0000
0000
0000
1003
0000
0000
0000
,
1000
0100
1000
0100
0010
0001
0010
0001
1000
0010
0000
0100
0001
1000
0000
0000
,
0001
1000
0010
0100
0001
0010
1000
0010
,
0001
0100
0001
0000
1000
0100
1000
0000
0010
0000
0100
0000
0001
0000
0010
0000
,
0001
0010
0001
0000
1000
0010
1000
0000
0001
0000
0010
0000
0100
0000
1000
0000
,
0001
0100
0001
0100
0010
1000
0010
1000
0001
0010
0000
0100
1000
0001
0000
0000
,
0100
1000
0100
0010
0100
0001
1000
0100
,
0010
0001
0010
0000
0100
1000
0100
0000
0010
0000
0001
0000
1000
0000
0010
0000
,
1000
0001
1000
0001
1000
0000
0010
0000
0100
0000
0001
0000
1000
0001
0000
0000
,
2001
0000
3001
0100
0010
1000
0001
1000
,
1002
0000
1003
0100
0010
0001
0100
0010
,
0120
0000
1030
0100
0001
0100
1000
0010
,
0210
0000
0301
0010
1000
0010
0001
0100
,
0220
0330
2002
3003
;

//--------------- dance-single - OrangeRight ----------------
#NOTES:
     dance-single:
     OrangeRight:
     Challenge:
     15:
     0,0,0,0,0:
0000
0000
0000
0000
,
0000
0000
0000
0000
,
0000
0000
0000
0000
,
0000
0000
0000
0000
,
0000
0000
0000
0000
,
1000
0000
1000
0000
0001
0000
1000
0001
0100
0000
0010
2000
0000
0000
3000
0001
,
1000
0100
1000
0100
0010
0001
0010
0001
1000
0010
0000
0100
0001
1000
0000
0000
,
0001
0000
0100
0000
0010
0000
1000
0000
0100
0000
0001
0000
0100
0000
1000
0001
,
0100
0010
0100
0010
1000
0100
1000
0100
1000
0000
0001
0000
0100
0000
0010
1000
,
0100
1000
0100
1000
0010
0100
0000
0100
0001
1000
0001
0000
1000
0001
1000
0000
,
0001
0100
0001
0100
0010
1000
0010
1000
0001
0010
0000
0100
1000
0001
0000
0000
,
1000
0000
0010
0000
0100
0000
0001
0000
0010
0000
1000
0000
0010
0000
0001
1000
,
0010
0100
0010
0100
0001
0010
0001
0010
0001
0000
1000
0000
0100
0000
0010
0001
,
0100
0001
0100
0001
0010
0100
0000
0100
1000
0001
1000
0000
0001
1000
0001
0000
,
1000
0000
0100
0000
1000
0010
0000
0000
0110
0000
0000
0101
0000
0000
0011
0000
,
0001
0000
0010
0000
0001
0100
0000
0000
0010
0000
1000
0000
0100
1000
0000
0000
,
0001
0000
0010
0000
0001
0100
0000
0000
0110
0000
0000
1010
0000
0000
1100
0000
,
1000
0001
1000
0000
0001
0100
0001
0100
0020
0000
1000
0000
1030
0001
0000
1000
,
0001
0010
0001
0010
0100
1000
0100
1000
0001
0100
0000
0010
1000
0001
0000
0000
,
1000
0000
0010
0000
0001
0000
0010
0000
1000
0000
0100
0000
0010
0000
0001
0100
,
0010
0100
0001
0010
0100
0010
0001
1000
0001
0000
1000
0000
0010
0000
0100
0010
,
1000
0100
0010
0100
1000
0001
0000
0001
0100
0010
0100
0000
0010
0100
0010
0000
,
1000
0010
1000
0010
0100
0001
0100
0001
1000
0100
0000
0010
0001
1000
0000
0000
,
0001
0000
0100
0000
1000
0000
0100
0000
0001
0000
0010
0000
0100
0000
1000
0010
,
0100
0010
1000
0100
0010
0100
1000
0001
1000
0000
0001
0000
0010
0000
0100
1000
,
0010
0100
0001
1000
0100
0010
0000
0001
1000
0001
1000
0000
0001
1000
0001
0000
,
2002
0000
0000
0000
3003
0000
0000
0000
1000
0001
0100
0000
0001
0000
0000
0000
,
0202
0000
0000
0000
0303
0000
0000
0000
0001
0100
0010
0000
1000
0000
0001
0010
,
0001
0000
0100
0010
0100
0000
0010
1000
0010
0000
1000
0100
1000
0000
0001
1000
,
0001
0100
0010
1000
0001
0000
1000
0001
0000
0000
1000
0000
0100
0000
0010
0000
,
0220
0000
0000
0000
0330
0000
0010
0000
0100
1000
0001
0000
0100
0010
0000
0000
,
0220
0000
0000
0000
0330
0000
0010
0000
0100
0001
1000
0000
0100
0010
0000
0000
,
0220
0000
0000
0000
0330
0000
0010
0000
0100
1000
0001
0000
0100
0010
0000
0000
,
1000
0100
0010
0001
0100
0000
0010
0100
0000
0100
0001
0000
1000
0000
0000
0000
,
2001
0000
0001
0000
3100
0000
1000
0000
0001
0100
0010
0000
1000
0001
0000
0000
,
1002
0000
1000
0000
0103
0000
0001
0000
1000
0100
0010
0000
0001
1000
0000
0000
,
1020
0000
0100
0000
0130
0000
0010
0000
1000
0100
0010
0000
0001
0010
0000
0000
,
0021
0000
0100
0000
0130
0000
0010
0000
0001
0100
0010
0000
1000
0001
0000
0000
,
2001
0000
0100
0000
3010
0000
1000
0000
0001
1000
0100
0000
0010
0001
0000
0000
,
1002
0000
0100
0000
0013
0000
0001
0000
1000
0001
0100
0000
0010
1000
0000
0000
,
2010
0000
0100
0000
3001
0000
1000
0000
0001
0100
0010
0000
1000
0001
0000
0000
,
1000
0100
1000
0100
0010
0000
0001
0100
0001
0100
0000
0010
0000
1000
0001
0000
,
0100
0010
0000
0000
1000
0100
0010
0001
2000
0000
0001
0000
3001
0000
0000
0000
,
1000
0100
0010
0100
1000
0001
0100
0001
0010
0100
0000
1000
0001
1000
0000
0000
,
0001
0000
0100
0000
0010
0000
0100
0000
1000
0000
0100
0000
0010
0000
1000
0010
,
0100
0010
1000
0100
0010
0001
0100
0010
0100
0000
0001
0000
0100
0000
0010
0100
,
0001
0010
0100
0010
0001
1000
0000
1000
0010
0100
0001
0000
1000
0100
0010
0000
,
0001
0100
0010
0100
0001
1000
0100
1000
0010
0100
0000
0001
1000
0001
0000
0000
,
1000
0000
0100
0000
0010
0000
0100
0000
0001
0000
0100
0000
0010
0000
0001
0010
,
0100
1000
0001
0100
0010
1000
0001
1000
0100
0000
1000
0000
0100
0000
0010
0001
,
0100
0010
0100
0001
0010
0100
1000
0001
2000
0000
0001
0000
3001
0000
1000
0001
,
1000
0100
0001
0100
1000
0001
0100
0001
0010
0100
0000
1000
0001
1000
0000
0000
,
0001
0000
0100
0000
1000
0000
0100
0000
0001
0000
0010
0000
1000
0000
0010
0001
,
0100
0010
0100
0001
1000
0100
0010
0001
1000
0000
0010
0000
0100
0000
0010
1000
,
0100
0010
0100
1000
0010
0100
0000
0100
0001
0010
0100
0000
1000
0010
0100
0000
,
0001
0100
1000
0100
0001
0010
0100
1000
0001
0100
0000
0010
1000
0001
0000
0000
,
1000
0000
0100
0000
0001
0000
0100
0000
1000
0000
0010
0000
0001
0000
0010
1000
,
0100
0010
0100
1000
0010
0001
0010
1000
0100
0000
0010
0000
0001
0000
0100
1000
,
0100
0001
0010
0100
1000
0010
0100
0010
1000
0001
0010
1000
0010
0001
1000
0000
,
1002
0000
1000
0000
1003
0100
0000
0100
0010
0000
0010
0001
0000
0001
1000
0000
,
2001
0000
0001
0000
3001
0100
0000
0010
1000
0000
0100
0000
0010
0001
0010
0000
,
0021
0000
0001
0000
0031
0100
0000
0100
0010
0000
0010
1000
0000
1000
0100
0000
,
1200
0000
1000
0000
1300
0010
0000
0100
0000
0001
0010
0000
0100
1000
0001
0000
,
2001
0000
0001
0000
3001
0100
0010
0000
0220
0000
0000
0000
0330
0000
0000
0000
;

//--------------- dance-double - OrangeRight ----------------
#NOTES:
     dance-double:
     OrangeRight:
     Easy:
     5:
     0,0,0,0,0:
00000000
00000000
00000000
00000000
,
00000000
00000000
00000000
00000000
,
00000000
00000000
00000000
00000000
,
00000000
00000000
00000000
00000000
,
00000000
00000000
00000000
00000000
,
20020000
00000000
00000000
30030000
,
10000000
01000000
00100000
00010000
,
01000000
00001000
00010000
00000000
,
00001000
00001000
00001000
00000000
,
00010000
00000100
00001000
00000000
,
00000001
00000010
00000100
00001000
,
00000010
00010000
00001000
00000000
,
00010000
00010000
00010000
00000000
,
00001000
01000000
00010000
10000000
,
00010000
00010000
00010000
00000000
,
01000000
01000000
01000000
00000000
,
00001000
00001000
00001000
00000000
,
00010000
00001000
00020000
00030000
,
00001000
01000000
00010000
01000000
,
00001000
00010000
00001000
00001000
,
00010000
00000100
00010000
00000000
,
00001000
01000000
00001000
00000000
,
00010000
00000010
00001000
00000010
,
00010000
00001000
00010000
00010000
,
00001000
00100000
00001000
00000000
,
00010000
00000010
00010000
00000000
,
00022000
00033000
00000000
00000000
,
20020000
30030000
00000000
00000000
,
10000000
01000000
00100000
00010000
,
10000000
00010000
10000000
00000000
,
20020000
30030000
00000000
00000000
,
00022000
00033000
00000000
00000000
,
00002002
00003003
00000100
00000010
,
00001000
00000001
00001000
00000000
,
00000002
00000000
00000003
00000000
00000001
00000001
00000001
00000000
,
00002000
00000000
00003000
00000000
00001000
00001000
00001000
00000000
,
00000020
00000000
00000030
00000000
00000010
00000010
00000010
00000000
,
00020000
00000000
00030000
00000000
00001000
00010000
00001000
00000000
,
00020000
00000000
00030000
00000000
00010000
00010000
00010000
00000000
,
00002000
00000000
00003000
00000000
00001000
00001000
00001000
00000000
,
02000000
00000000
03000000
00000000
00100000
01000000
00100000
00000000
,
10000000
01000000
00100000
00010000
,
20000000
00000000
30020000
00000000
,
10030000
00100000
00010000
00100000
,
10000000
01000000
00100000
00010000
,
01000000
00001000
00010000
00000000
,
00000100
00001000
00000010
00000100
,
00000001
00000010
00001000
00000010
,
00000001
00000100
00000010
00000000
,
00001000
00000100
00010000
00000000
,
00001000
01000000
00200000
00300000
,
10000000
01000000
00010000
01000000
,
10000000
01000000
00010000
01000000
,
00100000
00010000
01000000
00010000
,
00100000
00001000
00010000
00000100
,
00001000
00000100
00000001
00000100
,
00001000
00000100
00000001
00000100
,
00001000
00000010
00000100
00000001
,
00000010
00000100
00010000
00001000
,
00022000
00033000
00100000
00000000
,
20020000
30030000
01000000
00000000
,
00022000
00033000
00000100
00000000
,
00002002
00003003
00000010
00000100
,
00000220
00000000
00000330
00000000
;

//--------------- dance-double - OrangeRight ----------------
#NOTES:
     dance-double:
     OrangeRight:
     Medium:
     10:
     0,0,0,0,0:
00000000
00000000
00000000
00000000
,
00000000
00000000
00000000
00000000
,
00000000
00000000
00000000
00000000
,
00000000
00000000
00000000
00000000
,
00000000
00000000
00000000
00000000
,
20020000
00000000
00000000
30030000
,
10000000
00010000
01000000
00010000
00100000
01000000
00100000
00000000
,
00010000
01000000
00001000
00000000
00010000
00000100
00001000
00000000
,
00000010
00000100
00000001
00001000
00000010
00000000
00000100
00000000
,
00000001
00001000
00000100
00000010
00000001
00000000
00001000
00000000
,
00000001
00001000
00000100
00001000
00000010
00000100
00000010
00000000
,
00001000
00000100
00010000
00000000
00001000
00100000
00010000
00000000
,
01000000
00100000
10000000
00010000
00100000
00000000
01000000
00000000
,
10000000
00010000
01000000
00010000
10000000
00000000
00010000
00000000
,
10000000
01000000
10000000
00000000
00100000
00000000
01000000
00000000
,
00010000
00100000
00010000
00000000
01000000
00010000
01000000
00000000
,
00001000
00010000
00001000
00000000
00010000
00000000
00000100
00000000
,
00001000
00000100
00000010
00000001
00002000
00000000
00003001
00000000
,
00000001
00000100
00000010
00000100
00000001
00000010
00000100
00000000
,
00001000
00000100
00001000
00000000
00000001
00000100
00000001
00000000
,
00001000
00000100
00010000
00001000
00010000
00000000
00001000
00000000
,
00100000
00010000
01000000
00100000
10000000
00000000
00010000
00000000
,
10000000
01000000
00100000
01000000
10000000
00100000
01000000
00000000
,
00010000
01000000
00010000
00000000
10000000
00100000
10000000
00000000
,
00010000
01000000
00001000
00010000
00001000
00000000
00010000
00000000
,
00000100
00001000
00000010
00000100
00000001
00000000
00001000
00000000
,
00002002
00000000
00003003
00000000
00001000
00000001
00001000
00000000
,
00002002
00000000
00003003
00000000
00000001
00001000
00000001
00000000
,
00000100
00000010
00001000
00000100
,
00010000
00001000
00010000
00001000
01000000
00000000
00100000
00000000
,
02200000
00000000
03300000
00000000
10000000
00010000
10000000
00000000
,
02200000
00000000
03300000
00000000
00010000
10000000
00010000
00000000
,
20020000
00000000
30030000
00000000
00100000
01000000
00100000
00000000
,
10000000
01000000
10000000
00100000
01000000
00010000
10000000
00000000
,
20020000
00000000
30030000
00000000
10000000
01000000
00100000
00000000
,
02200000
00000000
03300000
00000000
01000000
00100000
00010000
00000000
,
00220000
00000000
00330000
00000000
00100000
00001000
00010000
00000000
,
00022000
00000000
00033000
00000000
00010000
00000100
00001000
00000000
,
00002200
00000000
00003300
00000000
00001000
00000100
00000010
00000000
,
00000220
00000000
00000330
00000000
00000010
00000001
00000100
00000000
,
00000202
00000000
00000303
00000000
00000001
00000100
00000010
00000000
,
00001000
00000010
00001000
00000001
00000100
00000001
00001000
00000100
,
00020000
00032000
02003000
03000000
,
00010000
01000000
00010000
00100000
01000000
00100000
00010000
00000000
,
10000000
00100000
10000000
00000000
00010000
01000000
00010000
00000000
,
10000000
01000000
00100000
00010000
01000000
00000000
00001000
00000000
,
00010000
00001000
00010000
00000100
00001000
00000010
00000100
00000000
,
00001000
00000010
00001000
00000100
00000010
00000100
00001000
00000000
,
00000001
00000100
00000001
00000000
00001000
00000010
00001000
00000000
,
00000001
00000010
00000100
00001000
00000010
00000000
00010000
00000000
,
00001000
00010000
00001000
00100000
00020000
00000000
10030000
00000000
,
10000000
01000000
00100000
00010000
01000000
00001000
00010000
00000100
,
00001000
00000100
00000010
00000001
00000100
00000010
00001000
00000000
,
00000001
00000100
00000001
00000100
00000010
00000000
00001000
00000000
,
00000100
00000010
00000100
00000010
00000001
00001000
00000001
00000000
,
00000001
00000100
00000010
00001000
00000100
00000010
00000100
00001000
,
00000010
00010000
00001000
00100000
00010000
01000000
00100000
00000000
,
01000000
00100000
01000000
00010000
10000000
01000000
10000000
00000000
,
00010000
01000000
10000000
01000000
00010000
10000000
00010000
00000000
,
20020000
30030000
10000000
00010000
,
00022000
00033000
00001000
00000001
,
00002002
00003003
00001000
00010000
,
00022000
00000000
00033000
00000000
00010000
01000000
00100000
00000000
,
02200000
03300000
20020000
30030000
;

//--------------- dance-double - OrangeRight ----------------
#NOTES:
     dance-double:
     OrangeRight:
     Hard:
     12:
     0,0,0,0,0:
00000000
00000000
00000000
00000000
,
00000000
00000000
00000000
00000000
,
00000000
00000000
00000000
00000000
,
00000000
00000000
00000000
00000000
,
00000000
00000000
00000000
00000000
,
20020000
00000000
00000000
30030000
,
10000000
00000000
01000000
00000000
00100000
00000000
01000000
00000000
10000000
00010000
00000000
00010000
10000000
00000000
00000000
00000000
,
00010000
01000000
00001000
00000000
00010000
00000100
00001000
00000010
,
00000100
00000001
00000100
00001000
00000100
00000010
00001000
00000000
,
00000010
00001000
00000100
00000010
00000001
00001000
00000001
00000000
,
00000001
00000000
00000100
00000000
00000010
00000000
00000100
00000000
00000001
00000010
00000000
00000100
00001000
00000000
00000000
00000000
,
00000100
00010000
00001000
00000000
00010000
00001000
00100000
00010000
,
01000000
10000000
01000000
00010000
00100000
01000000
10000000
00000000
,
00100000
00010000
00100000
01000000
00100000
10000000
00100000
00000000
,
10000000
00000000
01000000
00000000
00000000
00100000
00000000
00000000
00010000
00000000
00000000
01000000
00000000
00000000
00010000
00000000
,
00100000
00000000
00001000
00000000
00000000
00001000
00000000
00000000
00010000
00000000
00000100
00000000
00000000
00000100
00000000
00000000
,
00001000
00000000
00000100
00000000
00000000
00000010
00000000
00000000
00000001
00000000
00000000
00000100
00000000
00000000
00000010
00000000
,
00001000
00000000
00000001
00000000
00000010
00000100
00001000
00000000
00000002
00000000
00000000
00000000
00001003
00000000
00000000
00000000
,
00000001
00000000
00000100
00000000
00001000
00000000
00000100
00000000
00000001
00000010
00000000
00000100
00001000
00000000
00000000
00000000
,
00000100
00010000
00001000
00000000
00100000
00001000
00010000
00000100
,
00001000
00000100
00001000
00000000
00000100
00010000
00000100
00000000
00010000
00000000
00001000
00000000
01000000
00000000
00000000
00000000
,
00010000
01000000
00010000
00000000
10000000
00000000
01000000
00000000
00100000
00000000
00010000
00000000
10000000
00000000
00000000
00000000
,
10000000
00000000
01000000
00000000
00010000
00000000
01000000
00000000
10000000
00100000
00000000
01000000
00010000
00000000
00000000
00000000
,
00100000
00001000
00010000
00000000
00001000
00010000
00000100
00001000
,
00000010
00000100
00000010
00000000
00001000
00000001
00001000
00000000
00000100
00000000
00000010
00000000
00000001
00000000
00000000
00000000
,
00001000
00000001
00000100
00000000
00000010
00000000
00001000
00000000
00000100
00000000
00010000
00000000
00001000
00000000
00000000
00000000
,
00022000
00000000
00033000
00000000
01000000
00001000
00010000
00000000
,
00022000
00000000
00033000
00000000
00000100
00010000
00001000
00100000
,
00100000
00000000
00010000
00000000
00010000
00000000
01000000
00000000
01000000
00000000
00100000
00000000
00100000
00000000
10000000
00010000
,
10000000
00000000
01000000
00000000
00100000
00000000
00010000
01000000
00000000
00000000
00100000
00000000
10000000
00000000
00000000
00000000
,
22000000
00000000
00000000
00000000
33000000
00000000
10000000
00000000
01000000
00000000
00100000
00000000
00010000
01000000
00000000
00000000
,
02020000
00000000
00000000
00000000
03030000
00000000
01000000
00000000
00010000
00000000
00100000
00000000
00001000
00010000
00000000
00000000
,
00022000
00000000
00000000
00000000
00033000
00000000
00010000
00000000
00000100
00000000
00001000
00000000
00000010
00000100
00000000
00000000
,
00000001
00001000
00000001
00001000
00000001
00000000
00000100
00000010
00000000
00000000
00001000
00000000
00000001
00000000
00000000
00000000
,
00000202
00000000
00000303
00000001
00000100
00000010
00001000
00000100
,
00002200
00000000
00003300
00000100
00010000
00001000
01000000
00010000
,
02020000
00000000
03030000
00010000
01000000
00100000
10000000
01000000
,
22000000
00000000
00000000
00000000
33000000
00000000
10000000
00000000
01000000
00100000
01000000
00000000
10000000
00100000
00000000
00000000
,
20200000
00000000
00000000
00000000
30300000
00000000
10000000
00000000
00100000
00000000
01000000
00000000
00010000
00100000
00000000
00000000
,
00220000
00000000
00000000
00000000
00330000
00000000
00100000
00000000
00001000
00000000
00010000
00000000
00000010
00001000
00000000
00000000
,
00002020
00000000
00000000
00000000
00003030
00000000
00001000
00000000
00000010
00000000
00000100
00000000
00000001
00000010
00000000
00000000
,
00000100
00000010
00000100
00000000
00001000
00000000
00000001
00001000
00000001
00000000
00000000
00001000
00000000
00000000
00000001
00000000
,
00002001
00000100
00000020
00003030
,
00001000
00000000
00000010
00000000
00000001
00000000
00000010
00000000
00001000
00000010
00000000
00000100
00000001
00001000
00000000
00000000
,
00001000
00000100
00010000
00001000
00100000
00010000
01000000
00100000
,
10000000
00100000
10000000
00000000
00010000
00100000
00010000
00000000
10000000
00000000
00010000
00000000
10000000
00000000
01000000
00000000
,
00100000
01000000
00100000
00000000
00010000
00000000
01000000
00000000
00100000
00000000
10000000
00000000
00010000
00000000
00000000
00000000
,
10000000
00000000
00100000
00000000
00010000
00000000
00100000
00000000
10000000
00100000
00000000
01000000
00010000
10000000
00000000
00000000
,
00010000
01000000
00001000
00010000
00000010
00001000
00000100
00000010
,
00000001
00000100
00000001
00000000
00001000
00000100
00001000
00000000
00000001
00000000
00001000
00000000
00000001
00000000
00000100
00000000
,
00000010
00001000
00000010
00000000
00000100
00000000
00000001
00000000
00002000
00000000
00000000
00000000
00003100
00000000
00000000
00000000
,
00000100
00001000
00000100
00000000
00010000
00001000
00010000
00000000
00001000
01000000
00000000
00010000
01000000
00100000
00000000
00000000
,
10000000
01000000
00010000
01000000
10000000
00100000
01000000
00010000
,
00100000
00010000
00100000
00000000
01000000
10000000
01000000
00000000
00100000
00000000
00010000
00000000
01000000
00000000
00001000
00000000
,
00010000
00001000
00010000
00000000
00000100
00000000
00010000
00000000
00001000
00000000
00100000
00000000
00010000
00000000
00000000
00000000
,
01000000
00010000
01000000
00000000
00001000
00010000
00001000
00000000
00010000
00000100
00000000
00001000
00000100
00000010
00000000
00000000
,
00000001
00000100
00001000
00000100
00000001
00000010
00001000
00000010
,
00000001
00001000
00000001
00000000
00000100
00000010
00000100
00000000
00000010
00000000
00001000
00000000
00000100
00000000
00010000
00000000
,
00001000
00010000
00001000
00010000
00001000
00000000
01000000
00000000
00010000
00000000
00100000
00000000
01000000
10000000
00000000
00000000
,
20100000
00000000
30010000
10000000
00100000
01000000
00010000
00100000
,
00210000
00000000
00301000
00100000
00010000
00100000
00001000
00010000
,
00021000
00000000
00030100
00001000
00000010
00000100
00000001
00000010
,
00000012
00000000
00000103
00000010
00001000
00000100
00000001
00000100
,
00000220
00000330
00002002
00003003
;

//--------------- dance-double - OrangeRight ----------------
#NOTES:
     dance-double:
     OrangeRight:
     Challenge:
     15:
     0,0,0,0,0:
00000000
00000000
00000000
00000000
,
00000000
00000000
00000000
00000000
,
00000000
00000000
00000000
00000000
,
00000000
00000000
00000000
00000000
,
00000000
00000000
00000000
00000000
,
01000000
00000000
10000000
00000000
00010000
00000000
01000000
00000000
00001000
00000000
00010000
00000200
00000000
00000000
00000300
00001000
,
00000001
00000100
00000001
00000100
00000010
00001000
00000010
00001000
00000100
00010000
00000000
00010000
00001000
00100000
00000000
00000000
,
00010000
00000000
00100000
00000000
10000000
00000000
00100000
00000000
00010000
00000000
01000000
00000000
00100000
00000000
10000000
01000000
,
00100000
00010000
00100000
00010000
01000000
00001000
01000000
00001000
00010000
00000000
00000100
00000000
00010000
00000000
00001000
00010000
,
00001000
00100000
00001000
01000000
00010000
10000000
00000000
10000000
00100000
00000000
10000000
00000000
00010000
01000000
00010000
00000000
,
10000000
00100000
10000000
00100000
01000000
00010000
01000000
00010000
00100000
00001000
00000000
00001000
00010000
00000100
00000000
00000000
,
00001000
00000000
00000010
00000000
00000001
00000000
00000010
00000000
00001000
00000000
00000100
00000000
00000010
00000000
00000001
00000010
,
00000100
00001000
00000100
00001000
00000010
00010000
00000010
00010000
00001000
00000000
00100000
00000000
00001000
00000000
00010000
00001000
,
00010000
00000100
00010000
00000010
00001000
00000001
00000000
00000001
00000100
00000010
00000100
00000000
00000001
00001000
00000001
00000000
,
00001000
00000000
00000001
00000000
00000000
00000100
00000000
00000000
00000010
00000000
00000000
00001000
00000000
00000000
00000100
00000000
,
00010000
00000000
00001000
00000000
00000000
01000000
00000000
00000000
00010000
00000000
00100000
00000000
00000000
01000000
00000000
00000000
,
10000000
00000000
00010000
00000000
00000000
01000000
00000000
00000000
00001000
00000000
00000000
00010000
00000000
00000000
00000100
00000000
,
00010000
00000000
00001000
00000000
00100000
00000000
00010000
00000000
02000000
00000000
00000000
00000000
03100000
01000000
00000000
01000000
,
00100000
10000000
00100000
10000000
00010000
01000000
00010000
01000000
00010000
00100000
00000000
00100000
00001000
00010000
00000000
00000000
,
00001000
00000000
00010000
00000000
00000100
00000000
00001000
00000000
00000010
00000000
00000001
00000000
00000010
00000000
00001000
00000100
,
00000010
00000001
00000010
00000100
00000010
00000001
00000100
00000010
00001000
00000000
00000010
00000000
00010000
00000000
00001000
00100000
,
00010000
00100000
00001000
00010000
00000100
00001000
00000000
00001000
00000010
00000000
00000100
00000000
00000001
00001000
00000001
00000000
,
00000100
00000001
00000100
00000001
00001000
00000010
00001000
00000010
00001000
00000100
00000000
00000100
00010000
00001000
00000000
00000000
,
00010000
00000000
00001000
00000000
01000000
00000000
00010000
00000000
00100000
00000000
10000000
00000000
00100000
00000000
00010000
01000000
,
00100000
10000000
01000000
00100000
01000000
10000000
00100000
01000000
00010000
00000000
00100000
00000000
00001000
00000000
00010000
00000100
,
00001000
00000010
00010000
00001000
00100000
00010000
00000000
00010000
01000000
00100000
01000000
00000000
00010000
10000000
00010000
00000000
,
20020000
00000000
00000000
00000000
30030000
00000000
00000000
00000000
10000000
00010000
01000000
00000000
00001000
00000000
00000000
00000000
,
00202000
00000000
00000000
00000000
00303000
00000000
00000000
00000000
00100000
00001000
00010000
00000000
00000100
00000000
00010000
00001000
,
00010000
00000000
00001000
00010000
00001000
00000000
00010000
00000100
00010000
00000000
00000100
00001000
00000100
00000000
00000010
00000001
,
00000100
00000010
00001000
00000001
00000100
00000000
00000010
00000100
00000000
00000100
00000010
00000000
00001000
00000000
00000001
00000000
,
00001001
00000000
00000001
00000000
00000100
00000000
00001000
00000000
00010000
00000000
01000000
00000000
10000000
00010000
00000000
00000000
,
10010000
00000000
10000000
00000000
00100000
00000000
00010000
00000000
00001000
00000000
00000010
00000000
00000001
00001000
00000000
00000000
,
00001001
00000000
00000001
00000000
00000010
00000000
00001000
00000000
00010000
00000000
00100000
00000000
10000000
00010000
00000000
00000000
,
10000000
01000000
00100000
01000000
10000000
00000000
00100000
01000000
00000000
01000000
00010000
00000000
10000000
00000000
00010000
00000000
,
10020000
00000000
10000000
00000000
01030000
00000000
00100000
00000000
10000000
01000000
00100000
00000000
00010000
10000000
00000000
00000000
,
20010000
00000000
00010000
00000000
31000000
00000000
00100000
00000000
00010000
01000000
00100000
00000000
01000000
00010000
00000000
00000000
,
02010000
00000000
00010000
00000000
03001000
00000000
00010000
00000000
00000100
00010000
00000100
00000000
00001000
00000100
00000000
00000000
,
00001200
00000000
00001000
00000000
00000310
00000000
00000001
00000000
00000100
00000010
00001000
00000000
00000001
00001000
00000000
00000000
,
00002001
00000000
00000001
00000000
00003010
00000000
00000100
00000000
00000001
00000010
00000100
00000000
00001000
00000001
00000000
00000000
,
00001002
00000000
00001000
00000000
00000013
00000000
00000100
00000000
00001000
00000010
00000100
00000000
00000010
00001000
00000000
00000000
,
00001020
00000000
00001000
00000000
00010030
00000000
00001000
00000000
00100000
00010000
01000000
00000000
00010000
10000000
00000000
00000000
,
00100000
10000000
00100000
01000000
00010000
00000000
01000000
00010000
00100000
00001000
00000000
00010000
00000000
00000100
00001000
00000000
,
00000010
00000100
00000000
00000000
00000001
00000100
00000010
00001000
00000002
00000000
00001000
00000000
00001003
00000000
00000000
00000000
,
00000001
00000100
00000010
00001000
00000100
00010000
00001000
00010000
00000010
00001000
00000000
00001000
00000001
00000010
00000000
00000000
,
00000001
00000000
00000010
00000000
00001000
00000000
00000010
00000000
00000001
00000000
00000100
00000000
00000010
00000000
00001000
00000010
,
00010000
00001000
00100000
00001000
00010000
00000100
00010000
00001000
01000000
00000000
00001000
00000000
00010000
00000000
00001000
00100000
,
00001000
00010000
00000100
00010000
00001000
01000000
00010000
00100000
01000000
00000000
10000000
00000000
00010000
01000000
00010000
00000000
,
10000000
01000000
00100000
00010000
01000000
00001000
00010000
00001000
00100000
00010000
00000000
00010000
10000000
00100000
00000000
00000000
,
10000000
00000000
00100000
00000000
00010000
00000000
00100000
00000000
01000000
00000000
00100000
00000000
10000000
00000000
00010000
00100000
,
00001000
00010000
00000010
00010000
00001000
01000000
00001000
00010000
00000100
00000000
00010000
00000000
00001000
00000000
00010000
00000010
,
00010000
00001000
01000000
00001000
00010000
00000100
00001000
00000001
00000020
00000000
00000100
00000000
00000130
00000000
00000010
00000001
,
00001000
00000010
00000001
00000010
00001000
00000100
00000010
00000001
00000100
00000010
00000000
00000010
00001000
00000100
00000000
00000000
,
00000100
00000000
00010000
00000000
00001000
00000000
00100000
00000000
00010000
00000000
01000000
00000000
00100000
00000000
10000000
00010000
,
00100000
00001000
00100000
00010000
10000000
00100000
00010000
00100000
10000000
00000000
00010000
00000000
01000000
00000000
00001000
00010000
,
01000000
00010000
00001000
00000100
00001000
00010000
00000000
01000000
10000000
00000000
00100000
00000000
01000000
00010000
01000000
00000000
,
00010000
01000000
10000000
01000000
00010000
00100000
01000000
10000000
00010000
01000000
00000000
01000000
00100000
10000000
00000000
00000000
,
10000000
00000000
00010000
00000000
01000000
00000000
00001000
00000000
00010000
00000000
00000100
00000000
00001000
00000000
00000100
00010000
,
00001000
00010000
00100000
00010000
00001000
00000010
00001000
00010000
01000000
00000000
00010000
00000000
00001000
00000000
00010000
01000000
,
10000000
00100000
00010000
00100000
10000000
01000000
00100000
00010000
01000000
00100000
10000000
01000000
00010000
01000000
10000000
00000000
,
10020000
00000000
10000000
00000000
10030000
01000000
00000000
01000000
00100000
00000000
00100000
00010000
00000000
00010000
01000000
00000000
,
02010000
00000000
00010000
00000000
03010000
00100000
00000000
00100000
00001000
00000000
00010000
00000000
00000100
00001000
00000000
00000000
,
00002100
00000000
00000100
00000000
00003100
00000010
00000000
00000010
00000001
00000000
00000001
00000100
00000000
00000100
00000010
00000000
,
00000120
00000000
00000100
00000000
00001030
00000100
00000000
00010000
00000000
00001000
01000000
00000000
00010000
01000000
00100000
10000000
,
00020000
00000000
10000000
00000000
10030000
01000000
00100000
00000000
02200000
00000000
00000000
00000000
03300000
00000000
00000000
00000000
;
