#TITLE:On The Floor Tonight;
#SUBTITLE:;
#ARTIST:Smashtrax;
#TITLETRANSLIT:;
#SUBTITLETRANSLIT:;
#ARTISTTRANSLIT:;
#GENRE:;
#CREDIT:;
#MUSIC:38. On The Floor Tonight.mp3;
#BANNER:;
#BACKGROUND:;
#CDTITLE:;
#SAMPLESTART:96.073;
#SAMPLELENGTH:10.667;
#SELECTABLE:YES;
#OFFSET:2.594;
#BPMS:0.000=90.000;
#STOPS:;
#BGCHANGES:;
#FGCHANGES:;

//--------------- dance-single - aboutblank ----------------
#NOTES:
     dance-single:
     aboutblank:
     Beginner:
     4:
     0,0,0,0,0:
0000
0000
0000
0000
,
0000
0000
0000
0000
,
0000
0000
0000
0000
,
0000
0000
0000
0000
,
0000
0000
0000
0000
,
1000
1000
0100
0000
,
0001
0001
0100
0000
,
1000
1000
0010
0000
,
0001
0001
0010
0000
,
1000
1000
0001
0000
,
0001
0001
1000
0000
,
0010
0000
0010
0000
,
0010
0010
0010
0000
,
1000
0001
0010
0010
,
0001
1000
0010
0010
,
1000
0001
0100
0100
,
0001
1000
0100
0000
,
1000
0100
0010
0110
,
0001
0100
0010
0110
,
1001
0000
1000
0001
,
0100
0100
0010
0010
,
1000
0010
1000
0000
,
0001
0100
0001
0000
,
1000
0100
1000
0100
,
0010
0001
0000
0000
,
0100
0100
0010
0010
,
1000
1000
0001
0000
,
0001
0001
0010
0010
,
0100
0100
1000
0000
,
0010
1000
0001
0100
,
0010
1000
0001
0000
,
0100
0001
1000
0010
,
0100
0001
1000
0000
,
0001
0010
0100
1000
,
0100
0001
0100
0000
,
0010
0000
0010
0000
,
0010
0010
0010
0000
,
0001
0001
0001
0000
,
1000
1000
1000
0000
,
0001
0001
0001
0000
,
1000
0010
0001
0010
,
1000
1000
0100
0000
,
0001
0001
0100
0000
,
1000
1000
0010
0000
,
0110
1001
0000
0000
;

//--------------- dance-single - aboutblank ----------------
#NOTES:
     dance-single:
     aboutblank:
     Easy:
     7:
     0,0,0,0,0:
0000
0000
0000
0000
,
0000
0000
0000
0000
,
0000
0000
0000
0000
,
0000
0000
0000
0000
,
0000
0000
0000
0000
,
0001
1000
0100
0100
,
0010
0001
0200
0310
,
0001
0010
1000
0100
,
0010
0000
0001
0000
1000
0100
0001
0000
,
0100
0100
0010
0010
,
0001
1000
0001
0000
,
0010
0010
0010
0010
,
0010
0010
1001
0000
,
1000
0010
0100
0000
0100
0000
0001
0000
,
1000
0001
0010
0000
0010
0000
0010
0000
,
0001
0100
1000
0000
0100
0000
0100
0000
,
0010
1000
0100
0000
0000
0000
0000
0000
,
1000
0100
0010
0000
0010
0000
0001
0000
,
1000
0001
0010
0000
0010
0000
0100
0000
,
1000
0100
0001
0000
0001
0100
1000
0000
,
1000
0000
0010
0000
0100
0001
0100
0000
,
0010
0000
1000
0000
0001
0010
0100
0000
,
0010
0000
0001
0000
1000
0010
0100
0000
,
1000
0000
0100
0000
0001
0100
0010
0000
,
1000
0001
0010
0010
,
0100
0100
1000
1000
0100
0010
0001
0000
,
0100
0001
0100
0000
0010
1000
0010
0000
,
0000
1000
0100
0001
0100
1000
0000
0001
,
0100
0000
1000
0100
0001
0000
0101
0000
,
1000
1000
0010
0010
,
0100
0001
0010
0000
0200
0000
1300
0000
,
0001
0000
0010
0000
0100
1000
0100
0000
,
0010
0000
0001
0000
2000
0001
3001
0000
,
1000
0001
0100
0000
0010
0000
1000
0000
,
0001
0010
0100
0000
1000
0000
1001
0000
,
0010
1001
0010
1001
,
0010
1001
0010
0100
,
1000
0100
1000
0000
0010
0000
0010
0000
,
0100
0001
0100
0000
0010
0000
0010
0000
,
1000
0100
1000
0000
0010
0000
0010
0100
,
1000
0100
0001
0000
0000
0000
0000
0000
,
0001
0010
0100
0000
0010
0000
1001
0000
,
1000
0010
0100
0000
0010
0000
1001
0000
,
0001
0100
0010
0000
0100
0000
1001
1000
,
0100
0001
0100
0000
0000
0000
0000
0000
;

//--------------- dance-single - aboutblank ----------------
#NOTES:
     dance-single:
     aboutblank:
     Medium:
     9:
     0,0,0,0,0:
0000
0000
0000
0000
,
0000
0000
0000
0000
,
0000
0000
0000
0000
,
0000
0000
0000
0000
,
0000
0000
0000
0000
,
0001
0000
1000
0000
0100
0001
0100
0000
,
0010
0001
0100
0000
2000
0000
3100
0000
,
1000
0100
0010
0000
1000
0001
0010
0000
,
0010
0100
1000
0000
0002
0000
0013
0000
,
0001
1000
0100
1000
0001
1000
0100
0000
,
0010
0001
1000
0000
0010
0100
0001
0000
,
0010
0010
0010
0010
,
0010
0010
0110
0000
,
0100
1000
0001
0000
0100
1000
0001
0000
,
0100
0001
1000
0000
0100
0001
1000
0000
,
0010
1000
0100
0000
0010
1000
0100
0000
,
0010
0001
0100
0000
0000
0000
0000
0000
,
0001
0010
0100
0000
0011
0000
1100
0000
,
1000
0010
0100
0000
1010
0000
0101
0000
,
1000
0001
1001
0000
0001
0010
1000
0010
,
0001
0100
0010
0000
1000
0010
0001
0010
,
1000
0100
0010
0000
0001
0100
0010
0000
,
1000
0100
0010
0000
0001
0100
0010
0000
,
1000
0001
0100
0000
1000
0100
0001
0010
,
1000
0010
0001
0000
1000
0001
0100
0000
,
0010
0010
1000
1000
0001
0010
0100
0000
,
1000
1000
0100
0100
0010
0001
1000
0000
,
0001
0010
1000
0010
0001
1000
0000
1000
,
0010
0100
1000
0001
0010
0100
0001
0000
,
1000
0100
0010
0000
0001
1000
0010
0000
,
0100
0001
0100
0010
2000
0000
3001
0000
,
1000
0001
0010
0000
0100
1000
0001
0000
,
0001
0100
0010
1000
0020
0000
0130
0000
,
0001
0010
1000
0010
0001
1000
0010
0001
,
1000
0100
0001
0010
0100
0000
1000
0000
,
0010
0010
0010
0010
,
0010
0000
0010
0010
0010
0000
1001
0000
,
0001
1000
0100
1000
0100
0010
0100
0000
,
1000
0010
0100
0001
0010
0100
0010
0000
,
0001
1000
0001
0100
0010
1000
0010
0000
,
1000
0010
0001
0000
1000
0100
0001
0000
,
0001
0001
1000
1000
0010
0100
0010
0000
,
1000
1000
0001
0001
0100
0010
0100
0000
,
0001
0010
0100
1000
0010
0100
0001
0010
,
0001
0100
0001
0000
0000
0000
0000
0000
;

//--------------- dance-single - aboutblank ----------------
#NOTES:
     dance-single:
     aboutblank:
     Hard:
     12:
     0,0,0,0,0:
0000
0000
0000
0000
,
0000
0000
0000
0000
,
0000
0000
0000
0000
,
0000
0000
0000
0000
,
0000
0000
0000
0000
,
1000
0000
1000
0010
1000
0000
1000
0000
0001
0000
0001
0100
0001
0000
0001
0000
,
0100
0000
0100
0010
0100
0000
0100
0000
0001
1000
0100
0001
0100
0000
0010
0000
,
0001
0000
0001
0010
0001
0000
0001
0000
0100
0000
0100
0010
0100
0000
0100
0000
,
0010
0000
0010
1000
0010
0000
0010
0000
0200
0000
1000
0000
0010
0000
0301
0000
,
1000
0000
1000
0100
0010
0000
0100
0000
1000
0000
0010
0100
0001
0000
1000
0000
,
0001
0100
0001
0000
1000
0100
1000
0000
0002
0000
0010
0000
1000
0000
0013
0000
,
0010
0000
0010
0100
1000
0000
0010
0100
0001
0000
0010
0100
1000
0000
0001
0100
,
0010
0000
1000
0100
0010
0000
0001
0100
0010
0000
0010
0000
1001
0000
1000
0000
,
0100
0000
0100
0010
0100
0000
0100
0000
1000
0000
0100
0000
0001
0000
0100
0000
,
0010
0000
0010
0001
0010
0000
0010
0000
1000
0000
0010
0000
0001
0000
0000
0000
,
1000
0000
1000
0010
1000
0000
1000
0000
0100
0000
0001
0000
0100
0000
1000
0000
,
0001
0000
0001
0100
0001
0000
0001
0000
1001
0000
0000
0000
0000
0000
0000
0000
,
1000
0000
0010
0100
0010
0000
0001
0000
0010
0000
1000
0000
0100
0000
0001
0000
,
0100
0000
0100
0010
0100
0000
0010
0000
0001
0000
1000
0000
0001
0000
0000
0000
,
0100
0000
0001
0010
1000
0000
0000
0000
0010
0000
0100
0010
0100
0000
0100
0000
,
1000
0000
0010
0100
0010
0000
0010
0000
1000
0000
0010
0000
0001
0000
0010
0000
,
1000
0000
0100
0000
0101
0000
0000
0000
0001
0000
0100
0000
1000
0000
0010
0100
,
0010
0000
1000
0000
1001
0000
0000
0000
0100
0000
0001
1000
0001
0000
0100
0000
,
1000
0000
0100
0000
1001
0000
0000
0000
0010
0000
0001
0100
0001
0000
0010
0000
,
0010
0100
0100
0000
0001
1000
0100
0001
,
0100
0000
0100
0010
0100
0000
0100
0000
0010
0000
0010
0100
0010
0000
0000
0000
,
0001
0000
0001
1000
0001
0000
0001
0000
1000
0000
1000
0001
1000
0000
0000
0000
,
0100
0000
0100
0010
0001
0000
0100
0010
1000
0000
1001
0000
0000
0000
0001
0000
,
1000
0100
0001
0010
1000
0110
1001
0000
,
0001
0000
0001
0010
0001
0000
0001
0100
0001
0000
0001
0000
1000
0000
0100
0000
,
0001
0000
0100
0010
0100
0000
0100
0010
0002
0000
1000
0000
1000
0003
0000
0000
,
1000
0000
1000
0010
1000
0000
1000
0100
1000
0000
0010
0000
0001
0000
0010
0000
,
1000
0000
1000
0100
0010
0000
0001
0000
0200
0000
0001
0000
0010
0000
1300
0000
,
0100
0000
0100
0010
0100
0000
0001
0010
0001
0000
1000
0000
0100
0000
0010
0000
,
0001
0000
1000
0001
1000
0000
0001
0100
0002
0000
0010
0000
1000
0000
0013
0000
,
0010
0000
0010
0001
0100
0000
0010
1000
0100
0000
0010
0001
0100
0000
0001
1000
,
0010
0000
1000
0001
0010
0000
0001
1000
0010
0000
0110
0000
1001
0000
0000
0000
,
1000
0000
1000
0100
0010
0000
0010
0000
0001
0000
0001
0100
0010
0000
0010
0000
,
1000
0000
1000
0100
0010
0000
0010
0000
0001
0000
0001
1000
0001
0000
0000
0000
,
1000
0000
1000
0010
0100
0000
0001
0010
0100
0000
1000
0001
0000
0000
1100
0000
,
0001
0000
0101
0000
1000
0000
0000
0000
0001
1000
0010
1000
0001
0000
0100
0000
,
1010
0000
0001
1000
0100
0000
0001
0000
1000
0000
0010
0000
0001
0000
0000
0000
,
1001
0000
1000
0001
0100
0000
1000
0000
0001
0000
0010
0000
1000
0000
0100
0000
,
0100
0000
0010
0001
0100
0000
1000
0000
0001
0000
0010
0000
1000
0000
0100
0000
,
0001
0100
1000
0000
0000
0000
0000
0000
;
