#TITLE:Oh My Baby;
#SUBTITLE:;
#ARTIST:Studio Bongo Mango feat. MAYUKI;
#TITLETRANSLIT:;
#SUBTITLETRANSLIT:;
#ARTISTTRANSLIT:;
#GENRE:;
#CREDIT:;
#MUSIC:Oh My Baby.mp3;
#BANNER:;
#BACKGROUND:;
#CDTITLE:;
#SAMPLESTART:3.563;
#SAMPLELENGTH:12.000;
#SELECTABLE:YES;
#OFFSET:-0.072;
#BPMS:0.000=135.022;
#STOPS:;
#BGCHANGES:;
#FGCHANGES:;

//--------------- dance-single - Nezemarth ----------------
#NOTES:
     dance-single:
     Nezemarth:
     Beginner:
     2:
     0,0,0,0,0:
0000
0000
0000
0000
,
0000
0000
0000
0000
,
0000
0000
0000
0000
,
0000
0000
0000
0000
,
0000
0000
0000
0000
,
0000
0000
0000
0000
,
1000
0000
0000
0000
,
1001
0000
0000
0000
,
0001
0000
0000
0000
,
1001
0000
1001
0000
,
1000
0000
0000
0000
,
1000
0000
0000
0000
,
1000
0000
0000
0000
,
0100
0000
0010
0000
,
0001
0001
0001
0000
,
0100
0000
0010
0000
,
1000
1000
1000
0000
,
0100
0000
0010
0000
,
1001
0000
0000
0000
,
1000
0000
0010
0000
,
0100
0000
0000
0000
,
0000
0000
0001
0001
,
1001
0000
0000
0000
,
1000
0000
0100
0000
,
0010
0000
0000
0000
,
0001
0000
0001
0000
,
1001
0000
0000
0000
,
0110
0000
0000
0000
,
0001
0000
0000
0000
,
1001
0000
1010
0000
,
1001
0000
0000
0000
,
0110
0000
0000
0000
,
0001
0000
0000
0000
,
1001
0000
0011
0000
,
1001
0000
0000
0000
,
0000
0000
0000
0000
,
1000
0000
0000
0000
,
0001
0000
0000
0000
,
1001
0000
0000
0000
,
0000
0000
0000
0000
,
0001
0000
0000
0000
,
1000
0000
0000
0000
,
1001
0000
0000
0000
,
0000
0000
0000
0000
,
0110
0000
0000
0000
,
1000
0000
0000
0000
,
1000
0000
0000
0000
,
0001
0000
0000
0000
,
1001
0000
0000
0000
,
0001
0000
0010
0000
,
0100
0000
0000
0000
,
1000
0000
1000
1000
,
1001
0001
0000
0001
,
0000
0100
0000
0100
,
0000
0010
0000
0010
,
0000
1001
0000
1001
,
1100
0000
0000
0000
,
1001
0000
0000
0000
,
0101
0000
0000
0000
,
0110
0000
1001
0000
,
1001
0000
0000
0000
,
1100
0000
0000
0000
,
1001
0000
0000
0000
,
0101
0000
1001
1000
;

//--------------- dance-single - Nezemarth ----------------
#NOTES:
     dance-single:
     Nezemarth:
     Easy:
     5:
     0,0,0,0,0:
0000
0000
0000
0000
,
0000
0000
0000
0000
,
0000
0000
0000
0000
,
0000
0000
0000
0000
,
0000
0000
0000
0000
,
0000
0000
0000
0000
,
1001
0000
1000
0001
,
0101
0000
0100
0010
,
1010
0000
1000
0001
,
0011
0000
1010
0000
,
1001
1000
0100
0010
,
0000
0001
0010
0001
,
0000
1000
0010
0100
,
0000
0100
0001
1000
,
1001
1000
1000
0100
,
0000
0010
0001
0100
,
0000
1000
0100
0010
,
1000
0100
0010
0000
,
1001
0000
0000
0000
,
1000
0010
0100
0001
,
1000
0000
0000
0000
,
0000
1000
0100
0010
,
1001
0000
0000
0000
,
1000
0010
0100
0001
,
0010
0000
0000
0000
,
0001
0100
1000
0010
,
1001
0000
0001
0100
,
0110
0000
1000
0100
,
0110
0000
0001
1000
,
1100
0000
0101
0000
,
1001
0000
1000
0001
,
1001
0000
0001
1000
,
1001
0000
1000
0100
,
0011
0000
1010
1000
,
1001
1000
1000
1000
,
0001
0001
0001
0001
,
0100
0010
0100
0100
,
0001
1000
0001
0001
,
0020
0030
0000
0000
0000
0000
0000
0000
,
0100
0000
0000
0100
,
1001
1000
0010
0100
,
0010
0010
1000
0001
,
0020
0030
0000
0000
0000
0000
0000
0000
,
0010
0000
0000
0100
,
1001
0000
0000
0000
,
1000
0000
0100
0000
,
1000
0000
0000
0000
,
0000
0000
0001
0001
,
0101
0000
0000
0000
,
0100
0010
1000
0100
,
0010
0000
0000
0000
,
1000
0100
0001
0010
,
1000
1010
0001
0011
,
1000
1001
0001
1001
,
0100
1010
0100
0011
,
2001
3100
1002
0013
,
1001
0000
1000
0010
,
0101
0000
0001
0010
,
1100
0000
1000
0001
,
1001
0000
0001
0100
,
1010
0000
0011
0000
,
1001
0000
0001
0010
,
1100
0000
1000
0010
,
0101
0000
0000
0000
0001
0000
0020
0030
;

//--------------- dance-single - Nezemarth ----------------
#NOTES:
     dance-single:
     Nezemarth:
     Medium:
     10:
     0,0,0,0,0:
0000
0000
0000
0000
,
0000
0000
0000
0000
,
0000
0000
0000
0000
,
0000
0000
0000
0000
,
0000
0000
0000
0000
,
0000
0000
0000
0000
,
1001
0000
0000
0000
0001
0000
0000
0002
0000
0000
0013
0000
0100
0000
0000
0000
,
1001
0000
0000
0000
1000
0000
0000
1000
0000
0000
0010
0000
0200
0000
0000
0000
,
0301
0000
0000
0000
0010
0000
0000
0010
0000
0000
0100
0000
1000
0000
0000
0000
,
0010
0010
0000
0000
0100
0100
0000
0000
,
1001
0000
1000
0100
1000
0100
0001
0100
,
0000
0000
1000
0001
1000
0001
0100
0100
,
0000
0001
0100
0001
0100
1000
0100
0001
,
0000
1000
0100
1000
0000
0001
0001
0000
,
1001
1000
0001
1000
0001
0100
0010
0010
,
0000
1000
0100
1000
0001
1000
0100
0100
,
0000
0010
0001
1000
0001
0010
0100
1000
,
0000
1000
0001
1000
0000
0000
0000
0000
,
1010
0010
1000
0100
,
0001
0000
0000
0000
0100
0000
0000
0000
0000
1000
0000
0000
0100
0000
0000
0000
,
0010
0001
0100
0010
,
0100
0000
1000
0000
0100
0001
1000
0000
,
1001
0001
0010
0100
,
0010
0000
0000
0000
1000
0000
0000
0000
0000
0010
0000
0000
0001
0000
0000
0000
,
0100
1000
0100
0010
,
1000
0001
0010
0001
0100
0010
1000
0000
,
1001
0000
0000
0000
0001
0000
0000
0010
0000
0000
0010
0000
0100
0000
0000
0000
,
1000
0000
1000
0000
0010
0000
0000
0100
0000
0000
0100
0000
0002
0000
0000
0000
,
0013
0000
0000
0000
0100
0000
0000
0100
0000
0000
1000
0000
0001
0000
0000
0000
,
0100
0100
0010
0000
1000
1000
0100
0000
,
0010
0000
0010
0000
0001
0000
0000
1000
0000
0000
1000
0000
0001
0000
0000
0000
,
0100
0000
0100
0000
0010
0000
0000
1000
0000
0000
1000
0000
0200
0000
0000
0000
,
0310
0000
0010
0000
0001
0000
0000
1000
0000
0000
1000
0000
0010
0000
0100
0000
,
0001
0001
0010
0000
0100
0100
1000
0000
,
1001
1000
0100
0100
,
0001
0001
0100
0100
,
1100
1000
0001
0000
0100
0000
0010
0000
,
0001
0001
0010
0000
0100
0000
0001
0000
,
1100
1000
0100
0000
0010
0000
1000
0000
,
0010
0000
0010
0000
0100
0000
0000
0000
0000
1000
0000
0000
1000
0000
0000
0000
,
1001
0001
0100
0000
0010
0000
0001
0000
,
0010
0010
0100
0000
0001
0000
1000
0000
,
1100
0100
0010
0000
1000
0000
0010
0000
,
0001
0000
0100
0000
0010
0000
0000
0000
0000
1000
0000
0000
1000
0000
0000
0000
,
1001
1000
0100
1000
,
0010
1000
0100
0010
,
0001
0100
1000
0100
,
0001
0000
0010
0000
0100
0100
1000
0000
,
1000
0100
1000
0000
0001
0100
0001
0000
,
0010
0100
0010
0000
0001
1000
0001
0000
,
1000
0010
0100
0000
0001
0010
0100
0000
,
1000
0100
0010
0100
1000
0000
0001
0000
,
1001
1010
0100
0011
,
0100
1001
0100
1001
,
1010
1100
0011
0101
,
0100
0010
0110
0000
0001
1000
1001
0000
,
0011
0000
0000
0000
0010
0000
0000
0100
0000
0000
0100
0000
1000
0000
0001
0000
,
0100
0000
0010
0000
0001
0000
0000
0001
0000
0000
0010
0000
0200
0000
0000
0000
,
0301
0000
0001
0000
0010
0000
0000
0100
0000
0000
0100
0000
0010
0000
0100
0000
,
1000
1000
0001
0000
0100
0100
0010
0000
,
1010
0000
0000
0000
1000
0000
0000
0100
0000
0000
0100
0000
0010
0000
0001
0000
,
1000
0000
0010
0000
0100
0000
0000
0100
0000
0000
1000
0000
0200
0000
0000
0000
,
0301
0000
0000
0000
0010
0000
0000
0010
0000
0000
0100
0000
0001
0000
0100
0000
,
1000
1000
0010
0000
0100
0100
0001
1000
;

//--------------- dance-single - Nezemarth ----------------
#NOTES:
     dance-single:
     Nezemarth:
     Hard:
     13:
     0,0,0,0,0:
0000
0000
0000
0000
,
0000
0000
0000
0000
,
0000
0000
0000
0000
,
0000
0000
0000
0000
,
0000
0000
0000
0000
,
0000
0000
0000
0000
,
1001
0000
0000
0000
0001
0000
0000
0010
0000
0000
0100
0000
0001
0000
0100
0000
,
1100
0000
1000
0000
0010
0000
0000
0100
0000
0000
1000
0000
0200
0000
0300
0000
,
0110
0000
0000
0000
0010
0000
0000
1000
0000
0000
0100
0000
0001
0000
0100
0000
,
0110
0010
0110
0000
1001
0001
1001
0000
,
1010
0010
1000
1000
0100
0100
0001
0100
,
0000
1000
0010
0001
0010
0100
0010
1000
,
0000
1000
0100
0001
0100
1000
0001
0100
,
0000
0000
0100
0000
0010
0000
0100
0000
0000
0000
0100
0000
0001
1000
0001
0000
,
1001
1000
0100
0100
0010
0010
1000
0010
,
0000
0001
0100
0010
0100
1000
0100
0001
,
0000
0010
0100
1000
0100
0001
0100
1000
,
0000
0000
0010
0000
0100
0000
1000
0000
0000
0100
0000
0000
0100
0000
0000
0000
,
2001
0000
0000
0000
0100
0000
0000
0000
0001
0000
0000
0010
0000
3010
0000
0000
,
0010
0000
0000
0000
0010
0000
0100
0000
0000
0100
0000
0000
0001
0000
0000
0000
,
2000
0000
0000
0000
0001
0000
0000
0000
0010
0000
0000
0100
0000
3100
0000
0000
,
1000
0100
0001
0100
0010
0001
0100
0000
,
1002
0000
0000
0000
0100
0000
0000
0000
1000
0000
0000
0010
0000
0013
0001
0000
,
1000
0000
0000
0000
1000
0000
0010
0000
0000
0010
0000
0000
0100
0000
0000
0000
,
0002
0000
0000
0000
1000
0000
0000
0000
0100
0000
0000
0010
0000
0013
0000
0000
,
0001
0000
1000
0010
0000
0010
0100
0000
0001
0000
0001
0000
1000
0000
0000
0000
,
1100
0000
0100
0000
0010
0000
1000
0010
0000
0000
0010
0000
0001
0000
1000
0000
,
1010
0000
0010
0000
0001
0000
0010
0100
0000
0000
0100
0000
0002
0000
0003
0000
,
0101
0000
0001
0000
0010
0000
0100
0001
0000
0000
0100
0000
0010
0000
0001
0000
,
0011
0001
1001
0000
1010
1000
1001
0000
,
1010
0000
0010
0000
0100
0000
1000
0100
0000
0000
0010
0000
1000
0000
0100
0000
,
0110
0000
0010
0000
0001
0000
0100
1000
0000
0000
0100
0000
0020
0000
0030
0000
,
1010
0000
1000
0000
0100
0000
0001
0100
0000
0000
0010
0000
0001
0000
0100
0000
,
0110
0010
1010
0000
1001
0001
0011
0000
,
1001
1000
0100
1000
0001
1000
0100
1000
,
0001
0000
1000
0000
0100
0000
1000
0000
0001
1000
0100
0000
0110
0000
0000
0000
,
1001
0000
0001
0000
0100
0000
0010
0100
0000
0010
1000
0000
0001
0000
0001
0000
,
0010
0000
0100
0000
1000
0000
0010
0100
0000
0001
0100
0000
0010
0000
1000
0000
,
1001
0001
0010
0001
1000
0001
0100
0001
,
1000
0000
1000
0000
0001
0000
0010
0000
0100
1000
0001
0000
1001
0000
0000
0000
,
1001
0000
1001
0000
1000
0000
0100
0010
0000
0001
1000
0000
0001
0000
0000
0000
,
1000
0000
0010
0000
0100
0000
0001
1000
0000
0100
0010
0000
0001
0000
0000
0000
,
1001
1001
0001
0010
0100
1000
0010
1000
,
0100
0000
1000
0001
1000
0001
1000
0000
0100
0010
0100
0000
1000
0000
0000
0000
,
0001
0100
0001
0000
1000
1000
0100
0000
,
0010
0001
0010
0000
0100
0100
1000
0000
,
0010
0100
0001
0000
0001
0010
0100
0000
,
0100
0001
0100
0000
0100
1000
0001
0000
,
1000
0010
1000
0010
0100
0010
0100
0010
,
0001
0010
0001
0010
0100
0010
0100
0010
,
1000
0010
0100
0010
0001
0010
0100
0010
,
1000
0100
0001
0100
1000
0000
0010
0000
,
1010
0001
1001
0000
0010
0001
1001
0000
,
1100
0001
1001
0000
0100
0001
1001
0000
,
1010
0001
0101
0000
0101
1000
1010
0000
,
0110
0100
1001
0000
1001
0001
0110
0000
,
1001
0000
1000
0000
0010
0000
0100
1000
0000
0100
1000
0000
0100
0000
0010
0000
,
1010
0000
1000
0000
0100
0000
0001
0100
0000
0001
0100
0000
0020
0000
0030
0000
,
0011
0000
0001
0000
1000
0000
0010
0100
0000
0010
0100
0000
1000
0000
0100
0000
,
0110
0010
1010
0000
1001
0001
0011
0000
,
0011
0000
0010
0000
0100
0000
0001
0100
0000
0001
0100
0000
0010
0000
0001
0000
,
0011
0000
0001
0000
0100
0000
1000
0100
0000
1000
0100
0000
0020
0000
0030
0000
,
1010
0000
1000
0000
0100
0000
0010
1000
0000
0010
1000
0000
0010
0000
0001
0000
,
0101
0100
0110
0000
0110
1000
1001
0001
;

//--------------- dance-double - Nezemarth ----------------
#NOTES:
     dance-double:
     Nezemarth:
     Easy:
     5:
     0,0,0,0,0:
00000000
00000000
00000000
00000000
,
00000000
00000000
00000000
00000000
,
00000000
00000000
00000000
00000000
,
00000000
00000000
00000000
00000000
,
00000000
00000000
00000000
00000000
,
00000000
00000000
00000000
00000000
,
00011000
00000000
00001000
01000000
,
00010000
00000000
00010000
01000000
,
01001000
00000000
00001000
00010000
,
00011000
00000000
00001100
00000000
,
00001001
00000001
00000100
00000000
,
00000100
00000010
00000100
00000000
,
00000100
00001000
00010000
00000000
,
00001000
00000000
00001000
00010000
,
00001000
00100000
00100000
00010000
,
10000000
00100000
01000000
00001000
,
00010000
00010000
00000100
00001000
,
00000001
00000000
00000001
00000000
,
00001001
00000000
00000000
00000000
,
00000001
00000100
00001000
00010000
,
00001000
00000000
00000000
00000000
,
00000000
00010000
01000000
10000000
,
10010000
00000000
00000000
00000000
,
10000000
00100000
00010000
00001000
,
00010000
00000000
00000000
00000000
,
00010000
00000100
00000001
00000010
,
00001000
00000000
00000001
00000010
,
00000110
00000000
00000100
00010000
,
00011000
00000000
00100000
00010000
,
10010000
00000000
00011000
00000000
,
00001001
00000000
00001000
00000010
,
00000110
00000000
00000100
00001000
,
00011000
00000000
00010000
00100000
,
10010000
00000000
00011000
00000000
,
00001001
00000000
00000001
00000000
,
00000100
00000000
00001000
00000000
,
00010000
01000000
10000000
01000000
,
00010000
01000000
10000000
00100000
,
20020000
30030000
00000000
00000000
00000000
00000000
00000000
00000000
,
00001000
00000000
00000000
00000000
,
00001000
00000100
00000001
00000100
,
00001000
00000100
00000001
00000100
,
00002002
00003003
00000000
00000000
00000000
00000000
00000000
00000000
,
00010000
00000000
00000000
00000000
,
00011000
00000000
00000000
00000000
,
00010000
00000000
01000000
00000000
,
10000000
00000000
01000000
00010000
,
00011000
00000000
00001000
00000000
,
00000100
00000000
00000001
00000000
,
00000010
00000000
00001000
00000000
,
00010000
00000000
01000000
00000000
,
10000000
00100000
00010000
01000000
,
10000000
10100000
00010000
00110000
,
00001000
00011000
00000010
00001010
,
00000001
00000011
00000001
00001001
,
00010000
00011000
10000000
10010000
,
10010000
00000000
00010000
01000000
,
00011000
00000000
00001000
00010000
,
00001100
00000000
00001000
00000001
,
00000101
00000000
00001010
00000000
,
00011000
00000000
00010000
00001000
,
00110000
00000000
00100000
00010000
,
10010000
00000000
00100000
01000000
,
00011000
00000000
00000000
00000000
00000110
00000000
00000001
00001000
;

//--------------- dance-double - Nezemarth ----------------
#NOTES:
     dance-double:
     Nezemarth:
     Medium:
     10:
     0,0,0,0,0:
00000000
00000000
00000000
00000000
,
00000000
00000000
00000000
00000000
,
00000000
00000000
00000000
00000000
,
00000000
00000000
00000000
00000000
,
00000000
00000000
00000000
00000000
,
00000000
00000000
00000000
00000000
,
00010000
00000000
00000000
00000000
00100000
00000000
00000000
10000000
00000000
00000000
10000000
00000000
01000000
00000000
00000000
00000000
,
00010000
00000000
00001000
00000000
00000010
00000000
00000000
00000001
00000000
00000000
00000001
00000000
00000100
00000000
00000000
00000000
,
00001000
00000000
00000000
00000000
00100000
00000000
00000000
01000000
00000000
00000000
01000000
00000000
00010000
00000000
00000000
00000000
,
00001000
00000100
00001000
00000000
00010000
01000000
00010000
00000000
,
00011000
00000000
00000010
00001000
00000010
00001000
00000001
00000100
,
00000000
00001000
00010000
00001000
01000000
00010000
10000000
01000000
,
00000000
10000000
00010000
10000000
00010000
01000000
00100000
01000000
,
00000000
00001000
00010000
00001000
00000000
00001000
00000100
00000000
,
00000001
00000010
00000001
00000010
00000100
00010000
00000100
00001000
,
00000000
00001000
00000100
00010000
00001000
00010000
00100000
01000000
,
00000000
00010000
10000000
01000000
00100000
01000000
10000000
00010000
,
00000000
00000000
00010000
00000000
01000000
00000000
00001000
00000000
00000000
00001000
00000000
00000000
00010000
00000000
00000000
00000000
,
00011000
00010000
01000000
10000000
,
00100000
00010000
00001000
00000100
,
00000001
00000010
00001000
00010000
,
00001000
00000100
00000001
00000000
00010000
01000000
10000000
00000000
,
00011000
00001000
00000010
00000001
,
00000100
00001000
00010000
00100000
,
10000000
01000000
00010000
00001000
,
00010000
01000000
00010000
00001000
00000100
00000000
00001000
00000000
,
00011000
00000000
00000000
00000000
00010000
00000000
00000000
00100000
00000000
00000000
00100000
00000000
10000000
00000000
00010000
00000000
,
00100000
00000000
00100000
00000000
00001000
00000000
00000000
00000010
00000000
00000000
00000001
00000000
00001000
00000000
00000000
00000000
,
00011000
00000000
00000000
00000000
00001000
00000000
00000000
00000010
00000000
00000000
00000010
00000000
00000001
00000000
00000000
00000000
,
00001000
00000010
00000100
00000000
00010000
01000000
00100000
00000000
,
10010000
00000000
00000000
00000000
10000000
00000000
00000000
01000000
00000000
00000000
01000000
00000000
00010000
00000000
00000000
00000000
,
00001000
00000000
00001000
00000000
00000010
00000000
00000000
00000100
00000000
00000000
00000100
00000000
00001000
00000000
00000000
00000000
,
00001001
00000000
00000000
00000000
00000001
00000000
00000000
00000100
00000000
00000000
00000100
00000000
00001000
00000000
00000000
00000000
,
00010000
01000000
00100000
00000000
00001000
00000100
00000010
00000000
,
00001001
00000001
00000100
00001000
,
00010000
01000000
10000000
01000000
,
00010000
00001000
00000100
00000000
00000010
00000010
00001000
00000000
,
00000001
00000010
00000100
00000000
00010000
00010000
00001000
00000000
,
00011000
00010000
01000000
00000000
10000000
00000000
00100000
00000000
,
00010000
00000000
00001000
00000000
00010000
00000000
00000000
00000000
00000000
00001000
00000000
00000000
00011000
00000000
00000000
00000000
,
00010000
01000000
00100000
00000000
01000000
10000000
00010000
00000000
,
01000000
00100000
00010000
00000000
00001000
00010000
00001000
00000000
,
00000100
00000100
00000010
00000000
00001000
00000000
00000001
00000000
,
00000010
00000000
00000100
00000000
00000010
00000000
00000000
00000000
00000000
00001000
00000000
00000000
00001000
00000000
00000000
00000000
,
00011000
00010000
01000000
10000000
,
00100000
00010000
00001000
00000100
,
00000001
00000100
00001000
00010000
,
00100000
10000000
01000000
00010000
,
00011000
00001000
00010000
00000000
00001000
00000010
00001000
00000000
,
00000010
00000001
00000010
00000000
00000001
00000100
00000001
00000000
,
00000100
00001000
00000100
00000000
00001000
00010000
00001000
00000000
,
00010000
01000000
10000000
00100000
00010000
00000000
00001000
00000000
,
00011000
00001010
00000001
00000011
,
00001001
00001010
00010000
00011000
,
00110000
10000000
10100000
00010000
,
00110000
00001000
00010000
00000000
00001010
00010000
00001000
00000000
,
00011000
00000000
00000000
00000000
00010000
00000000
00000000
01000000
00000000
00000000
01000000
00000000
10000000
00000000
00100000
00000000
,
00010000
00000000
00010000
00000000
00001000
00000000
00000000
00000100
00000000
00000000
00000100
00000000
00000001
00000000
00000000
00000000
,
00001001
00000000
00000000
00000000
00000001
00000000
00000000
00000010
00000000
00000000
00000010
00000000
00001000
00000000
00010000
00000000
,
00100000
01000000
00010000
00000000
00000010
00000100
00001000
00000000
,
00001001
00000000
00000000
00000000
00000001
00000000
00000000
00000010
00000000
00000000
00000010
00000000
00001000
00000000
00010000
00000000
,
00100000
00000000
00100000
00000000
10000000
00000000
00000000
01000000
00000000
00000000
01000000
00000000
00010000
00000000
00000000
00000000
,
00011000
00000000
00000000
00000000
00001000
00000000
00000000
00000100
00000000
00000000
00000100
00000000
00000001
00000000
00000010
00000000
,
00001000
00010000
00100000
00000000
00010000
00001000
00000010
00000001
;

//--------------- dance-double - Nezemarth ----------------
#NOTES:
     dance-double:
     Nezemarth:
     Hard:
     12:
     0,0,0,0,0:
00000000
00000000
00000000
00000000
,
00000000
00000000
00000000
00000000
,
00000000
00000000
00000000
00000000
,
00000000
00000000
00000000
00000000
,
00000000
00000000
00000000
00000000
,
00000000
00000000
00000000
00000000
,
00011000
00000000
00000000
00000000
00000010
00000000
00000000
00001000
00000000
00000000
00000001
00000000
00000100
00000000
00001000
00000000
,
00011000
00000000
00011000
00000000
00100000
00000000
00000000
00010000
00000000
00000000
01000000
00000000
00200000
00000000
00300000
00000000
,
10010000
00000000
00000000
00000000
00001000
00000000
00000000
00010000
00000000
00000000
00000010
00000000
00000100
00000000
00000001
00000000
,
00001001
00001001
00000100
00000000
00011000
00011000
00100000
00010000
,
10010000
10000000
00100000
01000000
00001000
00010000
00000100
00000010
,
00000000
00000001
00000100
00001000
00010000
00001000
00000100
00000001
,
00000000
00000001
00000010
00001000
00010000
00000010
00000100
00001000
,
00000000
00000000
00010000
00000000
01000000
00000000
10000000
00000000
00000000
00000000
10000000
00000000
00010000
10000000
00010000
00000000
,
10010000
10000000
00100000
01000000
00001000
00010000
00000100
00000010
,
00000000
00000001
00000010
00001000
00010000
00001000
00000010
00000001
,
00000000
00000001
00000100
00001000
00000100
00000010
00010000
01000000
,
00000000
00000000
01000000
00000000
10000000
00000000
00010000
00000000
00000000
00010000
00001000
00000000
00001000
00000000
00000000
00000000
,
00000011
00000000
00000000
00000001
00000100
00000000
00000000
00000100
00001000
00000000
00000000
00001000
00000000
00010000
00001000
00000000
,
00010000
00000000
00000000
00010000
01000000
00000000
00000000
01000000
10000000
00000000
00000000
10000000
00000000
00100000
10000000
00000000
,
01000000
00000000
00000000
01000000
00010000
00000000
00000000
00010000
00001000
00000000
00000000
00001000
00000000
00000100
00001000
00000000
,
00000100
00000001
00000010
00001000
00010000
01000000
00100000
00000000
,
10010000
00000000
00000000
10000000
00100000
00000000
00000000
00100000
00010000
00000000
00000000
00010000
00000000
00001000
00010000
00000000
,
00001000
00000000
00000000
00001000
00000100
00000000
00000000
00000100
00000001
00000000
00000000
00000001
00000000
00000010
00000001
00000000
,
00000010
00000000
00000000
00000010
00001000
00000000
00000000
00001000
00010000
00000000
00000000
00010000
00000000
00001000
00010000
00000000
,
00001000
00000100
00000001
00000010
00001000
00010000
00001000
00000000
,
00011000
00000000
00000000
00000000
00000010
00000000
00001000
00000001
00000000
00001000
00000001
00000000
00000100
00000000
00000010
00000000
,
00000110
00000000
00000110
00000000
00001000
00000000
00000000
00000100
00000000
00000000
00000010
00000000
00002000
00000000
00003000
00000000
,
00011000
00000000
00000000
00000000
00100000
00000000
00010000
10000000
00000000
00010000
10000000
00000000
00100000
00000000
01000000
00000000
,
01010000
01001000
00001000
00010000
00011000
00010010
00000010
00000000
,
00001001
00000000
00000000
00000000
00010000
00000000
00001000
00010000
00000000
00001000
00010000
00000000
01000000
00000000
00100000
00000000
,
10010000
00000000
10010000
00000000
10000000
00000000
00000000
00100000
00000000
00000000
01000000
00000000
00020000
00000000
00030000
00000000
,
00110000
00000000
00000000
00000000
00001000
00000000
00010000
00001000
00000000
00010000
00001000
00000000
00000100
00000000
00000010
00000000
,
00001010
00010010
00010000
00001000
00011000
00101000
00100000
00000000
,
10010000
00010000
10000000
00000000
00100000
00000000
00010000
00000000
,
00001000
00000000
00000000
00000000
00000100
00000000
00000000
00000000
00000001
00001000
00000000
00001000
00000001
00000000
00000000
00000000
,
00001001
00000000
00001001
00000000
00001000
00000000
00000100
00010000
00000000
00010000
00001000
00000000
00100000
00000000
00100000
00000000
,
00010000
00000000
10000000
00000000
00100000
00000000
01000000
00001000
00000000
00001000
00010000
00000000
00000100
00000000
00000010
00000000
,
00001001
00000101
00000100
00000000
00001000
00000000
00000100
00000000
,
00000001
00000000
00000100
00000000
00001000
00000000
00000000
00000000
00010000
01000000
10000000
00000000
01000000
00000000
00000000
00000000
,
10010000
00000000
11000000
00000000
10000000
00000000
00100000
01000000
00000000
01000000
00001000
00000000
00010000
00000000
00000000
00000000
,
00000100
00000000
00000010
00000000
00000001
00000000
00001000
00000100
00000000
00000010
00001000
00000000
00010000
00000000
00100000
00000000
,
10100000
10010000
00010000
00000000
00100000
00000000
10000000
00000000
,
00100000
00000000
00001000
00010000
00000000
00000010
00001000
00000000
00000001
00000010
00001000
00000000
00010000
00000000
00000000
00000000
,
00011000
00010000
00001000
00010000
00100000
00010000
00100000
10000000
,
00100000
10000000
01000000
10000000
01000000
00010000
01000000
00010000
,
00001000
00000100
00001000
00000100
00000001
00000100
00000001
00000100
,
00001000
00000100
00001000
00010000
00001000
00010000
00001000
00010000
,
01000000
00100000
01000000
10000000
01000000
00100000
01000000
00010000
,
00001000
00000100
00000010
00000100
00000001
00000100
00000010
00000100
,
00001000
00010000
00100000
00010000
00001000
00010000
01000000
00010000
,
00001000
00000100
00000001
00000010
00001000
00000000
00010000
00000000
,
00011000
00001000
00100000
01000000
10000000
00100000
01100000
00000000
,
00011000
00010000
00000100
00000010
00000001
00000100
00000110
00000000
,
00011000
00100000
00110000
00000000
00011000
00000010
00001010
00000000
,
00011000
00100000
10010000
00000000
00011000
00000010
00001001
00000000
,
00000011
00000000
00001000
00000000
00000010
00000000
00010000
00001000
00000000
00010000
00001000
00000000
00100000
00000000
00010000
00000000
,
10010000
00000000
10010000
00000000
00100000
00000000
10000000
00010000
00000000
10000000
00010000
00000000
00200000
00000000
00300000
00000000
,
01100000
00000000
01000000
00000000
10000000
00000000
00010000
10000000
00000000
00010000
10000000
00000000
01000000
00000000
00100000
00000000
,
00110000
00101000
00001000
00000000
00011000
00010010
00000010
00000000
,
00001010
00000000
00001000
00000000
00000001
00000000
00000010
00000100
00000000
00000010
00000100
00000000
00010000
00000000
00001000
00000000
,
00011000
00000000
00011000
00000000
00100000
00000000
00010000
10000000
00000000
00010000
10000000
00000000
00100000
00000000
00000000
00000000
,
01100000
00000000
01000000
00000000
00001000
00000000
00010000
00001000
00000000
00010000
00001000
00000000
00000010
00000000
00000100
00000000
,
00001100
00001001
00000001
00000000
00000101
00001001
00001000
00000010
;
