#VERSION:0.83;
#TITLE:OYASUMI!;
#SUBTITLE:;
#ARTIST:oo39.com;
#TITLETRANSLIT:;
#SUBTITLETRANSLIT:;
#ARTISTTRANSLIT:;
#GENRE:;
#CREDIT:;
#MUSIC:OYASUMI!.mp3;
#BANNER:;
#BACKGROUND:;
#CDTITLE:;
#SAMPLESTART:59.149;
#SAMPLELENGTH:14.769;
#SELECTABLE:YES;
#OFFSET:-0.072;
#BPMS:0.000=130.000;
#STOPS:;
#BGCHANGES:;
#FGCHANGES:;

//--------------- dance-single - eataninja ----------------
#NOTEDATA:;
#STEPSTYPE:dance-single;
#DESCRIPTION:eataninja;
#DIFFICULTY:Beginner;
#METER:3;
#RADARVALUES:0,0,0,0,0;
#NOTES:
0000
0000
0000
0000
,
0000
0000
0000
0000
,
0000
0000
0000
0000
,
0000
0000
0000
0000
,
0000
0000
0000
0000
,
0000
0000
0000
0000
,
0000
0000
0000
0000
,
0000
0000
1000
0000
,
1001
0000
1001
0000
,
0010
0000
0010
0000
,
1001
0000
1001
0000
,
0100
0000
0100
0000
,
0110
0000
0110
0000
,
0001
0000
0001
0000
,
0110
0000
0110
0000
,
1000
0000
1000
0000
,
1001
0000
1001
0000
,
0100
0100
0100
0000
,
1001
0000
1001
0000
,
0010
0010
0010
0000
,
0110
0000
0100
0000
,
0001
0001
0001
0000
,
0010
0000
0100
0000
,
1000
1000
1000
0000
,
0020
0000
0030
1000
,
2000
0000
3000
0001
,
0002
0000
0003
0010
,
0020
0000
0030
0100
,
0200
0000
0300
1000
,
2000
0000
3000
0001
,
0002
0000
0003
0100
,
0200
0000
0300
0000
,
1001
0000
0001
0000
,
1000
1000
0100
0000
,
1000
0000
1000
0000
,
0001
0001
0100
0000
,
1001
0000
0010
0000
,
1000
1000
0010
0000
,
1000
0000
1000
0000
,
0001
0001
0010
0000
,
0100
0000
0100
0000
,
0001
0000
0001
0000
,
0100
0000
0100
0000
,
1000
0000
1000
0000
,
0010
0000
0010
0000
,
0001
0000
0001
0000
,
0010
0000
0010
0000
,
1000
0000
1000
0000
,
0002
0000
0003
0001
,
2000
0000
3000
1000
,
0020
0000
0030
0100
,
0200
0000
0300
0010
,
2000
0000
3000
1000
,
0002
0000
0003
0001
,
0020
0000
0030
0100
,
0200
0000
0300
0000
,
2000
0000
3001
0000
,
0002
0000
0103
0000
,
0020
0000
1030
0000
,
0001
0001
1000
0000
,
0002
0000
1003
0000
,
2000
0000
3100
0000
,
0020
0000
0031
0000
,
1000
1000
0001
0000
,
0200
0000
0000
0000
,
0300
0000
0000
0000
,
0020
0000
0000
0000
,
0030
0000
0000
0000
;

//--------------- dance-single - MEGAtive ----------------
#NOTEDATA:;
#STEPSTYPE:dance-single;
#DESCRIPTION:MEGAtive;
#DIFFICULTY:Easy;
#METER:7;
#RADARVALUES:0,0,0,0,0;
#NOTES:
0000
0000
0000
0000
,
0000
0000
0000
0000
,
0000
0000
0000
0000
,
0000
0000
0000
0000
,
0002
0000
0000
0000
,
0000
0000
0000
0000
,
2003
0000
0000
0000
,
0000
0000
3010
0110
,
1000
0001
1000
0010
,
1000
0001
1000
0000
0100
0000
0010
0000
,
0001
1000
0001
0010
,
0001
1000
0001
0000
0100
0000
0010
0000
,
1000
0001
1000
0100
,
1000
0001
1000
0000
0010
0000
0100
0000
,
0001
1000
0001
0100
,
0001
1000
0001
0000
0010
0000
0100
0000
,
1000
0001
1000
0010
,
1000
0001
1000
0000
0100
0000
0010
0000
,
0001
1000
0001
0010
,
0001
1000
0001
0000
0100
0000
0010
0000
,
1000
0001
1000
0100
,
1000
0001
1000
0000
0010
0000
0100
0000
,
0001
1000
0001
0100
,
0001
1000
0001
0000
0010
0000
0100
0000
,
2000
0000
0000
3020
0000
0130
0001
0000
,
2000
0000
0000
3200
0000
0310
0001
0000
,
2000
0000
0000
3020
0000
0130
0001
0000
,
1000
0000
0100
0010
0000
0010
0100
0000
,
2000
0000
0000
3020
0000
0130
0001
0000
,
2000
0000
0000
3200
0000
0310
0001
0000
,
2000
0000
0000
3020
0000
0130
0001
0000
,
1000
0000
0100
0010
0000
0010
0100
1000
,
0001
0000
0100
0000
0010
1000
0010
0000
,
1000
0000
0100
0000
0010
0001
0010
0000
,
0001
0100
0001
0000
1000
0100
1000
0000
,
0001
0100
0010
0100
0010
0000
1000
0001
,
1000
0000
0100
0000
0010
0001
0010
0000
,
0001
0000
0100
0000
0010
1000
0010
0000
,
1000
0100
1000
0000
0001
0100
0001
0000
,
1000
0100
0010
0100
0010
0000
0001
1000
,
0001
0000
0100
0000
0001
0100
0001
0000
,
1000
0000
0100
0000
1000
0100
1000
0000
,
0001
0000
0010
0000
0001
0010
0001
0000
,
1000
0000
0010
0000
1000
0010
1000
0000
,
0001
0000
0100
0000
0001
0100
0010
0000
,
1000
0000
0100
0000
1000
0100
0010
0000
,
0001
0000
0010
0000
0001
0010
0100
0000
,
1000
0010
1000
0000
0001
0010
0001
0000
,
2000
0000
0000
3020
0000
0130
0001
0000
,
2000
0000
0000
3200
0000
0310
0001
0000
,
2000
0000
0000
3020
0000
0130
0001
0000
,
1000
0000
0100
0010
0000
0010
0100
0000
,
2000
0000
0000
3020
0000
0130
0001
0000
,
2000
0000
0000
3200
0000
0310
0001
0000
,
2000
0000
0000
3020
0000
0130
0001
0000
,
1000
0000
0100
0010
0000
0010
0100
1000
,
0002
0000
0000
0203
0000
0310
1000
0000
,
0002
0000
0000
0023
0000
0130
1000
0000
,
0002
0000
0000
0203
0000
0310
1000
0000
,
0001
0000
0010
0100
0000
0100
0010
0000
,
0002
0000
0000
0203
0000
0310
1000
0000
,
0002
0000
0000
0023
0000
0130
1000
0000
,
0002
0000
0000
0203
0000
0310
1000
0000
,
0001
0000
0010
0100
0000
0100
0010
0000
,
0002
0000
0000
0000
,
0000
0000
0000
0000
,
2003
0000
0000
0000
,
0000
0000
0000
0000
,
3000
0000
0000
0000
;

//--------------- dance-single - MEGAtive ----------------
#NOTEDATA:;
#STEPSTYPE:dance-single;
#DESCRIPTION:MEGAtive;
#DIFFICULTY:Medium;
#METER:9;
#RADARVALUES:0,0,0,0,0;
#NOTES:
0000
0000
0000
0000
,
0000
0000
0000
0000
,
0000
0000
0000
0000
,
0000
0000
0000
0000
,
0002
0000
0000
0000
,
0000
0000
0000
0000
,
2003
0000
0000
0000
,
0000
0000
0000
0000
3010
0100
0001
0000
,
0011
0000
0001
1000
0010
0200
0000
1300
,
0200
0000
0010
0310
0000
1000
0001
0000
,
1000
0000
1000
0001
0010
0200
0000
0301
,
0200
0000
0010
0310
0000
0001
1000
0000
,
0001
0000
0001
1000
0200
0000
0320
0000
,
0032
0000
0100
0100
0000
0100
0000
1000
,
2003
0001
0000
0100
0000
0100
0000
0100
,
3200
0010
0000
1000
0000
1000
1300
0000
,
1001
0000
0001
1000
0010
0200
0000
0310
,
1000
0001
1000
0100
0000
0010
0001
0000
,
1000
0000
1000
0001
0100
0020
0000
0130
,
0001
1000
0001
0010
0000
0100
1000
0000
,
0001
0000
0001
1000
0020
0000
0230
0000
,
0302
0000
0010
0020
0000
0000
0030
1000
,
2003
0010
0000
0010
0000
0010
0000
0010
,
3020
0100
0000
1000
0000
1000
2030
0000
,
3001
0000
0010
0100
0000
0100
0010
0000
,
0001
0000
0100
0010
0000
0010
0100
0001
,
1000
0000
0100
0010
0000
0010
0100
0000
,
1000
0000
0010
0100
1000
0100
0010
0000
,
1000
0000
0100
0010
0000
0010
0100
0000
,
1000
0000
0010
0100
0000
0100
0010
1000
,
0001
0000
0010
0100
0000
0100
0010
0000
,
0001
0000
0100
0010
0001
0010
0100
0001
,
1000
0100
1000
0200
0000
0310
0001
0200
,
0000
0310
1000
0200
0000
0310
0001
1000
,
0001
0100
0001
0200
0000
0310
1000
0100
,
0000
0200
0000
0310
0001
0100
0010
1000
,
0001
0010
0001
0020
0000
0130
1000
0020
,
0000
0130
0001
0020
0000
0130
1000
0001
,
1000
0010
1000
0020
0000
0130
0001
0010
,
0000
0020
0000
0130
1000
0010
0100
0001
,
1000
1000
0001
0000
0100
0010
0100
0000
,
0001
0001
1000
0000
0100
0010
0100
0000
,
1000
1000
0001
0000
0100
0010
0100
0000
,
0001
0001
1000
0000
0100
0010
0100
0000
,
1000
1000
0001
0000
0100
1000
0100
0000
,
0001
0001
1000
0000
0100
0001
0100
0010
,
0001
0001
1000
0000
0010
0001
0010
0000
,
1000
0100
1000
0001
0010
1000
0020
0000
,
0031
0000
0100
0010
0000
0100
0010
0000
,
1000
0000
0100
0010
0000
0100
0010
0001
,
1000
0000
0010
0100
0000
0010
0100
0000
,
0001
0000
0010
0100
0001
0100
0010
0000
,
0001
0000
0010
0100
0000
0010
0100
0000
,
1000
0000
0010
0100
0000
0010
0100
0001
,
1000
0000
0100
0010
0000
0100
0010
0000
,
0001
0000
0100
0010
0001
0010
0100
0001
,
1000
0000
0100
0010
0000
0100
0010
0000
,
0001
0000
0100
0010
0000
0100
0010
1000
,
0001
0000
0010
0100
0000
0010
0100
0000
,
1000
0000
0010
0100
1000
0100
0010
0000
,
1000
0000
0010
0100
0000
0010
0100
0000
,
0001
0000
0010
0100
0000
0010
0100
1000
,
0001
0000
0100
0010
0000
0100
0010
0000
,
1000
0000
0100
0010
1000
0010
0100
0000
,
2000
0000
0000
0000
,
0000
0000
0000
0000
,
3002
0000
0000
0000
,
0000
0000
0000
0000
,
0003
0000
0000
0000
;

//--------------- dance-single - MEGAtive ----------------
#NOTEDATA:;
#STEPSTYPE:dance-single;
#DESCRIPTION:MEGAtive;
#DIFFICULTY:Hard;
#METER:13;
#RADARVALUES:0,0,0,0,0;
#NOTES:
0000
0000
0000
0000
,
0000
0000
0000
0000
,
0000
0000
0000
0000
,
0000
0000
0000
0000
,
0002
0000
0000
0000
,
0203
0000
0000
0000
,
0320
0000
0000
0000
,
2030
0000
0000
0000
0000
0000
0000
0000
3001
0000
0100
0010
0100
0001
1000
0000
,
0100
0100
2000
3020
0030
0002
0000
0023
,
2030
0000
3100
0100
1000
0001
0100
0000
,
0010
0010
2000
3200
0300
0002
0000
0203
,
2300
0000
3010
0010
0100
0002
0023
0030
,
0100
0100
1000
0020
0032
0000
0023
0000
,
2030
0000
3100
0200
0000
0302
0000
0203
,
0310
0020
0030
0002
0000
0023
0000
0032
,
2003
3020
0000
0032
0000
0023
0230
0301
,
0101
0100
0002
0023
0000
2030
0000
3020
,
0230
2300
3002
0203
0310
0010
0100
0001
,
1000
1000
0200
0320
0000
2030
0000
3020
,
0230
2300
3002
0203
0310
0010
0110
0000
,
1000
1000
0001
0020
2030
0000
3020
0100
,
0230
0000
0000
0000
1300
0000
2000
0000
0000
0000
3001
0000
0100
0010
0100
0001
,
1000
0200
0000
0302
0000
0203
0000
1300
,
1000
0020
0030
0002
0000
0023
0230
0320
,
1030
1000
0100
0002
0000
0103
0010
0100
,
1000
1000
0010
0002
0000
0013
0100
0010
,
1000
1000
0100
0002
0000
0103
0010
0100
,
1000
0000
0001
0000
0100
0000
0010
0000
1000
0000
0001
0000
0010
0100
0010
0000
,
0001
0001
0100
2000
0000
3100
0010
0100
,
0001
0001
0010
2000
0000
3010
0100
0010
,
0001
0001
0100
2000
0000
3100
0010
0100
,
0001
0000
1000
0000
0100
0000
0010
0000
0001
0000
1000
0000
0010
1000
0001
0000
,
0010
0010
0010
0020
0000
0031
0100
0020
,
0000
0031
0001
0020
0000
1030
0001
0010
,
0100
0100
0100
0200
0000
1300
0010
0200
,
0000
2300
0000
3100
0010
1000
0001
0010
,
0011
0001
0001
0002
0000
1003
0010
0002
,
0000
0013
0010
2000
0000
3001
0010
0100
,
1000
1000
1000
2000
0000
3001
0100
2000
,
0000
3200
0000
0310
0100
0001
1000
0100
,
1000
0000
0001
0100
0001
0000
0000
0100
0010
0000
1000
0000
1100
0000
0000
0000
,
1000
0000
0001
0010
0001
0000
0000
0010
0100
0000
1000
0000
1000
0010
0100
0010
,
1000
0000
0001
0100
0001
0000
0000
0100
0010
0000
1000
0000
1100
0000
0000
0000
,
1000
0000
0001
0010
0001
0000
0000
0010
0100
0000
1000
0000
1000
0010
0100
0010
,
1000
0000
0100
0010
0100
0000
0000
1000
0001
0000
0001
0010
0100
0000
0000
0000
,
1000
0000
0010
0100
0010
0000
0000
1000
0001
0000
0001
0100
0010
0000
0010
1000
,
0001
0000
0010
0100
0010
0000
0000
0001
1000
0000
1000
0100
0010
0000
0000
0000
,
0001
0000
0100
0010
1000
0000
0001
0010
0100
0000
1000
0010
0200
0000
0000
0000
,
0301
0001
0100
2000
0000
3100
0010
0100
,
0001
0001
0010
2000
0000
3010
0100
0010
,
0001
0001
0100
2000
0000
3100
0010
0100
,
0001
0000
1000
0000
0100
0010
0100
0000
1000
0000
0010
0100
0001
1000
0001
0000
,
1000
1000
0100
0002
0000
0103
0010
0100
,
1000
1000
0010
0002
0000
0013
0100
0010
,
1000
1000
0100
0002
0000
0103
0010
0100
,
1000
0000
0001
0000
0100
0010
0100
0000
0001
0000
0010
0100
1000
0001
1000
0000
,
0001
0001
0100
2000
0000
3100
0010
0100
,
0001
0001
0010
2000
0000
3010
0100
0010
,
0001
0001
0100
2000
0000
3100
0010
0100
,
0001
0000
1000
0000
0100
0010
0100
0000
1000
0000
0010
0100
0001
1000
0001
0000
,
1000
1000
0100
0002
0000
0103
0010
0100
,
1000
1000
0010
0002
0000
0013
0100
0010
,
1000
1000
0100
0002
0000
0103
0010
0100
,
1000
0000
0001
0000
0100
0010
0100
0000
0001
0000
0010
0100
2000
0000
0000
0000
,
3020
0000
0000
0000
,
0000
0000
0000
0000
,
0230
0000
0000
0000
,
0000
0000
0000
0000
,
0300
0000
0000
0000
;
