#TITLE:OVERBLAST!!;
#SUBTITLE:;
#ARTIST:L.E.D. LIGHT;
#TITLETRANSLIT:;
#SUBTITLETRANSLIT:;
#ARTISTTRANSLIT:;
#GENRE:;
#CREDIT:;
#MUSIC:OVERBLAST!!.ogg;
#BANNER:OVERBLAST!!.png;
#BACKGROUND:OVERBLAST!!-bg.png;
#CDTITLE:./CDTITLES/BEATMANIA.PNG;
#SAMPLESTART:27.790;
#SAMPLELENGTH:15.000;
#SELECTABLE:YES;
#OFFSET:0.000;
#BPMS:0.000=147.000;
#STOPS:;
#BGCHANGES:;
#FGCHANGES:;

//--------------- dance-single - KONAMI ----------------
#NOTES:
     dance-single:
     KONAMI:
     Beginner:
     3:
     0,0,0,0,0:
0000
0000
0000
0000
,
0000
0000
0000
0000
,
0000
0000
0000
0000
,
0000
0000
0000
0000
,
0010
0000
0100
0000
,
0001
0000
0000
0000
,
1000
0000
0000
0000
,
0100
0000
0000
0000
,
0010
0000
1001
0000
,
0001
0000
0000
0000
,
0010
0000
0100
0000
,
1000
0000
0000
0000
,
0001
0000
1000
0000
,
0010
0010
0000
0000
,
0100
0100
0000
0000
,
0001
0000
0100
0000
,
1000
0000
0000
0000
,
0110
0000
0000
0000
,
1001
0000
0000
0000
,
0001
0000
1001
0000
,
1000
0000
1001
0000
,
0001
0000
0100
0000
,
1000
0000
0010
0000
,
1000
0000
1001
0000
,
0001
0000
0001
0000
,
0110
0000
0000
0000
,
0001
0000
0100
0000
,
0010
0000
0001
0000
,
0100
0000
0100
0000
,
0001
0000
1000
0000
,
0100
0000
0100
0000
,
1001
0000
0110
0000
,
1001
0000
0000
0000
,
0001
0000
0000
0000
,
1000
0000
0000
0000
,
0010
0000
0000
0000
,
0100
0000
0000
0000
,
0001
0000
0100
0000
,
1000
0000
0000
0000
,
0001
0001
0000
1000
,
0000
0000
0100
0000
,
1001
0000
0000
0001
;

//--------------- dance-single - KONAMI ----------------
#NOTES:
     dance-single:
     KONAMI:
     Easy:
     3:
     0,0,0,0,0:
0000
0000
0000
0000
,
0000
0000
0000
0000
,
0000
0000
0000
0000
,
0000
0000
0000
0000
,
0010
0000
0100
0000
,
0001
0000
0000
0000
,
1000
0000
0000
0000
,
0100
0000
0000
0000
,
0010
0100
1001
0000
,
0002
0000
0003
0000
,
0010
0000
0100
0000
,
2000
0000
3000
0000
,
0001
0000
1000
0000
,
0010
0020
0030
0000
,
0100
0200
0300
0000
,
0001
0000
0100
0000
,
1000
0001
0000
0000
,
0110
0000
0000
0000
,
1001
0000
0000
0000
,
0001
0000
1001
0000
,
1000
0000
1001
0000
,
0001
0000
0100
0000
,
1000
0000
0010
0000
,
1000
0000
1001
0000
,
0001
1000
0001
1000
,
0110
0000
0000
0000
,
0001
1000
0100
0000
,
0010
0000
0001
0000
,
0100
0000
0100
0000
,
0001
0000
1000
0000
,
0100
0000
0100
0000
,
1001
0000
0110
0000
,
2002
0000
0000
3003
,
0001
0000
0000
0000
,
1000
0000
0000
0000
,
0020
0030
0000
0000
,
0200
0300
0000
0000
,
0001
0000
0100
0000
,
1000
0000
0000
0000
,
0001
0001
1000
1000
,
0020
0030
0200
0300
,
1001
0000
0000
0001
,
1000
0000
0000
0000
;

//--------------- dance-single - KONAMI ----------------
#NOTES:
     dance-single:
     KONAMI:
     Medium:
     8:
     0,0,0,0,0:
0000
0000
0000
0000
,
0000
0000
0000
0000
,
0000
0000
0000
0000
,
0000
0000
0000
0000
,
0002
0003
2000
3000
,
0000
0001
1000
0100
,
0001
0010
1000
0001
,
0000
1000
0001
0100
,
0010
0001
1000
1000
,
0020
0000
0000
0030
,
0001
0000
0000
2000
0000
0000
3000
0100
,
0002
0003
1000
0001
,
0010
0000
1000
0002
0000
0000
0003
0000
,
0100
0100
0001
1000
,
0010
0010
1000
0001
,
0200
0300
0020
0030
,
0100
0000
0001
1000
0000
0000
0000
0000
,
0010
1001
0100
1000
,
0001
0110
1000
0100
,
0010
0001
0110
1100
,
0010
1000
0100
0010
,
0001
0000
1001
0000
0010
0100
0001
0000
,
0010
0000
0110
0000
1000
0001
0100
0000
,
0010
1000
0100
0001
,
0010
0000
0010
0001
0100
0000
0010
0000
,
2002
3003
0100
0010
,
0001
0010
1001
0100
,
0010
0000
1000
0000
0001
1000
0100
0000
,
0010
0110
0001
1001
,
0010
0100
1001
0100
,
0001
0010
0100
0000
1000
0001
0100
0000
,
0020
0130
0002
1003
,
1010
1010
0101
0101
,
0220
0000
0000
0330
,
0002
0000
0003
0000
0200
0000
0300
0001
,
2000
3000
0002
0003
,
1000
0010
0001
0100
,
1000
0110
0001
1001
,
0010
1001
0110
0101
,
1000
0001
0010
0000
0001
1000
0100
0000
,
0010
0001
0100
0010
1000
0001
0100
0000
,
2002
0000
0000
0000
3003
0000
0000
0000
0000
0000
0100
0000
0000
0001
0000
0000
,
1000
0000
0000
0000
;

//--------------- dance-single - KONAMI ----------------
#NOTES:
     dance-single:
     KONAMI:
     Hard:
     10:
     0,0,0,0,0:
0000
0000
0000
0000
,
0000
0000
0000
0000
,
0000
0000
0000
0000
,
0000
0000
0000
0000
,
0000
0000
0010
0000
0000
0001
0000
0000
1000
0000
0000
0100
0000
0000
0001
0000
,
1000
0000
0010
0000
1000
0001
0100
0010
,
0000
0000
0001
0000
0001
0100
0010
1000
,
0000
0000
0100
0000
0010
1000
0100
0000
,
0001
0000
0010
1000
0001
0010
0001
1000
,
0200
0000
0000
0300
,
0011
0000
2000
0100
3000
0001
0010
0100
,
1000
0000
0000
0001
0000
0000
0100
0000
0000
0000
0010
0000
0001
0000
0000
0000
,
1010
0000
0002
0200
0000
0000
0303
0000
,
0010
1000
0100
0000
0010
0001
0100
0000
,
0110
1001
1100
1001
,
0100
0010
0100
1000
0010
0001
0100
0000
,
0001
0000
1000
0020
0000
0000
0130
0000
,
0001
1000
0100
0010
0001
1000
0010
0000
,
0001
0000
1000
0000
0000
0100
0000
0000
0010
0000
0000
0000
1100
0000
0000
0000
,
0001
1000
0001
0100
0010
1000
0100
0000
,
0001
0100
0000
0000
0010
0000
0000
0000
1000
0001
0000
0000
0100
0000
0000
0000
,
0010
0000
0100
0000
0001
1000
0000
0000
0200
0000
0000
0000
0310
0000
0000
0000
,
0001
0000
0100
0000
0010
1000
0000
0000
0002
0000
0000
0000
0103
0000
0000
0000
,
0010
0100
0010
0000
1000
0001
0100
0000
,
0010
1000
0100
0010
,
0001
0000
0100
0010
0100
0001
1000
0000
,
0100
0000
0010
0000
0001
0000
1000
0000
0010
0100
0000
0000
0001
0000
0000
0000
,
1000
0100
0010
0000
0001
1000
0010
0000
,
1000
0001
0000
0000
0001
1000
0000
0000
1000
0100
0000
0000
0100
0010
0000
0000
,
0001
0010
0100
1000
0001
0100
0010
0000
,
1000
0001
0000
0000
0001
1000
0000
0000
0010
0000
1000
0000
0100
0000
0000
0000
,
0010
0001
0000
0000
0001
0000
0100
0000
0010
1000
0000
0000
0100
0000
0000
0000
,
0010
0001
0000
0000
0001
1000
0000
0000
1000
0010
0000
0000
0010
0100
0000
0000
,
0220
0000
0000
0330
,
1002
0100
1000
0103
,
2001
3010
0201
0310
,
0001
0010
0001
1000
0010
0100
0001
0000
,
0001
0100
0000
0000
0001
0000
0000
0000
1000
0010
0000
0000
0001
0000
0000
0000
,
0010
0001
0100
0000
0100
1000
0010
0000
,
0010
1000
0010
1000
0001
0100
0001
0000
,
1000
0100
0000
0000
0100
0010
0000
0000
0010
0001
0000
0000
0100
0000
0000
0000
,
0220
0000
0000
0000
0330
0000
0000
0000
0000
0000
0010
0000
0000
1001
0000
0000
,
0100
0000
0000
0000
;

//--------------- dance-single - OrangeRight ----------------
#NOTES:
     dance-single:
     OrangeRight:
     Challenge:
     13:
     0,0,0,0,0:
0000
0000
0000
0000
,
0000
0000
0000
0000
,
0000
0000
0000
0000
,
0000
0000
0000
0000
,
0000
0000
0101
0000
0000
1100
0000
0000
1010
0000
0000
0011
0000
0000
0001
0000
,
1000
0000
0000
0100
1000
0000
0010
0000
0100
0000
0000
0100
0001
0000
1000
0000
,
0001
0000
0010
0000
0100
1000
0000
0000
0010
0000
0000
0100
0001
0000
1000
0000
,
0001
0000
0000
0100
0001
0000
0010
0000
0100
0000
0000
0100
1000
0000
0001
0000
,
1000
0000
0010
0000
0100
0000
0001
0000
1000
0100
1000
0001
0100
0001
1000
0000
,
2001
0000
0000
0000
0100
0000
0000
0100
0000
0000
0010
0000
3001
0000
0000
0000
,
0101
0000
0001
1100
0000
1000
0100
0010
,
1002
0000
0000
0000
0010
0000
0000
0010
0000
0000
0100
0000
1003
0000
0000
0000
,
1010
0000
0000
0000
1000
0000
0011
0000
0000
0000
0101
0000
0000
1010
0000
0000
,
1001
0000
1000
0000
0100
0000
0010
0001
0000
0001
0100
0000
0010
1000
0000
0000
,
0001
0000
0100
0000
0010
1000
0000
0000
1000
0000
0100
0000
0010
0001
0000
0000
,
1001
0000
0001
0000
0100
0000
0010
1000
0000
1000
0100
0000
0010
0100
0000
0000
,
2002
0000
0000
0000
0000
0000
3003
0000
0000
0000
1001
0000
0000
0110
0000
0000
,
1000
0000
0010
0000
0100
0000
0001
0100
0001
0000
1000
0000
1100
0000
0000
0000
,
0001
0000
0010
0000
0100
1000
0000
0000
1000
0000
0010
0000
0100
0001
0000
0000
,
0001
0000
0100
0000
0010
0000
1000
0010
1000
0000
0001
0000
0011
0000
0000
0000
,
1000
0000
0001
0000
0100
0010
0000
0000
1000
0000
0011
0000
0000
1100
0000
0000
,
0001
0000
0100
0000
0010
0000
1000
0010
1000
0000
0001
0000
0011
0000
0000
0000
,
1000
0000
0100
0000
0010
0001
0000
0000
0001
0000
0100
0000
0010
1000
0000
0000
,
1000
0000
0010
0000
0100
0000
0001
0100
0001
0000
1000
0000
1100
0000
0000
0000
,
1000
0001
0000
0000
0001
0100
0000
0000
0100
0010
0000
0000
0010
1000
0010
0000
,
1000
0000
0100
0000
0010
0000
0012
0000
0000
0000
0103
0000
0001
1000
0001
0000
,
1000
0000
0010
0000
0100
0000
0201
0000
0000
0000
0310
0000
0100
0001
0100
0000
,
0001
0000
0010
0000
0100
0000
2100
0000
0000
0000
3010
0000
1000
0001
1000
0000
,
0001
0000
0100
0000
0010
0000
1001
0000
0000
0000
0101
0000
0000
1010
0000
0000
,
1000
0010
1000
0000
0100
0000
1000
0001
1000
0000
0100
0000
0010
0000
0010
0000
,
0001
0100
0001
0000
0010
0000
0001
1000
0001
0000
0010
0000
0100
0000
0100
0000
,
1000
0001
1000
0000
0010
0000
0100
0010
0100
0000
0001
0000
1000
0000
1000
0000
,
0001
0100
0000
0000
0100
0010
0000
0000
0010
1000
0000
0000
0001
1000
0001
0000
,
2001
0000
0000
0001
0000
0000
0001
0000
0010
0000
0000
0010
0000
0000
0100
0000
,
3001
0000
1000
0000
0000
0010
0000
0000
1000
0100
0000
1000
0000
0000
0001
0000
,
1002
0000
0000
1000
0000
0000
1000
0000
0010
0000
0000
0010
0000
0000
0100
0000
,
1003
0000
0001
0000
0000
0010
0000
0000
0001
0100
0000
0010
0000
0000
1000
0000
,
0001
0010
0001
0000
0100
0000
0010
0000
1000
0100
1000
0000
0010
0000
0100
0000
,
0001
0100
0010
0000
1000
0000
0001
0000
1000
0100
0010
0000
0001
0000
1000
0000
,
1001
1000
1010
0010
0110
0100
0101
0001
,
1000
0100
1000
0100
0010
0001
0010
0001
1000
0001
0100
0010
1000
0001
0010
0100
,
2000
0000
0000
0000
0000
0000
3001
0000
0000
0000
1001
0000
0000
0110
0000
0000
,
1001
0000
0000
0000
;

//--------------- dance-double - KONAMI ----------------
#NOTES:
     dance-double:
     KONAMI:
     Easy:
     4:
     0,0,0,0,0:
00000000
00000000
00000000
00000000
,
00000000
00000000
00000000
00000000
,
00000000
00000000
00000000
00000000
,
00000000
00000000
00000000
00000000
,
00000000
00000000
00000000
00000000
,
00000020
00000030
00000000
00000000
,
00000002
00000003
00000000
00000000
,
00000200
00000300
00000000
00000000
,
00001000
00000000
00010000
00000000
,
00011000
00000000
01000000
00000000
,
10000000
00000000
00010000
00000000
,
00100000
00000000
01000000
00000000
,
10000000
00000000
00100000
00000000
,
00010000
00001000
00000010
00000000
,
00000001
00001000
00000100
00000000
,
00000010
00000001
00000100
00000010
,
00001000
00000001
00000100
00000000
,
00001001
00000000
00000010
00000000
,
00000100
00000000
00001000
00000000
,
00010000
00000000
01000000
00000000
,
10000000
00010000
00100000
01000000
,
20020000
30030000
00100000
00000000
,
10000000
00000000
01000000
00000000
,
00010000
00000000
00001000
00000000
,
00000100
00000000
00000001
00001000
,
00000110
00000000
00000001
00001000
,
00000100
00000000
00000010
00000001
,
00001000
00000000
00000001
00000000
,
00000100
00001000
00010000
00001000
,
00011000
00000100
00000010
00000001
,
00000100
00001000
00010000
01000000
,
10000000
00010000
01000000
00100000
,
10000000
10000000
00010000
00010000
,
02200000
03300000
00000000
00000000
,
20000000
30000000
00000000
00000000
,
02000000
03000000
00000000
00000000
,
00020000
00030000
00000000
00000000
,
00011000
00000000
00000100
00000000
,
00000010
00000000
00000001
00000000
,
00000100
00001000
00010000
01000000
,
10000000
00010000
00100000
01000000
,
20020000
30030000
00000000
01100000
,
10010000
00000000
00000000
00000000
;

//--------------- dance-double - KONAMI ----------------
#NOTES:
     dance-double:
     KONAMI:
     Medium:
     6:
     0,0,0,0,0:
00000000
00000000
00000000
00000000
,
00000000
00000000
00000000
00000000
,
00000000
00000000
00000000
00000000
,
00000000
00000000
00000000
00000000
,
00000000
00000000
00000000
00100000
,
10010000
01000000
00000000
01000000
,
00000000
00100000
00000000
00010000
,
00000000
00001000
00000000
00000010
,
00000001
00001000
00000100
00000010
,
00002002
00000000
00000000
00003003
,
00000020
00000000
00000000
00000100
00000030
00000000
00000000
00000000
,
00001001
00000010
00001000
00010000
,
02100000
00000000
00000000
00010000
03000000
00000000
00000000
00000000
,
10010000
00100000
00010000
00001000
,
00000010
00000001
00000100
00000010
,
00001001
00000100
00000001
00000010
,
00001001
00000000
00000100
00010000
00000000
00000000
00000000
00000000
,
01000000
10000000
00100000
00010000
,
00001000
00000010
00000001
00000100
,
00001000
00010000
01000000
10000000
,
00010000
11000000
00010000
11000000
,
00100000
00010000
01000000
00100000
,
10000000
01000000
00010000
00001000
,
00000010
00000001
00000100
00000010
,
00001000
00000101
00001000
00000101
,
00001001
00000010
00000100
00001000
,
00000001
00000100
00001000
00010000
,
00100000
10000000
00010000
01000000
,
00100000
10000000
01000000
00100000
,
00010000
10000000
01000000
00010000
,
00000010
00000100
00000001
00000010
,
00000100
00001000
00000001
00000100
,
00001000
01100000
00010000
01100000
,
10000000
00000000
00010000
00000000
,
00100000
00000000
00000000
00000000
00010000
00000000
00000000
00001000
,
00000100
00000000
00000001
00000000
,
00000010
00000000
00000000
00000000
00000100
00000000
00000000
00001000
,
00000001
00000000
00000100
00000000
,
00000001
00000000
00000010
00000000
,
00001000
00010000
01000000
10000000
,
00010000
01000000
00100000
10000000
,
20020000
00000000
00000000
00000000
30030000
00000000
00000000
00000000
00000000
00000000
01100000
00000000
00000000
10000000
00000000
00000000
,
00010000
00000000
00000000
00000000
;

//--------------- dance-double - KONAMI ----------------
#NOTES:
     dance-double:
     KONAMI:
     Hard:
     10:
     0,0,0,0,0:
00000000
00000000
00000000
00000000
,
00000000
00000000
00000000
00000000
,
00000000
00000000
00000000
00000000
,
00000000
00000000
00000000
00000000
,
00000000
00000000
00000000
00000010
,
00001001
00000000
00000100
00000000
00000010
00000001
00000100
00000000
,
00001001
00000000
00000100
00000000
00000010
00001000
00000100
00000000
,
00000010
00000001
00000100
00001000
,
00010000
01000000
10000000
00100000
01000000
00010000
10000000
00000000
,
20010000
00000000
01000000
30000000
,
10020000
00000000
01000000
00030000
,
00100000
00010000
00001000
00000010
,
00000100
00000000
00001000
00000000
00000001
00000010
00000100
00000000
,
00001001
00000010
00000100
00000001
,
00000010
00000100
00001000
00000000
00000010
00000100
00000001
00000000
,
00001001
00000010
00001000
00010000
,
00100000
10000000
00010000
00100000
01000000
10000000
00010000
00000000
,
01100000
00000000
00010000
00000000
00100000
01000000
10000000
00000000
,
01100000
00000000
10000000
00000000
00100000
01000000
00010000
00000000
,
10000000
01000000
00010000
00000000
00001000
00000100
00000001
00000000
,
00000010
00000100
00001000
00000001
00000100
00000010
00001000
00000000
,
00000101
00001000
00000101
00001000
,
00100000
00010000
01000000
00000000
00100000
10000000
00010000
00000000
,
11000000
00010000
11000000
00010000
,
00101000
00010010
00001100
00000110
,
00001001
00000000
00000010
00000000
00000001
00000100
00001000
00000000
,
00011000
00000000
01000000
00000000
10000000
00100000
00010000
00000000
,
01100000
00000000
10000000
00000000
01000000
00100000
00010000
00000000
,
00001000
00000100
00000001
00000010
00000100
00001000
00000001
00000000
,
00000110
00000000
00000001
00001000
00000100
00000010
00000001
00000000
,
00001100
00000000
00000010
00000001
00000100
00001000
00010000
00000000
,
01010000
00000000
00100000
10000000
00010000
01000000
00100000
00000000
,
10010000
01000000
00100000
00000000
11000000
00000000
01010000
00000000
,
20020000
00000000
00000000
00000000
,
00000000
00000000
00000000
30030000
,
01100000
00000000
00010000
00000000
00001000
00000100
00000002
00000000
,
00000000
00000100
00000100
00000103
,
00001001
00000000
00000010
00000000
00001000
00010000
01000000
00000000
,
10000000
00010000
01000000
00000000
00100000
10000000
00010000
00000000
,
00100000
01000000
10000000
00100000
00010000
00001000
00000010
00000001
,
00001000
00000010
00000100
00000001
00001000
00000100
00000010
00000000
,
00002002
00003003
00000010
00000100
,
00001001
00000000
00000000
00000000
;

//--------------- dance-double - OrangeRight ----------------
#NOTES:
     dance-double:
     OrangeRight:
     Challenge:
     13:
     0,0,0,0,0:
00000000
00000000
00000000
00000000
,
00000000
00000000
00000000
00000000
,
00000000
00000000
00000000
00000000
,
00000000
00000000
00000000
00000000
,
00000000
00000000
10000000
00000000
00000000
01000000
00000000
00000000
00010000
00000000
00000000
00001000
00000000
00000000
00000100
00000000
,
00000001
00000010
00000100
00001000
00000010
00001000
00000100
00000010
,
00000001
00000100
00000010
00000100
00000001
00000010
00000100
00001000
,
00000010
00010000
00001000
00010000
00000100
00010000
00001000
01000000
,
00010000
00000000
01000000
00000000
00100000
00000000
10000000
00000000
00010000
10000000
00010000
00000000
00000000
10000000
00000000
00000000
,
20010000
00000000
00000000
00000000
00100000
00000000
00000000
00100000
00000000
00000000
01000000
00000000
30010000
00000000
00000000
00000000
,
11000000
00000000
10000000
00010000
00000000
00010000
01000000
00001000
,
00021000
00000000
00000000
00000000
00000100
00000000
00000000
00000100
00000000
00000000
00001000
00000000
00030010
00000000
00000000
00000000
,
00001010
00000000
00000000
00000000
00001000
00000000
00000001
00000000
00000000
00000000
00000001
00000000
00000000
00001000
00000000
00000000
,
00000001
00000000
00000100
00000000
00000010
00000000
00001000
00000000
00000100
00000000
00001000
00000000
00000001
00001000
00000000
00000000
,
00001000
00000000
00000010
00000000
00000100
00000000
00000001
00000000
00000010
00000000
00000100
00000000
00001000
00000100
00000000
00000000
,
00000100
00000000
00010000
00000000
00001000
00000000
00100000
00000000
00010000
00000000
01000000
00000000
00100000
01000000
00000000
00000000
,
20020000
00000000
00000000
00000000
00000000
00000000
30030000
00000000
00000000
00000000
10000000
00000000
00000000
00010000
00000000
00000000
,
10000000
00000000
01000000
00000000
00100000
00000000
00010000
00100000
00010000
00000000
01000000
00000000
01010000
00000000
00000000
00000000
,
00010000
00000000
01000000
00000000
00100000
10000000
00000000
00000000
10000000
00000000
01000000
00000000
00100000
00010000
00000000
00000000
,
00100000
00000000
00001000
00000000
00010000
00000000
00000100
00001000
00000100
00000000
00010000
00000000
00011000
00000000
00000000
00000000
,
00010000
00000000
00000100
00000000
00001000
00000010
00000000
00000000
00000100
00000000
00000001
00000000
00000000
00001000
00000000
00000000
,
00000001
00000000
00000010
00000000
00000100
00000000
00001000
00000010
00001000
00000000
00000010
00000000
00001010
00000000
00000000
00000000
,
00001000
00000000
00000010
00000000
00000100
00000001
00000000
00000000
00000001
00000000
00000010
00000000
00000100
00001000
00000000
00000000
,
00000100
00000000
00010000
00000000
00001000
00000000
00100000
00010000
00100000
00000000
00001000
00000000
00011000
00000000
00000000
00000000
,
00010000
00001000
00000000
00000000
00001000
00100000
00000000
00000000
00100000
00010000
00000000
00000000
00010000
10000000
00010000
00000000
,
10010000
00000000
00010000
01000000
00100000
01000000
00001000
00010000
,
00011000
00000000
00010000
00000100
00001000
00000010
00000100
00000001
,
00001001
00000000
00001000
00000010
00000100
00000010
00010000
00001000
,
00011000
00000000
00001000
00101000
00000000
00100000
00010000
01000000
,
00010000
00100000
00010000
00000000
00100000
00000000
00002000
00000000
00000000
00000000
00013000
00000000
00001000
00000000
00010000
00000000
,
00000100
00001000
00000100
00000000
00010000
00000000
00002000
00000000
00000000
00000000
00103000
00000000
00010000
00000000
01000000
00000000
,
00010000
00100000
00010000
00000000
00100000
00000000
00002000
00000000
00000000
00000000
00013000
00000000
00001000
00000000
01000000
00000000
,
00010000
00100000
00000000
00000000
00100000
01000000
00000000
00000000
01000000
10000000
00000000
00000000
00010000
10000000
00010000
00000000
,
01000000
00000000
00000000
01000000
00000000
00000000
00001000
00000000
00010000
00000000
00000000
00010000
00000000
00000000
00000100
00000000
,
00000000
00000000
00001000
00000000
00000000
00000010
00000000
00000000
00000100
00000001
00000000
00000001
00000000
00000000
00001000
00000000
,
00000100
00000000
00000000
00000100
00000000
00000000
00010000
00000000
00001000
00000000
00000000
00001000
00000000
00000000
01000000
00000000
,
00000000
00000000
00010000
00000000
00000000
00100000
00000000
00000000
01000000
10000000
00000000
10000000
00000000
00000000
00010000
00000000
,
00100000
00010000
00100000
00000000
00010000
00000000
01000000
00000000
00001000
00010000
00001000
00000000
00010000
00000000
00000100
00000000
,
00001000
00000010
00001000
00000000
00000100
00000000
00010000
00000000
00001000
00010000
00001000
00000000
00100000
00000000
00010000
00000000
,
00110000
00100000
00101000
00001000
00011000
00010000
00010100
00000100
,
00010000
00001000
00010000
00000000
00000100
00001000
00000100
00000000
00001000
00000001
00001000
00000001
00001000
00000001
00001000
00000000
,
00002002
00000000
00000000
00000000
00000000
00000000
00003003
00000000
00000000
00000000
00000110
00000000
00000000
00001001
00000000
00000000
,
00000110
00000000
00000000
00000000
;
