#TITLE:OUTER LIMITS;
#SUBTITLE:Akira Ishihara remix;
#ARTIST:L.E.D. -G;
#TITLETRANSLIT:;
#SUBTITLETRANSLIT:;
#ARTISTTRANSLIT:;
#GENRE:;
#CREDIT:;
#MUSIC:OUTER LIMITS Akira Ishihara remix.ogg;
#BANNER:OUTER LIMITS Akira Ishihara remix.png;
#BACKGROUND:OUTER LIMITS Akira Ishihara remix-bg.png;
#CDTITLE:./CDTITLES/Song Pack 15.png;
#SAMPLESTART:34.778;
#SAMPLELENGTH:15.000;
#SELECTABLE:YES;
#OFFSET:0.000;
#BPMS:0.000=145.005;
#STOPS:;
#DISPLAYBPM:145.000;
#BGCHANGES:;
#FGCHANGES:;

//--------------- dance-single - SaxxonPike ----------------
#NOTES:
     dance-single:
     SaxxonPike:
     Beginner:
     2:
     0,0,0,0,0:
0000
0000
0000
0000
,
0000
0000
0000
0000
,
0000
0000
0000
0000
,
0000
0000
0000
0000
,
0000
0000
0000
0000
,
1000
0000
1000
0000
,
1000
0000
0000
0000
,
0001
0000
0001
0000
,
0001
0000
0000
0000
,
0010
0000
0010
0000
,
0010
0000
0000
0000
,
0100
0000
0100
0000
,
0200
0000
0000
0300
,
0100
0000
0100
0000
,
1000
0000
0000
0000
,
0001
0000
0001
0000
,
0100
0000
0000
0000
,
0010
0000
0010
0000
,
1000
0000
0000
0000
,
0001
0000
0001
0000
,
0010
0000
0100
0000
,
0110
0000
0010
0000
,
0001
0000
0000
0000
,
0100
0000
0010
0000
,
1000
1000
1000
0000
,
1000
0000
0001
0000
,
0010
0000
0000
0000
,
0100
0000
1000
0000
,
0001
0000
0100
0000
,
0010
0000
0010
0000
,
1000
0000
0000
0000
,
0001
0000
0001
0000
,
0100
0000
0000
0000
,
1000
0000
1000
0000
,
0100
0000
0000
0000
,
0010
0000
0010
0000
,
0001
0000
0001
0000
,
1000
0000
0000
1000
,
1000
0000
0000
0001
,
0001
0000
0000
1000
,
1000
0000
0000
0010
,
0010
0000
0000
0100
,
0100
0000
0000
0010
,
0010
0000
0000
0100
,
0200
0000
0000
0300
,
0100
0000
0001
0000
,
0010
0000
0000
0000
,
0100
0000
1000
0000
,
0010
0010
0010
0000
,
0010
0000
0100
0000
,
0010
0000
0100
0000
,
0001
0000
1000
0000
,
0001
0000
1000
0000
,
0100
0000
0010
0000
,
0100
0000
0010
0000
,
0110
0000
0000
0000
,
1001
0000
0000
0000
,
0001
0000
1000
0000
,
0001
0000
1000
0000
,
0001
0000
0000
0000
,
1000
0000
0000
0000
,
1001
0000
0000
0000
;

//--------------- dance-single - SaxxonPike ----------------
#NOTES:
     dance-single:
     SaxxonPike:
     Easy:
     5:
     0,0,0,0,0:
0000
0000
0000
0000
,
0000
0000
0000
0000
,
0000
0000
0000
0000
,
0000
0000
0000
0000
,
0000
0000
0000
0000
,
1000
0000
1000
0000
,
0001
0000
0001
0000
,
0000
1000
0000
1000
,
0000
0001
0000
0001
,
0010
0000
0010
0000
,
0100
0000
0100
0000
,
0000
0010
0000
0010
,
0000
0100
0000
0100
,
1001
0000
0010
0000
,
0100
0010
0100
0010
,
0001
0000
1000
0000
,
0010
0100
0010
0100
,
0001
0000
1000
0000
,
0100
1000
0100
1000
,
0020
0000
0000
0030
,
0100
0001
1000
0001
,
1001
0000
0010
0100
,
1000
0000
0010
0100
,
0001
0000
0010
0001
,
0100
0000
0010
1000
,
0100
0000
0010
0001
,
1000
0000
0010
1000
,
0001
0000
0100
0001
,
1000
0000
0100
1000
,
0001
1000
0001
0000
,
0100
0010
0100
0000
,
0010
0100
0010
0000
,
1000
0001
1000
0001
,
0010
0100
0010
0000
,
0100
0010
0100
0000
,
1000
0001
1000
0000
,
0001
1000
0001
0000
,
1002
0000
0003
0001
,
0200
0000
0300
0100
,
0020
0000
0030
0010
,
2000
0000
3000
1000
,
0200
0000
0310
0100
,
0020
0000
0031
0010
,
0002
0000
1003
0001
,
2000
0000
0000
3000
,
1001
0000
0010
0100
,
1000
0000
0010
0100
,
0001
0000
0010
0001
,
0100
0100
0010
0010
,
0100
0000
0010
1000
,
0001
0000
0010
0001
,
1000
0000
0100
1000
,
0001
0000
0100
0001
,
1000
0001
1000
0000
,
0100
0010
0100
0000
,
2000
3000
0002
0003
,
1000
0001
1000
0001
,
0010
0100
0010
0000
,
0100
0010
0100
0000
,
2002
0000
0000
0000
,
0000
0000
0000
3003
,
1001
0000
0000
0000
;

//--------------- dance-single - SaxxonPike ----------------
#NOTES:
     dance-single:
     SaxxonPike:
     Medium:
     9:
     0,0,0,0,0:
0000
0000
0000
0000
,
0000
0000
0000
0000
,
0000
0000
0000
0000
,
0000
0000
0000
0000
,
0000
0000
0000
0000
,
1000
0000
0000
1000
0000
0000
0010
0000
,
0100
0000
0000
0100
0000
0000
0000
0000
,
0001
0000
0000
0001
0000
0000
0010
0000
,
0100
0000
0000
0100
0000
0000
1000
0000
,
0001
0000
0000
0001
0000
0000
0100
0000
,
0010
0000
0000
0010
0000
0000
0000
0000
,
1000
0000
0000
1000
0000
0000
0100
0000
,
0010
0000
0001
0000
1000
0100
0010
0000
,
1001
0000
0001
0000
0001
0010
0100
0000
,
1000
0000
1000
0000
1000
0010
0100
0000
,
0001
0000
0001
0000
0001
1000
0100
0000
,
1000
0000
1000
0000
1000
0001
0100
0000
,
0010
0000
0010
0000
1000
0100
0010
0000
,
0100
0000
0100
0000
1000
0010
0100
0000
,
0020
0000
0030
0000
0100
0001
0010
0000
,
0001
0000
1000
0000
0001
1000
0001
0000
,
1001
0001
0000
0001
0100
0000
0100
0010
,
0000
0010
1000
0000
0001
0000
1000
0000
,
0001
1000
0000
1000
0100
0000
0100
0010
,
0001
0101
1010
1100
,
0001
0100
0000
0010
1000
0000
0001
0100
,
0000
0010
1000
0000
0001
0000
1000
0000
,
0100
1000
0000
0001
0010
0000
0100
1000
,
0000
0001
0010
0000
0100
0000
1000
0000
,
1001
0200
0000
0000
0310
0002
0000
0000
,
1003
0200
0000
0000
0310
0002
0000
0000
,
1003
0020
0000
0000
0130
0002
0000
0000
,
1003
0020
0000
0000
0130
0002
0000
0000
,
0013
0000
0100
0000
1000
0001
0010
0000
,
0100
0000
1000
0000
0001
0010
0100
0000
,
1000
0000
0010
0000
0100
0001
1000
0000
,
0010
0000
0100
0000
0001
1000
0010
0000
,
0200
0000
0000
0000
0000
0000
0301
1000
,
0002
0000
0000
0000
0000
0000
0013
0100
,
0020
0000
0000
0000
0000
0000
0130
1000
,
0200
0000
0000
0000
0000
0000
1300
0001
,
0020
0000
0000
0001
0000
0000
0031
1000
,
0020
0000
0000
1000
0000
0000
1030
0001
,
0200
0000
0000
0001
0000
0000
0301
1000
,
0200
0000
0000
0300
,
0100
0000
0010
0000
0001
1000
0100
0000
,
0010
0000
0001
0000
1000
0100
0010
0000
,
0001
0000
0100
0000
0010
1000
0001
0000
,
0100
0010
0100
0020
0000
0000
0030
1000
,
0001
0000
0010
0000
0100
1000
0010
0000
,
0100
0000
0001
0000
0010
0100
1000
0000
,
0010
0000
0100
0000
0001
0010
0100
0000
,
2000
3020
0230
0302
,
1003
0000
0010
0000
0100
0001
1000
0000
,
0100
0000
0010
0000
0001
1000
0010
0000
,
0110
0000
0000
0101
0000
0000
1001
0000
,
1100
0000
0000
0110
0000
0000
0011
0000
,
1000
0000
0010
0000
0100
0001
0100
0000
,
0001
0000
0010
0000
0100
1000
0100
0000
,
0220
0000
0000
0000
,
0000
0000
0000
0330
,
1001
0000
0000
0000
;

//--------------- dance-single - SaxxonPike ----------------
#NOTES:
     dance-single:
     SaxxonPike:
     Hard:
     13:
     0,0,0,0,0:
0000
0000
0000
0000
,
0000
0000
0000
0000
,
0000
0000
0000
0000
,
0000
0000
0000
0000
,
0000
0000
0000
0000
,
1002
0000
0000
0013
0000
0000
0100
0010
,
0100
0000
0001
0100
0000
0000
0001
0000
,
2000
0000
0000
3100
0000
0000
0010
0100
,
0010
0000
0000
0000
0100
0000
1000
0000
0000
0000
0010
0000
1000
0001
1000
0001
,
1000
0000
0010
0100
0000
0010
0100
0001
,
0100
0010
1000
0100
1000
0000
0001
0000
,
1000
0000
0100
0010
0000
0100
1000
0100
,
0010
0000
0001
0000
0100
0001
0000
0001
0010
0000
0100
0000
1000
0000
0000
0000
,
0110
0000
0001
1000
0100
0000
0010
0100
,
1000
0001
0010
0100
0001
0000
0100
0000
,
0110
0000
1000
0001
0100
0000
0010
0100
,
0001
1000
0010
0100
1000
0000
0100
0000
,
1001
0000
0010
0100
0001
0000
1000
0100
,
0010
0001
0100
0010
0001
0000
0010
0000
,
2002
0000
3003
0010
0100
0001
1000
0100
,
0010
0000
0001
0000
1000
0001
0000
0010
0100
1000
0001
0100
0010
0000
0000
0000
,
0110
0000
0100
0001
0010
1000
0001
0100
,
0010
0001
0100
1000
0001
0010
0100
0000
,
0110
0000
0010
1000
0100
0001
1000
0010
,
0101
1100
1010
0011
,
1001
0000
0010
1000
0100
0001
1000
0010
,
0100
1000
0010
0001
1000
0100
0010
1000
,
0010
0001
1000
0001
0010
1000
0001
0100
,
1010
0011
0101
1100
,
0001
0020
0000
0000
1030
0200
0000
0000
,
0310
2000
0000
0000
3010
0002
0000
0000
,
0103
0020
0000
0000
0130
2000
0000
0000
,
3100
0002
0000
0000
1003
0100
1000
0001
,
0100
0001
0020
0000
0130
1000
0020
0000
,
0031
0010
2000
0000
3001
0100
2000
0000
,
3001
0010
0200
0000
0301
0010
0200
0000
,
1300
0000
0001
0000
1000
0000
0010
0100
0000
0100
0010
1000
0001
0000
0000
0000
,
1002
0000
0013
0200
0000
0300
0101
0011
,
0002
0000
0013
0200
0000
0300
1100
1010
,
0020
0000
0130
0002
0000
0003
0011
0101
,
0200
0000
0310
2000
0000
3000
1100
1010
,
2000
0010
3010
0200
0001
0301
0101
0011
,
0002
0010
0013
0200
1000
1300
1100
1010
,
0020
0100
0130
0002
0010
0013
0011
0101
,
0200
0010
0310
2000
0000
0002
0000
3003
,
0001
0100
0010
1000
0001
0100
0010
1000
,
0100
0000
0010
0000
0001
0000
1000
0000
0100
0010
0001
0000
1000
0000
0100
0000
,
1000
0010
0100
0001
1000
0010
0100
0001
,
1001
0000
1001
0000
0110
0000
0110
0000
0000
1010
0000
0000
1000
0000
0001
0000
,
1000
0010
0100
0001
1000
0010
0100
0001
,
0010
0000
0100
0000
1000
0000
0001
0000
0010
0100
1000
0000
0001
0000
0010
0000
,
0001
0100
0010
1000
0001
0100
0010
1000
,
0010
0100
0010
0000
1000
0001
1000
0000
0010
1000
0001
0000
0100
0001
1000
0000
,
0010
1000
0100
0010
1000
0001
0010
0100
,
1000
0001
0100
0010
0001
1000
0100
0010
,
1001
0000
0000
0100
0010
0100
0000
0001
0000
0000
1000
0000
0010
0000
0100
0000
,
0001
0010
0001
0000
0001
0100
0001
0000
1000
0000
0001
0000
1000
0001
1000
0000
,
0001
1000
0010
0001
0100
1000
0100
0010
,
0001
1000
0010
0100
1000
0001
0010
0100
,
2002
0000
0000
3003
,
0001
0000
0000
0000
0000
0000
0000
0000
0001
0000
0000
0000
0000
0000
0000
0010
0000
0000
0000
0000
0000
0000
0000
0000
0100
0000
0000
0000
0000
0000
0000
0000
0100
0000
0000
0000
0000
0000
0000
1000
0000
0000
0000
0000
0000
0000
0000
0000
0010
0000
0000
0000
0000
0000
0000
0000
0010
0000
0000
0000
0000
0000
0000
0100
0000
0000
0000
0000
0000
0000
0000
0000
0002
0000
0000
0000
0000
0000
0000
0000
0000
0000
0000
0000
0000
0000
0000
0000
0000
0000
0000
0000
0000
0000
0000
0000
,
1003
0000
0000
0000
;

//--------------- dance-single - MEGAtive ----------------
#NOTES:
     dance-single:
     MEGAtive:
     Challenge:
     15:
     0,0,0,0,0:
0000
0000
0000
0000
,
0000
0000
0000
0000
,
0000
0000
0000
0000
,
0000
0000
0000
0000
,
0000
0000
0000
0000
,
1000
0100
0001
0100
1000
0100
0001
0100
,
0010
0000
0001
0000
0010
0000
1000
0000
0010
0000
0001
0000
1000
0001
0000
1000
,
0001
0100
1000
0100
0001
0100
1000
0100
,
0010
0000
1000
0000
0010
0000
0001
0000
0010
0000
1000
0000
0001
0010
0001
1000
,
0100
0001
0100
1000
0100
0001
0100
1000
,
0001
0010
1000
0010
0001
1000
0010
0100
,
0010
0001
0010
1000
0010
0001
0010
1000
,
0001
0000
0000
0000
0000
0000
0000
0000
0000
0000
0000
0000
0000
0000
0000
0000
0000
0000
0000
0000
0000
0000
0000
0000
0011
0000
0000
0000
0000
0000
0000
0000
0000
0000
0000
0000
0000
0000
0000
0000
0000
0000
0000
0000
0000
1000
0000
0000
0000
0000
0000
0000
0000
0000
0000
0000
1000
0000
0000
0000
0100
0000
0000
0000
0000
0000
0000
0000
0000
0000
0000
0000
1100
0000
0000
0000
0000
0000
0000
0000
0000
0000
0000
0000
0000
0000
0000
0000
0000
0000
0000
0000
0000
0000
0000
0000
,
1000
0000
0100
0010
0100
0000
1000
0000
0001
0100
0020
0100
0000
0001
0000
0130
,
0010
0000
1000
0001
0100
0000
0010
0000
1000
0100
0020
0100
0000
1000
0000
0130
,
0010
0000
0100
1000
0100
0000
1000
0000
0001
0100
0020
0100
0000
0001
0000
0130
,
0010
0000
0100
0001
0100
0000
0010
0000
1000
0100
0020
0100
0000
0031
0100
0010
,
1000
0000
0100
0010
0100
0000
1000
0000
0001
0100
0020
0100
0000
0001
0000
0130
,
0010
0000
1000
0001
0100
0000
0010
0000
1000
0100
0020
0100
0000
0031
0000
0100
,
0101
0000
0000
0000
0001
0000
0100
0010
0000
0010
1000
0000
0100
0000
0010
0000
,
0011
0000
0001
0000
0100
0000
0010
0000
0100
0001
1000
0001
0010
0000
0000
0000
,
1100
1000
0010
0110
0100
0001
0011
0010
,
0100
1100
1000
0010
0110
0100
0001
0011
,
0010
0100
1100
1000
0010
0110
0100
0001
,
2001
0000
0100
0000
3002
0000
0100
0000
1003
0100
1000
0100
0010
0000
0000
0000
,
0011
0001
0100
0010
1010
1000
0100
0110
,
0010
0001
0101
0100
0010
1010
1000
0100
,
0110
0010
0001
0101
0100
0010
1010
1000
,
0100
0000
0010
0100
0010
0000
0001
0000
0012
0000
0010
0000
0010
0000
0010
0000
,
1003
0010
0100
0010
0100
0000
0001
0000
0021
0000
0100
0000
0100
0000
0130
0000
,
1000
0100
1000
0100
0010
0000
0001
0000
0201
0000
0010
0000
0010
0000
0310
0000
,
1000
0010
0100
0010
0100
0000
0001
0000
0021
0000
0100
0000
0100
0000
0130
0000
,
1000
0100
1000
0100
0010
0000
0001
0000
0201
0000
0010
0000
0302
0000
0013
0000
,
0001
0010
0100
0010
0100
0000
1000
0000
1020
0000
0100
0000
0100
0000
0130
0000
,
0001
0100
0001
0100
0010
0000
1000
0000
1200
0000
0010
0000
0010
0000
0310
0000
,
0001
0010
0100
0010
0100
0000
1000
0000
1020
0000
0100
0000
0100
0000
0130
0000
,
0001
0100
0001
0100
0010
0000
1000
0100
0000
0100
0001
0000
2002
0000
3003
0000
,
1200
0000
0000
0000
1300
0000
0010
0100
0000
0100
0010
0000
0100
0000
0100
0000
,
0002
0000
0000
0000
0013
0000
0100
0010
0000
0010
0100
0000
1000
0000
1000
0000
,
0020
0000
0000
0000
1030
0000
0010
0100
0000
0100
0010
0000
0100
0000
0100
0000
,
0001
0000
0010
0000
0001
0000
1000
0100
0000
0010
0001
0000
0100
0000
0100
0000
,
0201
0000
0000
0000
0301
0000
0100
0010
0000
0010
0100
0000
0010
0000
0010
0000
,
2000
0000
0000
0000
3100
0000
0010
0100
0000
0100
0010
0000
0001
0000
0001
0000
,
0200
0000
0000
0000
0301
0000
0100
0010
0000
0010
0100
0000
0010
0000
0010
0000
,
2002
0000
0000
3003
,
1100
0000
1000
0100
0010
0000
0100
0010
0100
0020
0001
0000
0100
0000
0031
0000
,
0011
0000
0001
0100
0010
0000
0100
0010
0100
0020
1000
0000
0100
0000
1030
0000
,
1010
0000
1000
0100
0010
0000
0100
0010
0100
0020
0001
0000
0100
0000
0031
0000
,
0001
0100
0010
0100
0010
1000
0002
0000
0000
1003
0100
0010
0002
0000
0000
0000
,
1003
0000
0001
0010
0100
0000
1000
0010
0100
0020
1000
0000
0100
0000
1030
0000
,
1010
0000
0010
1000
0100
0000
0010
0100
1000
0200
0010
0000
1000
0000
0310
0000
,
0110
0000
0100
0010
0001
0000
0100
0010
1000
0020
0100
0000
1000
0000
0130
0000
,
0110
0000
0010
0000
1000
0000
0100
0000
0010
0001
0100
0000
0010
1000
0100
0000
,
1100
0000
1000
0100
0010
0000
0001
0010
0001
2000
0010
0000
0001
0000
3010
0000
,
1010
0000
1000
0010
0100
0000
0001
0100
0010
2000
0100
0000
0001
0000
3100
0000
,
1100
0000
0000
0000
1000
0000
0000
0000
1001
0000
0000
0000
0000
0000
0000
0001
0000
0000
0000
0001
0100
0000
0000
0000
0110
0000
0000
0000
0000
0000
0000
0000
,
1010
0000
1000
0000
1000
0000
0001
0000
0001
0000
1000
0100
0010
0001
1000
0100
,
0010
0000
0001
0100
0010
0000
0100
0001
1000
0200
0010
0000
1000
0000
0310
0000
,
0110
0000
0100
1000
0010
0000
0100
0001
0010
0200
1000
0000
0010
0000
1300
0000
,
2001
0000
0000
0000
,
3001
0000
0000
0000
1000
0000
0010
0000
0000
0100
0000
0000
0000
0000
0000
0000
0001
0000
0010
0000
0000
0100
0000
0000
1000
0000
0000
0000
0001
0000
0000
0000
0010
0000
0000
0000
0200
0000
0000
0000
0000
0000
0000
0000
0000
0300
0000
0000
,
2200
0000
0000
0000
,
3300
0000
0000
0000
;

//--------------- dance-double - SaxxonPike ----------------
#NOTES:
     dance-double:
     SaxxonPike:
     Easy:
     5:
     0,0,0,0,0:
00000000
00000000
00000000
00000000
,
00000000
00000000
00000000
00000000
,
00000000
00000000
00000000
00000000
,
00000000
00000000
00000000
00000000
,
00000000
00000000
00000000
00000000
,
01000000
00000000
01000000
00000000
,
00100000
00000000
00100000
00000000
,
00000000
00010000
00000000
00010000
,
00000000
10000000
00000000
10000000
,
00010000
00000000
00010000
00000000
,
00100000
00000000
00100000
00000000
,
00000000
00001000
00000000
00001000
,
00000000
00010000
00000000
00010000
,
00011000
00000000
00001000
00000000
,
00010000
00001000
00010000
00001000
,
00000100
00000000
00000010
00000000
,
00000100
00000010
00000100
00000010
,
00001000
00000000
00000100
00000000
,
00000010
00000100
00000010
00000100
,
00002000
00000000
00000000
00003000
,
00010000
00010000
00001000
00001000
,
00011000
00010000
00000000
01000000
,
10000000
00100000
00000000
01000000
,
00010000
00100000
00000000
00001000
,
00010000
00001000
00000100
00001000
,
00010000
00001000
00000000
00000010
,
00000001
00000100
00000000
00000010
,
00001000
00000100
00000000
00010000
,
00001000
00010000
01000000
00010000
,
00001000
00010000
01000000
00000000
,
10000000
00100000
01000000
00000000
,
00010000
10000000
01000000
00000000
,
00100000
00010000
01000000
00010000
,
00100000
00001000
00010000
00000000
,
00001000
00010000
00000100
00000000
,
00001000
00000100
00000010
00000000
,
00000001
00001000
00000010
00000000
,
00000120
00000000
00000030
00000010
,
00000200
00000000
00000300
00000100
,
00002000
00000000
00003000
00001000
,
00020000
00000000
00030000
00010000
,
02000000
00000000
13000000
01000000
,
20000000
00000000
30100000
01000000
,
00200000
00000000
01300000
00010000
,
02000000
00000000
00000000
03000000
,
10010000
00000000
01000000
00010000
,
00001000
00000000
00010000
00001000
,
00000100
00000000
00000010
00000100
,
00000001
00000001
00001000
00001000
,
00000100
00000000
00000010
00000001
,
00001000
00000000
00000010
00000100
,
00001000
00000000
00010000
01000000
,
00100000
00000000
00010000
01000000
,
00010000
10000000
01000000
00000000
,
00100000
00010000
01000000
00000000
,
00200000
00300000
00020000
00030000
,
00001000
00010000
00001000
00010000
,
00000100
00001000
00000100
00000000
,
00000010
00000001
00000010
00000000
,
00002002
00000000
00000000
00000000
,
00000000
00000000
00000000
00003003
,
00001001
00000000
00000000
00000000
;

//--------------- dance-double - SaxxonPike ----------------
#NOTES:
     dance-double:
     SaxxonPike:
     Medium:
     8:
     0,0,0,0,0:
00000000
00000000
00000000
00000000
,
00000000
00000000
00000000
00000000
,
00000000
00000000
00000000
00000000
,
00000000
00000000
00000000
00000000
,
00000000
00000000
00000000
00000000
,
00000001
00000000
00001000
00000001
00000000
00000000
00001000
00000000
,
00000010
00000000
00000100
00000010
00000000
00000000
00000000
00000000
,
00010000
00000000
00001000
00010000
00000000
00000000
01000000
00000000
,
00100000
00000000
01000000
00100000
00000000
00000000
00010000
00000000
,
10000000
00000000
00010000
10000000
00000000
00000000
00010000
00000000
,
00100000
00000000
01000000
00100000
00000000
00000000
00000000
00000000
,
00001000
00000000
00010000
00001000
00000000
00000000
00000100
00000000
,
00000010
00000000
00001000
00000000
00000001
00000100
00000010
00000000
,
00001001
00000000
00001000
00000000
00000001
00000100
00001000
00000000
,
00010000
00000000
00001000
00000000
00010000
01000000
10000000
00000000
,
00010000
00000000
10000000
00000000
00010000
10000000
01000000
00000000
,
10000000
00000000
00010000
00000000
10000000
00010000
01000000
00000000
,
00100000
00000000
01000000
00000000
00010000
00100000
00001000
00000000
,
00010000
00000000
00001000
00000000
00010000
00000100
00001000
00000000
,
00000020
00000000
00000030
00000000
00000100
00000001
00000010
00000000
,
00000001
00000000
00001000
00000000
00000001
00001000
00000001
00000000
,
00001001
00000100
00000000
00001000
00000100
00000000
00010000
00001000
,
00000000
00010000
00001000
00000000
00010000
00000000
00001000
00000000
,
00100000
00010000
00000000
00100000
00010000
00000000
10000000
01000000
,
00100000
00110000
01010000
01100000
,
00010000
01000000
00000000
00100000
01000000
00000000
00010000
01000000
,
00000000
00001000
00010000
00000000
00001000
00000000
00010000
00000000
,
00000100
00001000
00000000
00000100
00000010
00000000
00000100
00001000
,
00000000
00000100
00000010
00000000
00001000
00000000
00010000
00000000
,
00011000
00002000
00000000
00000000
00103000
00020000
00000000
00000000
,
10030000
02000000
00000000
00000000
03010000
02000000
00000000
00000000
,
13000000
00200000
00000000
00000000
00310000
00002000
00000000
00000000
,
00003100
00000002
00000000
00000000
00000013
00002000
00000000
00000000
,
00003010
00000000
00000001
00000000
00001000
00000001
00000100
00000000
,
00001000
00000000
00010000
00000000
00001000
00010000
01000000
00000000
,
00100000
00000000
00010000
00000000
10000000
00010000
01000000
00000000
,
00100000
00000000
00010000
00000000
00001000
00010000
00001000
00000000
,
00020000
00000000
00000000
00000000
00000000
00000000
00031000
00000100
,
00000002
00000000
00000000
00000000
00000000
00000000
00000103
00001000
,
00020000
00000000
00000000
00000000
00000000
00000000
01030000
10000000
,
00200000
00000000
00000000
00000000
00000000
00000000
10300000
01000000
,
00020000
00000000
00000000
00001000
00000000
00000000
00031000
00000010
,
00000002
00000000
00000000
00000010
00000000
00000000
00000013
00001000
,
00020000
00000000
00000000
00001000
00000000
00000000
00031000
00010000
,
02000000
00000000
00000000
03000000
,
01100000
00000000
10000000
00000000
00010000
10000000
00100000
00000000
,
00010000
00000000
00001000
00000000
00010000
00001000
00000010
00000000
,
00000100
00000000
00001000
00000000
00000001
00001000
00000010
00000000
,
00000100
00000010
00001000
00000002
00000000
00000000
00000003
00000001
,
00001000
00000000
00000001
00000000
00001000
00000001
00000100
00000000
,
00001000
00000000
00010000
00000000
00001000
00010000
01000000
00000000
,
00100000
00000000
00010000
00000000
10000000
00010000
01000000
00000000
,
00020000
00230000
00302000
00023000
,
00031000
00000000
00010000
00000000
00001000
00000100
00000001
00000000
,
00001000
00000000
00000001
00000000
00001000
00000010
00000001
00000000
,
00000110
00000000
00000000
00001100
00000000
00000000
00011000
00000000
,
01010000
00000000
00000000
01100000
00000000
00000000
00110000
00000000
,
01000000
00000000
10000000
00000000
00100000
01000000
00010000
00000000
,
00100000
00000000
00001000
00000000
00010000
00001000
00010000
00000000
,
00022000
00000000
00000000
00000000
,
00000000
00000000
00000000
00033000
,
00011000
00000000
00000000
00000000
;

//--------------- dance-double - SaxxonPike ----------------
#NOTES:
     dance-double:
     SaxxonPike:
     Hard:
     14:
     0,0,0,0,0:
00000000
00000000
00000000
00000000
,
00000000
00000000
00000000
00000000
,
00000000
00000000
00000000
00000000
,
00000000
00000000
00000000
00000000
,
00000000
00000000
00000000
00000000
,
00012000
00000000
00000000
00203000
00000000
00000000
10300000
00010000
,
10000000
00000000
00100000
02000000
00000000
00000000
03001000
00000000
,
00012000
00000000
00000000
00003020
00000000
00000000
00000031
00001000
,
00000001
00000000
00000000
00000000
00000010
00000000
00000100
00000000
00000000
00000000
00001000
00000000
00000100
00001000
00000100
00010000
,
00001000
00000000
00100000
00001000
00000000
00010000
00000100
00001000
,
00010000
00000100
00010000
00000010
00000100
00001000
00010000
00000000
,
00001000
00000000
01000000
00001000
00000000
00010000
00000010
00001000
,
00010000
00000000
00000010
00000000
00000100
00001000
00000000
00010000
00100000
00000000
10000000
00000000
00010000
00000000
00000000
00000000
,
01100000
00000000
10000000
01000000
00010000
00000000
00001000
00000010
,
00000001
00000000
00000100
00000001
00000010
00000000
00001000
00000000
,
00001001
00000000
00000001
00000100
00001000
00000000
00010000
00100000
,
10000000
00000000
01000000
10000000
00100000
00000000
00010000
00000000
,
10010000
00000000
10000000
00100000
00010000
00000000
00001000
00000100
,
00000001
00000000
00000010
00000001
00000100
00000000
00001000
00000000
,
00022000
00000000
00033000
00000100
00001000
00010000
01000000
10000000
,
00100000
00000000
00010000
00000000
00001000
00010000
00000000
00001000
00010000
00000100
00001000
00000100
00010000
00000000
00000000
00000000
,
00000110
00000000
00000100
00000001
00000010
00001000
00010000
01000000
,
00100000
00010000
01000000
10000000
00100000
00010000
00001000
00000100
,
00000010
00000001
00000100
00001000
00000010
00000100
00001000
00010000
,
01010000
00001100
00110000
00001010
,
00011000
00100000
00001000
00010000
00000010
00010000
00010100
00001000
,
00100000
00010000
10000000
00010000
01100000
00010000
00001000
00000100
,
00000001
00001000
00000011
00000100
00000010
00001000
00010000
01000000
,
01010000
00100000
00101000
00001000
00011000
00000100
00000110
00000000
,
00000001
00000200
00000000
00000000
00001300
00020000
00000000
00000000
,
00130000
20000000
00000000
00000000
31000000
00020000
00000000
00000000
,
00030100
00000002
00000000
00000000
00000013
00020000
00000000
00000000
,
00031000
02000000
00000000
00000000
03100000
01000000
10000000
01000000
,
00010000
00100000
20000000
00000000
30100000
00001000
00020000
00000000
,
00031000
00000100
00000002
00000000
00000013
00000100
00002000
00000000
,
00003010
00010000
00002000
00000000
00103000
00001000
00020000
00000000
,
00130000
00000000
01000000
00000000
00010000
00000000
10000000
00010000
00000000
00010000
10000000
01000000
00100000
00000000
00000000
00000000
,
10020000
00000000
00130000
00020000
00000000
00030000
00110000
00011000
,
00020000
00000000
00031000
00000200
00000000
00000300
00001100
00000101
,
00000200
00000000
00000310
00002000
00000000
00003000
00001010
00011000
,
00002000
00000000
00013000
02000000
00000000
03000000
01010000
11000000
,
02000000
00100000
03100000
00020000
10000000
10030000
10100000
01010000
,
00002000
00100000
00103000
00000200
00010000
00010300
00010100
00001100
,
00000200
00000010
00000310
00000002
00001000
00001003
00000011
00001100
,
00020000
00001000
00031000
00002000
00000000
00020000
00000000
00033000
,
00100000
00000000
10000000
00000000
00010000
00000000
10000000
00000000
01000000
00000000
00010000
00000000
00000100
00001000
00000010
00000000
,
00000001
00000000
00000010
00000000
00001000
00000000
00000100
00000000
00000010
00000000
00000001
00000000
00000100
00001000
00010000
00000000
,
00100000
00000000
10000000
00000000
00010000
00000000
00100000
00000000
01000000
00000000
00010000
00000000
00001000
00010000
00001000
00000000
,
00011000
00000000
00001100
00000000
00000110
00000000
00000011
00000000
00000000
00000101
00000000
00000000
00000010
00000000
00001000
00000000
,
00000100
00010000
00100000
01000000
00001000
00100000
00001000
00010000
,
00000100
00000000
00000010
00000000
00001000
00000000
00000010
00000000
00000001
00000100
00001000
00000000
00010000
00000000
00100000
00000000
,
00010000
00001000
00100000
01000000
10000000
01000000
00100000
00010000
,
10000000
00010000
10000000
00010000
00100000
00010000
00100000
00010000
00100000
00001000
00100000
00001000
00010000
00001000
00010000
00001000
,
00010000
00001000
00000100
00000010
00010000
00000100
00010000
00001000
,
00100000
00000000
01000000
00000000
00010000
00000000
01000000
00000000
10000000
00100000
00010000
00000000
00001000
00000000
00010000
00000000
,
00011000
00000000
00001000
00000000
00000100
00000001
00000000
00001000
00000000
00000001
00001000
00000000
00000001
00000000
00000100
00000000
,
00001000
00000000
00010000
00000000
01000000
00000000
10000000
00000000
00010000
00000000
10000000
00000000
00100000
00010000
00001000
00000100
,
00001000
00010000
00000010
00010000
00000100
00000001
00000100
00010000
,
00001000
00100000
10000000
00100000
00001000
00010000
00000100
00001000
,
00000022
00000000
00000000
00000000
,
00000033
00000000
00000000
00000000
00000000
00000000
00000000
00000000
00000000
00000000
00000000
00000000
00000000
00000000
00000000
00000000
00000000
00000000
00000000
00000000
00000000
00000000
00000000
00000000
00000000
00000000
00000000
00000000
00000000
00000000
00000000
00000000
00000000
00000000
00000000
00000000
00000000
00000000
00000000
00000001
00000000
00000000
00000000
00000000
00000000
00000000
00000000
00000000
00000100
00000000
00000000
00000000
00000000
00000000
00000000
00000000
00001000
00000000
00000000
00000000
00000000
00000000
00000000
00010000
00000000
00000000
00000000
00000000
00000000
00000000
00000000
00000000
02000000
00000000
00000000
00000000
00000000
00000000
00000000
00000000
00000000
00000000
00000000
00000000
00000000
00000000
00000000
00000000
00000000
00000000
00000000
00000000
00000000
00000000
00000000
00000000
,
13000000
00000000
00000000
00000000
;

//--------------- dance-double - MEGAtive ----------------
#NOTES:
     dance-double:
     MEGAtive:
     Challenge:
     16:
     0,0,0,0,0:
00000000
00000000
00000000
00000000
,
00000000
00000000
00000000
00000000
,
00000000
00000000
00000000
00000000
,
00000000
00000000
00000000
00000000
,
00000000
00000000
00000000
00000000
,
10000000
01000000
00100000
01000000
10000000
01000000
00100000
00001000
,
00010000
00000010
00000100
00000001
00000010
00000100
00001000
00001000
,
00000001
00000100
00000010
00000100
00000001
00000100
00000010
00010000
,
00001000
00000000
00100000
00000000
01000000
00000000
10000000
00000000
00010000
00000000
00100000
00000000
01000000
10000000
00010000
01000000
,
00100000
10000000
00010000
10000000
00100000
10000000
00010000
00100000
,
00001000
00010000
00000010
00000100
00001000
00010000
00000100
00000100
,
00000010
00000001
00001000
00000001
00000010
00000001
00000100
00000010
,
00001010
00000000
00000000
00000000
00000000
00000000
00000000
00000000
00000000
00000000
00000000
00000000
00000000
00000000
00000000
00000000
00000000
00000000
00000000
00000000
00000000
00000000
00000000
00000000
00011000
00000000
00000000
00000000
00000000
00000000
00000000
00000000
00000000
00000000
00000000
00000000
00000000
00000000
00000000
00000000
00000000
00000000
00000000
00000000
00000000
00010000
00000000
00000000
00000000
00000000
00000000
00000000
00000000
00000000
00000000
00000000
00010000
00000000
00000000
00000000
00001000
00000000
00000000
00000000
00000000
00000000
00000000
00000000
00000000
00000000
00000000
00000000
00101000
00000000
00000000
00000000
00000000
00000000
00000000
00000000
00000000
00000000
00000000
00000000
00000000
00000000
00000000
00000000
00000000
00000000
00000000
00000000
00000000
00000000
00000000
00000000
,
00110000
00000000
00010000
00000000
01000000
00000000
00100000
00000000
10000000
01000000
00010000
00001000
00000000
00010000
00000000
00010000
,
00000100
00000000
00001000
00000000
00000010
00000000
00000100
00000000
00000001
00000010
00001000
00010000
00000000
00001000
00000000
00001000
,
01000000
00000000
00010000
00000000
00100000
00000000
01000000
00000000
10000000
00100000
00010000
00001000
00000000
00010000
00000000
00010000
,
00000010
00000000
00001000
00000000
00000100
00000000
00000010
00000000
00000001
00000100
00001000
00010000
00000000
00001000
00000000
00001000
,
00100000
00000000
00010000
00000000
01000000
00000000
00100000
00000000
10000000
01000000
00010000
00001000
00000000
00010000
00000000
00010000
,
00000100
00000000
00001000
00000000
00000010
00000000
00000100
00000000
00000001
00000010
00001000
00010000
00000000
00001000
00000000
00001000
,
00010000
00100000
10000000
01000000
00100000
00001000
00010000
00000010
,
00000110
00000000
00000100
00000000
00000001
00000000
00000010
00000000
00000100
00010000
00001000
01000000
00100000
00000000
00000000
00000000
,
10100000
10000000
01000000
01100000
00100000
00010000
01010000
01000000
,
00001000
00011000
00010000
00000100
00001100
00001000
00000001
00000101
,
00000100
00000010
00001010
00001000
00000100
00010100
00010000
00001000
,
00012000
00000000
01000000
00000000
00023000
00000000
00000010
00000000
00031000
00010000
00100000
00010000
00001000
00000000
00000000
00000000
,
01001000
00001000
00010000
00000010
00001010
00001000
00000001
00000011
,
00000010
00000100
00001100
00001000
00000010
00010010
00010000
00001000
,
00101000
00100000
01000000
11000000
10000000
00100000
01100000
01000000
,
00010000
00000000
00100000
00000000
01000000
00000000
10000000
00100000
01000000
00000000
00010000
00000000
00100000
00000000
00001000
00000000
,
00010000
00001000
00000100
00001000
00010000
00000000
00001000
00000000
00100000
00000000
01000000
00000000
01000000
00000000
00100000
00000000
,
00001000
00010000
00100000
00010000
00001000
00000000
00000010
00000000
00000100
00000000
00001000
00000000
00001000
00000000
00000010
00000000
,
00010000
00001000
00000100
00001000
00010000
00000000
01000000
00000000
00100000
00000000
00010000
00000000
00010000
00000000
01000000
00000000
,
00001000
00010000
00100000
00010000
00001000
00000000
00010000
00000000
00000100
00000000
00000001
00000000
00000100
00000000
00010000
00000000
,
00000010
00000100
00001000
00000100
00000001
00000000
00001000
00000000
00000100
00000000
00010000
00000000
00001000
00000000
01000000
00000000
,
00100000
01000000
10000000
01000000
00010000
00000000
00100000
00000000
00001000
00000000
00010000
00000000
00000010
00000000
00000100
00000000
,
00000001
00000100
00001000
00000100
00000001
00000000
00000010
00000000
00000100
00000000
00010000
00000000
00001000
00000000
00100000
00000000
,
01000000
10000000
00100000
01000000
00010000
00000000
00100000
00000000
01000000
00000000
00010000
00000000
00011000
00000000
00000000
00000000
,
00020100
00000000
00000000
00000000
00031000
00000000
00000000
01000000
00000000
01000000
00100000
00000000
10000000
00000000
01000000
00000000
,
00020000
00000000
00000000
00000000
00031000
00000000
00000000
00000100
00000000
00000100
00000010
00000000
00001000
00000000
00000100
00000000
,
00020000
00000000
00000000
00000000
01030000
00000000
00000000
00100000
00000000
00100000
00010000
00000000
10000000
00000000
00100000
00000000
,
00010000
00000100
00001000
00000010
00000100
00000001
00000010
00001000
,
00020000
00000000
00000000
00000000
00130000
00000000
00000000
10000000
00000000
10000000
01000000
00000000
00100000
00000000
00001000
00000000
,
00020000
00000000
00000000
00000000
00030100
00000000
00000000
00000010
00000000
00000010
00000001
00000000
00000100
00000000
00001000
00000000
,
00020000
00000000
00000000
00000000
00130000
00000000
00000000
10000000
00000000
10000000
01000000
00000000
00100000
00000000
00000000
00000000
,
02002000
00000000
00000000
03003000
,
00101000
00000000
00001000
00010000
00000100
00000000
00010000
00000100
00000020
00000000
00000100
00000000
00000100
00000000
00000130
00000000
,
00000010
00000000
00000001
00000100
00000010
00000000
00000100
00000010
00020000
00000000
00001000
00000000
00001000
00000000
00031000
00000000
,
01000000
00000000
00010000
00100000
01000000
00000000
00100000
01000000
20000000
00000000
00010000
00000000
00010000
00000000
00010000
00000000
,
30010000
01000000
00100000
10000000
01000000
00100000
00002000
00000000
00000000
00013000
00000100
00000010
00000002
00000000
00000000
00000000
,
00001003
00000000
00000010
00001000
00000100
00000000
00001000
00000100
00020000
00000000
00001000
00000000
00001000
00000000
00031000
00000000
,
00100000
00000000
00010000
01000000
00100000
00000000
01000000
00100000
20000000
00000000
01000000
00000000
01000000
00000000
31000000
00000000
,
00100000
00000000
00001000
00010000
00000100
00000000
00010000
00000100
00000020
00000000
00000100
00000000
00000100
00000000
00000130
00000000
,
00001000
00000000
00000001
00000000
00000100
00000000
00001000
00000000
00000000
00010000
00001000
00000000
00100000
01000000
10000000
00000000
,
11000000
00000000
01000000
10000000
00100000
00000000
10000000
00100000
00020000
00000000
00001000
00000000
00001000
00000000
00031000
00000000
,
00000100
00000000
00000010
00001000
00000100
00000000
00001000
00000100
00000002
00000000
00000100
00000000
00000100
00000000
00000103
00000000
,
00000010
00000000
00000000
00000000
00000010
00000000
00000000
00000000
00000011
00000000
00000000
00000000
00000000
00000000
00000000
00000001
00000000
00000000
00000000
00000001
00000100
00000000
00000000
00000000
00000110
00000000
00000000
00000000
00000000
00000000
00000000
00000000
,
00000010
00000000
00001000
00000000
00000100
00000000
00010000
00000000
00001000
00000000
01000000
00100000
10000000
00010000
01000000
00100000
,
10000000
00000000
00010000
00100000
01000000
00000000
00010000
00001000
00000200
00000000
00000010
00000000
00000010
00000000
00000310
00000000
,
00001000
00000000
00000100
00000010
00000001
00000000
00000100
00001000
00020000
00000000
00001000
00000000
00001000
00000000
00031000
00000000
,
00022000
00000000
00000000
00033000
,
00010000
00000000
00000000
00000000
00001000
00000000
00000100
00000000
00000000
00000010
00000000
00000000
00000000
00000000
00000000
00000000
00000100
00000000
00000001
00000000
00000000
00000010
00000000
00000000
00001000
00000000
00000000
00000000
00010000
00000000
00000000
00000000
01000000
00000000
00000000
00000000
20000000
00000000
00000000
00000000
00000000
00000000
00000000
00000000
30000000
00000000
00000000
00000000
,
22000000
00000000
00000000
00000000
,
33000000
00000000
00000000
00000000
;
