#TITLE:Nu Romantic Disco;
#SUBTITLE:;
#ARTIST:Sota F;
#TITLETRANSLIT:;
#SUBTITLETRANSLIT:;
#ARTISTTRANSLIT:;
#GENRE:;
#CREDIT:;
#MUSIC:Nu Romantic Disco.ogg;
#BANNER:nu romantic disco.png;
#BACKGROUND:;
#CDTITLE:;
#SAMPLESTART:42.812;
#SAMPLELENGTH:14.115;
#SELECTABLE:YES;
#OFFSET:-0.468;
#BPMS:0.000=136.030;
#STOPS:;
#BGCHANGES:;
#FGCHANGES:;

//--------------- dance-single - eataninja ----------------
#NOTES:
     dance-single:
     eataninja:
     Beginner:
     3:
     0,0,0,0,0:
0000
0000
0000
0000
,
0000
0000
0000
0000
,
0000
0000
0000
0000
,
0000
0000
0000
0000
,
1000
0000
0010
0000
,
0100
0000
0001
0000
,
1000
0000
0010
0000
,
0100
0000
0200
0300
,
0001
0001
1000
0000
,
0001
0000
0000
0000
,
0010
0010
0010
0000
,
0100
0100
0100
0000
,
2000
3000
1000
0000
,
0010
0000
0100
0000
,
0001
1000
0001
0000
,
1001
0000
0000
0000
,
0020
0000
0030
0000
,
0100
0000
0100
0000
,
2000
0000
3000
0000
,
0001
0000
0001
0000
,
0200
0000
0300
0000
,
0010
0000
0010
0000
,
2000
0000
3000
0000
,
1000
0000
0000
0000
,
0001
0010
0001
0000
,
0001
0010
0001
0000
,
1000
0000
0010
0000
,
0100
0000
0100
0000
,
0001
0100
0001
0000
,
0001
1000
0001
0000
,
0010
0000
0100
0000
,
1000
0000
0001
0000
,
1000
0010
1000
0000
,
1000
0010
1000
0000
,
0001
0000
0010
0000
,
0100
0000
0100
0000
,
1000
0100
1000
0000
,
1000
0001
1000
0000
,
0010
0000
0100
0000
,
0001
0001
0001
0000
,
0000
0000
0000
0000
,
2002
0000
3003
0000
,
2002
0000
3003
0000
,
0001
0000
0100
0000
,
1000
0000
0100
0000
,
0220
0000
0330
0000
,
0220
0000
0330
0000
,
0010
0000
1000
0000
,
0100
0000
1000
0000
,
2002
0000
3003
0000
,
2002
0000
3003
0000
,
0001
0000
0010
0000
,
1000
0000
0010
0000
,
0220
0000
0330
0000
,
0220
0000
0330
0000
,
0100
0000
1000
0000
,
0020
0000
0030
0010
,
0100
0100
0001
0000
,
1000
0000
0000
0000
,
0001
0001
0001
0000
,
0010
0010
0010
0000
,
0100
0000
1000
0000
,
0010
0000
0100
0000
,
0001
1000
0001
0000
,
0010
0010
0010
0100
,
0020
0000
0000
0000
,
0030
0000
0000
0000
;

//--------------- dance-single - eataninja ----------------
#NOTES:
     dance-single:
     eataninja:
     Easy:
     5:
     0,0,0,0,0:
0000
0000
0000
0000
,
0000
0000
0000
0000
,
0000
0000
0000
0000
,
0000
0000
0000
0000
,
1000
0010
0100
0000
,
0010
0010
0100
0000
,
0001
0010
0100
0000
,
1000
0001
0100
0000
,
0010
0010
0100
0001
,
1000
0000
0100
0010
,
0001
0001
1000
1000
,
0010
0100
0010
0000
,
0100
0100
0001
0000
,
0010
0100
1000
0000
,
0001
0100
0001
0100
,
0010
0000
0000
0000
,
2001
0000
3200
0000
,
0010
0010
1000
1300
,
0002
0000
0203
0000
,
0010
0001
0010
0310
,
2000
0000
3200
0000
,
0001
0001
1000
1300
,
0002
0000
0203
0000
,
0010
1000
0301
0000
,
1002
0010
1003
0000
,
2001
0010
3001
0000
,
1000
0100
0010
0010
,
0001
0100
0010
0010
,
1002
0010
1003
0000
,
2001
0100
3010
0000
,
0100
0100
0010
1000
,
0001
0001
1000
0100
,
1200
0010
1300
0000
,
2100
0001
3100
0000
,
0010
0001
0100
0100
,
0010
0010
1000
0001
,
0021
0100
0031
0000
,
0201
1000
0301
0000
,
0010
0100
1000
1000
,
0001
0100
0010
0010
,
0000
0000
0000
0000
,
2000
3002
2003
3000
,
0002
0203
0302
0003
,
1000
1000
0010
0010
,
0100
0001
0010
0100
,
2000
3002
2003
3000
,
0002
0023
0032
0003
,
1000
1000
0010
0010
,
0100
0001
1000
1000
,
0002
0203
2300
3000
,
2000
3200
0302
0003
,
1000
1000
0001
0001
,
0010
0100
1000
0001
,
2000
3020
0032
0003
,
0002
0023
2030
3000
,
0001
0001
0010
0100
,
2000
0000
0001
3010
,
0100
0010
0100
0100
,
0001
0000
0010
0100
,
1000
1000
0001
0000
,
0100
0100
0010
0000
,
1000
0010
1000
0010
,
0100
0001
0100
0010
,
1000
1000
0001
0001
,
0010
0100
1000
0010
,
2002
0000
0000
0000
,
3003
0000
0000
0000
;

//--------------- dance-single - eataninja ----------------
#NOTES:
     dance-single:
     eataninja:
     Medium:
     8:
     0,0,0,0,0:
0000
0000
0000
0000
,
0000
0000
0000
0000
,
0000
0000
0000
0000
,
0000
0000
0000
0000
,
1000
0000
1100
0000
0001
1000
0001
0000
,
0100
0000
0100
0000
0010
0100
0001
0000
,
1000
0000
1010
0000
0001
1000
0001
0000
,
0010
0000
0100
0000
0001
0100
1000
0000
,
0010
0000
0100
0000
0001
0001
0020
0000
,
0130
0000
0000
0000
1000
0001
1000
0000
,
0010
0000
0100
0000
1000
0100
0001
0000
,
0010
0000
0100
0000
0001
0100
1000
0000
,
0010
0010
0010
0000
0100
0000
0000
0000
,
0001
1000
0001
0000
0010
0100
1000
0000
,
0010
0000
0100
0000
1000
0100
0001
0000
,
1000
0000
0000
0000
0000
0001
0020
0000
,
0230
0000
2300
0000
,
3001
0100
1000
0000
1000
0100
0001
0000
,
0020
0000
0032
0000
,
1003
0010
0001
0010
1000
0010
0100
0000
,
0020
0000
2030
0000
,
3001
0010
1000
0000
1000
0010
0001
0000
,
0200
0000
0302
0000
,
1003
0100
0001
0000
0100
0000
0010
0000
,
0001
1000
0001
0200
0000
0010
0310
0000
,
1000
0001
1000
0200
0000
0010
0310
0000
,
0001
0000
1000
0000
0010
0010
0100
0000
,
0001
0010
0100
0000
1000
0001
0100
0000
,
0001
1000
0001
0020
0000
0100
0130
0000
,
1000
0001
0100
2000
0000
0100
3100
0000
,
0010
1000
0010
0000
1000
0001
0010
0000
,
0100
0100
0010
0010
0001
0000
1000
0000
,
0010
0100
0001
2000
0000
0100
3100
0000
,
0100
0010
0001
2000
0000
0010
3010
0000
,
0100
0000
0010
0010
1000
1000
0001
0000
,
0010
1000
0010
0000
0100
0010
0001
0000
,
0100
0010
1000
0002
0000
0010
0013
0000
,
0100
1000
0010
0002
0000
0010
0013
0000
,
0100
0010
0100
0000
0001
0001
0001
0000
,
1000
0000
0100
0000
0001
0100
1000
0000
,
2002
0000
0000
3003
,
1020
0000
0001
0000
0100
0100
0130
0000
,
0201
0000
1000
0000
0010
0010
0310
0000
,
1000
0001
1000
0001
0010
0100
1000
0000
,
0001
1000
0001
1000
0010
0100
0001
0000
,
0201
0000
1000
0000
0010
0010
0310
0000
,
1020
0000
0001
0000
0100
0100
0130
0000
,
0001
1000
0100
0010
0001
0001
1000
0000
,
0001
1000
0010
0100
0001
1000
1000
0000
,
0100
0010
0100
2000
0000
0001
3001
0000
,
0100
0010
0100
0002
0000
1000
1003
0000
,
0100
0001
0100
0000
0010
0001
1000
0000
,
0010
0000
0110
0000
0001
1000
0100
0000
,
0010
0100
0010
0002
0000
1000
1003
0000
,
0010
0100
0010
2000
0000
0001
3001
0000
,
0010
0100
0100
0000
1000
1000
0001
0000
,
0201
0000
1000
0301
,
0001
0100
0001
0000
1000
0100
1000
0000
,
0100
0000
0010
0000
0001
0001
0001
0000
,
1000
0010
0100
0000
0001
0000
0000
0000
,
0001
0010
0100
0000
1000
0000
0000
0000
,
0010
0010
0010
0000
0100
1000
0100
0000
,
0010
1000
0001
1000
0100
0000
0000
0000
,
0010
0000
1000
0000
0010
0001
0100
0000
,
0010
0000
0001
0000
0010
1000
0001
0000
,
0220
0000
0000
0000
,
0330
0000
0000
0000
;

//--------------- dance-single - eataninja ----------------
#NOTES:
     dance-single:
     eataninja:
     Hard:
     12:
     0,0,0,0,0:
0000
0000
0000
0000
,
0000
0000
0000
0000
,
0000
0000
0000
0000
,
0000
0000
0000
0000
,
1000
0100
0000
0000
1100
0000
0000
0100
0010
0000
0001
0000
1000
0000
0000
0000
,
0010
0100
0000
0000
0110
0000
0000
0100
0001
0000
1000
0000
0100
0000
0000
0000
,
0010
0001
0000
0000
0101
0000
0000
0100
0010
0000
1000
0000
0001
0000
0000
0000
,
0010
0100
0000
0000
0110
0000
0000
0100
1000
0000
0020
0000
0130
0000
0000
0000
,
0001
0000
0100
0010
0100
0000
0001
0000
0010
0000
0100
0000
2000
0000
0000
0000
,
3001
0000
0100
0000
1000
0100
0001
0000
,
0010
0100
0100
0000
1000
0010
0001
0000
,
0010
0100
0000
0000
0101
0000
0000
0000
1000
0000
0001
0000
0010
0000
0000
0000
,
0100
0000
0100
0000
1000
0001
1000
0010
,
0100
0000
0001
0000
1000
0001
1000
0000
0100
0000
0010
0000
0001
0000
0000
0000
,
1000
0010
0100
0000
1000
0100
0001
0000
,
1000
0000
0000
0000
0010
0100
1001
0000
,
0002
0000
0013
2000
0000
3010
0100
0000
,
1000
0100
1000
0100
0001
0100
0001
0100
,
2000
0000
3010
0002
0000
0013
0100
0000
,
0001
1000
0001
0010
0100
1000
0100
1000
,
0002
0000
0103
2000
0000
3100
0010
0000
,
1000
0010
1000
0010
0001
0010
0001
0010
,
2000
0000
3100
0002
0000
0103
0010
0000
,
0001
0000
0100
0000
0010
0000
0000
0010
1000
0000
1000
0000
0001
0000
0000
0000
,
1000
0100
0001
1000
0001
0100
1000
1000
,
0001
0100
1000
0001
1000
0100
0001
0001
,
1000
0000
0010
0000
0100
0010
0000
0010
1000
0000
0001
0000
0001
0000
0000
0000
,
0010
0000
0100
0000
1000
0001
0000
1000
0001
0000
0100
0000
0010
0000
0000
0000
,
1000
0010
0001
1000
0001
0010
1000
1000
,
0001
0010
1000
0100
1000
0010
0001
0001
,
1000
0010
1000
0000
0001
0000
0000
0000
0010
0001
0000
0001
1000
0000
0000
0000
,
0010
0000
0100
0000
0001
1000
0000
0001
1000
0000
0000
0100
0000
0000
0010
0000
,
0001
1000
0100
0001
1000
0001
0100
0100
,
1000
0001
0100
1000
0001
1000
0100
0100
,
0010
0000
0000
1000
0000
1000
0000
0010
0000
0010
0100
0000
0001
0000
0000
0001
,
1000
0000
0000
0100
0000
0100
0000
0010
0000
0001
2000
0000
3010
0000
0000
0000
,
1000
0001
0010
1000
0001
1000
0010
0010
,
0001
0100
1000
0010
1000
0100
0001
0001
,
1000
0010
0000
0100
0000
0100
0000
0001
0000
0001
0000
1000
0100
0000
0001
0000
,
0100
0010
0100
0000
0010
0001
0000
0001
1000
0000
0010
0000
0100
0000
0000
0000
,
2002
0000
0000
3003
,
1000
0001
0010
0200
0000
1000
1300
0000
,
0001
1000
0010
0200
0000
0001
0301
0000
,
1000
0000
1000
0000
0001
0000
0001
0000
0010
0000
0010
0000
0100
1000
0100
0000
,
1000
0000
0001
0100
0001
0000
0100
0000
0010
0000
0010
0000
1000
0001
1000
0000
,
0100
0010
0001
2000
0000
0001
3001
0000
,
0100
0010
1000
0002
0000
1000
1003
0000
,
0100
0000
0100
0000
0010
0000
0010
0000
0001
0000
0001
0000
1000
0010
1000
0000
,
0001
0000
0100
0010
0100
0000
0010
0000
1000
0000
0001
0000
0010
0100
0010
0000
,
0001
1000
0100
0020
0000
0031
1000
1000
,
0010
0100
0001
2000
0000
3100
0010
0010
,
0001
0000
0001
0000
1000
0000
1000
0000
0010
0000
0010
0000
0100
0010
0100
0000
,
0001
0000
1000
0100
1000
0000
0001
0000
0010
0000
0100
0000
1000
0001
1000
0000
,
0001
0100
0010
2000
0000
3001
0010
0010
,
0100
1000
0001
0200
0000
0310
1000
1000
,
0001
0001
0010
0010
1000
1000
0010
0010
,
0200
0000
0000
0000
0000
0000
0000
0000
1300
0001
1000
0001
0100
0000
0000
0000
,
0001
0100
0000
0000
0101
0000
0000
0000
0100
0000
0010
0000
1000
0000
0000
0000
,
0001
1000
0000
0000
1100
0000
0000
0000
0100
0000
0010
0000
0001
0000
0000
0000
,
1000
0010
0000
0000
1010
0000
0000
0000
0001
0000
1000
0000
0100
0000
0000
0000
,
1000
0100
0000
0000
1001
0000
0000
0000
0001
0000
0200
0000
0310
0000
0000
0000
,
1000
1000
0001
0001
0010
1000
0010
0100
,
1000
0000
1000
0000
0001
0010
0001
0000
0100
0000
1000
0000
0100
0000
0010
0000
,
1000
0001
0000
0000
0101
0000
0000
0000
0100
0000
0010
0000
1000
0000
0001
0000
,
0010
0000
0010
0000
0100
0000
0100
0000
1000
0001
1000
0001
0100
0000
0000
0000
,
2002
0000
0000
0000
,
3003
0000
0000
0000
;
