#TITLE:Nowhere To Run;
#SUBTITLE:;
#ARTIST:Smashtrax;
#TITLETRANSLIT:;
#SUBTITLETRANSLIT:;
#ARTISTTRANSLIT:;
#GENRE:;
#CREDIT:;
#MUSIC:Nowhere To Run.mp3;
#BANNER:;
#BACKGROUND:;
#CDTITLE:;
#SAMPLESTART:37.413;
#SAMPLELENGTH:13.333;
#SELECTABLE:YES;
#OFFSET:2.587;
#BPMS:0.000=90.000;
#STOPS:;
#BGCHANGES:;
#FGCHANGES:;

//--------------- dance-single - OrangeRight ----------------
#NOTES:
     dance-single:
     OrangeRight:
     Beginner:
     3:
     0,0,0,0,0:
0000
0000
0000
0000
,
0000
0000
0000
0000
,
0000
0000
0000
0000
,
1000
0001
0000
0100
,
0001
1000
0000
0100
,
1000
0001
0000
0010
,
0001
1000
0000
0001
,
1000
0000
0100
0010
,
0001
0000
0100
0000
,
0001
0000
0100
0010
,
1000
0000
0001
1000
,
0001
0000
0010
0100
,
1000
0000
0010
0100
,
0001
0000
1000
0001
,
0100
0000
0010
1000
,
0001
0001
1000
0100
,
1000
1000
0001
0100
,
0001
0001
0010
0100
,
1000
0001
0100
0010
,
1000
1000
0001
0010
,
0001
0001
1000
0010
,
1000
0100
0010
0001
,
0100
0010
0110
0000
,
0010
0000
1000
0001
,
0010
0000
0001
1000
,
0001
0000
0100
0010
,
1000
0000
0100
1000
,
0001
0000
0010
0100
,
1000
0000
1000
0001
,
1000
0000
0100
0010
,
0001
0000
0100
0010
,
1000
0000
0001
1000
,
0100
0010
0001
1001
,
1000
1000
0001
0010
,
0001
0001
1000
0100
,
1000
0010
0100
0001
,
0010
0100
1000
1000
,
0001
0001
0100
0010
,
1000
1000
0100
0010
,
0001
0100
0010
1000
,
0100
0010
0001
1000
,
1001
0000
0000
0000
;

//--------------- dance-single - OrangeRight ----------------
#NOTES:
     dance-single:
     OrangeRight:
     Easy:
     5:
     0,0,0,0,0:
0000
0000
0000
0000
,
0000
0000
0000
0000
,
0000
0000
0000
0000
,
1000
0100
1000
0001
,
1000
0000
0010
0000
0100
0100
0100
0000
,
0001
0010
0001
1000
,
0010
0000
0100
0000
0001
0001
0001
0000
,
1000
0100
0010
0001
,
0100
1000
0100
0001
,
1000
0010
0100
0001
,
0010
0100
1000
1001
,
0001
0100
0010
1000
,
0001
1000
0100
0010
,
0001
0100
0010
0100
,
0001
0000
1000
0000
0001
1000
0001
0000
,
2001
0000
3100
0000
1000
0001
1000
0000
,
1002
0000
0103
0000
0001
1000
0001
0000
,
0021
0100
0031
0100
,
0010
0000
1000
0000
0100
1000
0100
0000
,
2100
0000
3001
0000
1000
0001
0100
0000
,
0102
0000
1003
0000
0001
1000
0100
0000
,
1200
0010
1300
0010
,
0100
0000
0001
0000
1000
0001
1000
0000
,
0001
0001
1000
1000
,
0010
0000
0100
0000
0001
1000
0001
0000
,
1000
0100
0010
0001
,
0100
0000
0010
0000
1000
1000
1000
0000
,
0001
0100
0010
1000
,
0100
0000
0010
0000
0001
0001
0001
0000
,
1000
0001
0100
0010
,
1000
0000
0100
0000
0001
0001
0001
0000
,
0100
1000
0010
0100
,
0001
0000
1000
0000
0001
0100
0010
0000
,
0120
0000
1030
0000
0010
1000
0001
0000
,
1002
0000
0103
0000
0100
0001
0010
0000
,
0012
0100
0013
0100
,
1000
0000
0001
0000
1000
0010
0100
0000
,
0210
0000
0301
0000
0100
0001
1000
0000
,
2001
0000
3010
0000
0010
1000
0100
0000
,
2100
0001
3010
0100
,
0001
0000
0000
0000
1000
0000
0000
0000
0001
0000
0000
1000
0000
0000
0001
0000
,
2000
0000
0000
0000
,
3000
0000
0000
0000
;

//--------------- dance-single - OrangeRight ----------------
#NOTES:
     dance-single:
     OrangeRight:
     Medium:
     8:
     0,0,0,0,0:
0000
0000
0000
0000
,
0000
0000
0000
0000
,
0000
0000
0000
0000
,
1000
0000
1100
0000
1000
0001
0100
0000
,
0001
0000
0101
0000
0001
1000
0010
0000
,
1000
0000
1010
0000
1000
0001
0010
0000
,
0001
0000
0011
0000
0100
1000
0001
0000
,
1000
1000
0001
0001
0100
0010
0100
0000
,
0001
0001
1000
1000
0100
0010
0001
0000
,
1000
1000
0010
0000
0100
0100
0001
0010
,
0001
1000
0001
0000
1000
0100
1000
0000
,
0001
0001
1000
1000
0010
0100
0010
0000
,
0100
0100
0010
0010
1000
0001
1000
0000
,
0001
0001
0100
0100
0010
1000
0100
1000
,
0001
0100
1000
0100
0001
1000
1001
0000
,
1000
0000
0000
0100
1000
0000
0010
0000
0100
0000
0001
0000
0010
0000
0001
0000
,
0100
0000
0000
0010
0100
0000
0001
0000
1000
0000
0100
0000
0010
0000
0001
0000
,
1000
0000
0000
0001
1000
0000
0100
0000
0010
0000
0001
0000
0100
0000
0010
0000
,
1000
0000
0010
0000
0001
0000
0010
0000
0100
0000
0000
0001
0000
0000
1000
0000
,
0001
0000
0000
0010
0001
0000
0100
0000
0001
0000
0010
0000
0100
0000
1000
0000
,
0010
0000
0000
0100
0010
0000
1000
0000
0001
0000
0010
0000
0100
0000
0010
0000
,
0001
0000
0000
0100
0010
0000
1000
0000
0100
0000
0010
0000
0001
0000
0100
0000
,
1000
0000
0100
0000
0010
0000
0100
0000
0001
0000
0000
1000
0000
0000
0001
0000
,
1000
0100
0000
0000
0100
1000
0000
0000
0000
0001
0000
0000
0100
0000
0000
0000
,
0001
0010
0000
0000
0010
0001
0000
0000
1000
0000
0001
0000
1000
0001
0000
0000
,
1000
1000
0100
0100
0010
0001
1000
0000
,
0001
0100
0010
0100
0001
1000
0100
0000
,
1000
1000
0010
0010
0100
0001
1000
0000
,
0001
0010
0100
1000
0010
0010
0100
0000
,
0001
0001
0100
0100
0010
1000
0001
0000
,
1000
0100
0010
0100
1000
0001
0100
0000
,
0001
0100
1000
0100
0010
1000
0001
0000
,
1000
0100
0001
0100
1000
0001
1001
0000
,
1000
0000
0100
1000
0100
0000
0010
0000
0001
0000
1000
0000
0010
0000
0100
0000
,
0001
0000
0100
0001
0100
0000
0010
0000
1000
0000
0100
0000
0010
0000
0001
0000
,
1000
0000
0010
1000
0010
0000
0100
0000
0001
0000
0010
0000
0100
0000
1000
0000
,
0100
0000
0001
0000
0100
0000
0010
0000
0001
0000
0000
1000
0000
0000
1001
0000
,
0001
0000
0100
0001
0100
0000
0010
0000
1000
0000
0001
0000
0010
0000
0100
0000
,
1000
0000
0100
1000
0100
0000
0010
0000
0001
0000
0100
0000
0010
0000
1000
0000
,
0001
0000
0010
0001
0010
0000
0100
0000
1000
0000
0010
0000
0100
0000
0001
0000
,
0100
1000
0100
0010
1000
0100
0001
0100
,
2000
0000
0000
0000
,
3000
0000
0000
0000
;

//--------------- dance-single - OrangeRight ----------------
#NOTES:
     dance-single:
     OrangeRight:
     Hard:
     11:
     0,0,0,0,0:
0000
0000
0000
0000
,
0000
0000
0000
0000
,
0000
0000
0000
0000
,
1000
0100
1100
1000
0010
0100
0101
1000
,
0001
0100
0101
0001
1000
0010
1010
0100
,
1000
0010
0110
0100
0001
0010
0011
1000
,
0001
0000
0100
0000
0110
0000
0010
0000
1000
0100
0010
0000
0001
0100
0010
0000
,
1000
0001
1000
0000
0100
0000
0010
0000
0001
0000
0100
0010
0000
0000
0100
0001
,
0100
0000
0010
1000
0010
0000
0100
0001
0010
0100
1000
0001
0000
0000
1001
0000
,
0001
1000
0001
0000
0100
0000
0010
0000
1000
0000
0001
1000
0000
0000
0010
1000
,
0001
0000
0100
0001
1000
0000
0100
0010
0001
0000
1000
0001
1000
0000
0110
0000
,
1000
0010
0100
0010
1000
0000
0001
0010
0100
0000
1000
0001
0000
0000
0110
0000
,
0001
0010
0100
0010
0001
0000
0100
0010
1000
0001
0010
0100
0000
0000
1100
0000
,
1000
0010
0100
0000
0001
0010
0100
0000
1000
0001
0100
0010
0000
0000
1000
0010
,
0001
0000
0010
1000
0100
0010
0001
0000
1001
0000
1000
0001
0110
0000
1001
0000
,
1100
0000
1000
0010
0100
0000
0001
0000
1001
0000
1100
0000
0110
0000
0012
0000
,
0100
0000
1003
0001
0100
0000
0010
0000
1010
0000
0110
0000
0101
0000
2001
0000
,
0100
0000
3010
1000
0001
0000
1000
0000
0100
0000
1100
0000
0101
0000
1100
0000
,
1000
0000
1010
0000
0010
0000
0110
0000
0101
0000
0001
1000
0100
0000
0110
0000
,
0011
0000
0001
0100
0010
0000
1000
0000
1001
0000
0011
0000
0110
0000
2100
0000
,
0010
0000
3001
0100
0010
0000
1000
0000
1100
0000
0110
0000
0011
0000
2001
0000
,
0010
0000
3100
1000
0010
0000
0100
0000
0001
0000
0101
0000
1100
0000
0102
0000
,
0013
0000
2100
0000
3010
0000
0110
0000
0100
0010
1000
0100
0010
0001
0100
0000
,
0001
1000
0000
0000
1000
0010
0000
0000
0000
0100
0001
0000
0001
1000
0000
0000
,
1000
0001
0000
0000
0001
0010
0000
0000
0100
1000
0100
0010
0001
0100
0010
0000
,
1000
0100
1000
0000
0010
0100
0010
0000
1000
0100
0010
0001
1000
0000
0110
0000
,
0001
0000
0010
0100
1000
0000
0010
0100
0001
0010
0100
0000
0011
0000
1000
0000
,
0001
0100
0001
0100
0010
0000
1000
0100
0010
0001
1000
0001
0100
0000
0010
1000
,
0100
0000
0010
0001
0100
0000
0010
1000
0001
0000
0100
0010
0000
0000
0110
0000
,
0010
0000
1000
0100
0001
0000
0100
1000
0010
0100
0001
0000
0101
0000
0010
0001
,
0100
0010
1000
0100
0000
1000
0010
0100
0000
0010
0100
0001
0000
0000
1001
0000
,
1000
0010
0100
0010
1000
0000
0001
0010
1000
0010
0001
1000
0000
0000
0001
0010
,
0100
1000
0010
0100
0000
0001
0100
1000
0100
0001
0010
0100
1000
0000
0110
0000
,
1001
0000
1000
0001
0100
0000
0010
0000
1010
0000
0110
0000
0101
0000
0021
0000
,
1000
0000
0031
0100
0010
0000
1000
0000
1100
0000
0110
0000
0011
0000
0201
0000
,
1000
0000
0301
1000
0100
0000
0010
0000
0001
0000
0101
0000
1100
0000
0101
0000
,
0100
0000
0110
0000
0010
0000
1010
0000
1100
0000
0100
0010
0001
0000
0101
0000
,
1001
0000
0001
1000
0010
0000
0100
0000
0101
0000
0110
0000
1010
0000
1200
0000
,
0001
0000
1300
0010
0100
0000
0001
0000
0011
0000
0110
0000
1100
0000
2001
0000
,
0100
0000
3001
1000
0010
0000
0110
0000
0010
0000
1010
0000
1100
0000
0201
0000
,
1300
0000
0021
0000
1030
0000
0110
0000
0010
0001
0100
1000
0100
0001
0010
0000
,
0002
2000
3000
2000
3000
2000
0000
3003
;

//--------------- dance-double - OrangeRight ----------------
#NOTES:
     dance-double:
     OrangeRight:
     Easy:
     6:
     0,0,0,0,0:
00000000
00000000
00000000
00000000
,
00000000
00000000
00000000
00000000
,
00000000
00000000
00000000
00000000
,
00010000
00001000
00001000
00010000
,
00000100
00001000
00000010
00010000
,
00001000
00010000
00010000
00001000
,
00100000
00010000
01000000
00001000
,
00010000
00000100
00001000
00000010
,
00000100
00000000
00000001
00000000
00001000
00000001
00001000
00000000
,
00000010
00010000
00001000
00100000
,
00010000
00000000
01000000
00000000
00010000
10000000
00010000
00000000
,
00100000
00000000
00010000
00000000
01000000
00000000
00010000
00100000
,
00010000
00000000
01000000
00000000
00001000
00000000
00010000
00000100
,
00010000
00000010
00001000
00000100
,
00000010
00000000
00000001
00000000
00001000
00000001
00001000
00000000
,
00002001
00000000
00003010
00000000
00001000
00000010
00001000
00000000
,
00001020
00000000
00010030
00000000
00010000
00001000
00010000
00000000
,
00012000
00000000
00103000
00000000
00100000
00010000
00100000
00010000
,
00000000
01000000
00000000
00100000
10000000
00000000
00010000
00000000
,
10020000
00000000
01030000
00000000
00010000
01000000
00010000
00000000
,
02010000
00000000
03001000
00000000
00001000
00010000
00001000
00000000
,
00021000
00000000
00030100
00000000
00000100
00001000
00000100
00000000
,
00001000
00000000
00000000
00000000
00000010
00000000
00000000
00000000
00000100
00000000
00000000
00000001
00000000
00000000
00000100
00000000
,
00000001
00000001
00001000
00001000
,
00000100
00000100
00010000
00010000
,
00001000
00100000
00010000
01000000
,
10000000
00000000
01000000
00000000
00010000
10000000
00010000
00000000
,
01000000
00001000
00010000
00000100
,
00001000
00000000
00000010
00000000
00000100
00000010
00000100
00000000
,
00000001
00000000
00000010
00000000
00000100
00001000
00000100
00000000
,
00010000
00000000
00001000
00000000
00100000
00010000
00100000
00000000
,
00010000
00000000
01000000
00000000
00100000
01000000
00100000
00000000
,
10000000
01000000
10000000
00000000
00010000
01000000
00010000
00000000
,
10020000
00000000
01030000
00000000
00010000
01000000
00010000
00000000
,
02010000
00000000
03001000
00000000
00001000
00010000
00001000
00000000
,
00021000
00000000
00030100
00000000
00000100
00001000
00000100
00001000
,
00000000
00000010
00000000
00000100
00000001
00000000
00001000
00000000
,
00002001
00000000
00003010
00000000
00001000
00000010
00001000
00000000
,
00001020
00000000
00010030
00000000
00010000
00001000
00010000
00000000
,
00012000
00000000
00103000
00000000
00100000
00010000
00100000
00000000
,
00010000
00000000
00000000
00000000
01000000
00000000
00000000
00000000
10000000
00000000
00000000
01000000
00000000
00000000
00020000
00000000
,
20000000
00000000
00000000
00000000
,
30030000
00000000
00000000
00000000
;

//--------------- dance-double - OrangeRight ----------------
#NOTES:
     dance-double:
     OrangeRight:
     Medium:
     8:
     0,0,0,0,0:
00000000
00000000
00000000
00000000
,
00000000
00000000
00000000
00000000
,
00000000
00000000
00000000
00000000
,
00010000
00101000
00010000
00001010
,
00001000
00010100
00001000
01010000
,
00100000
00011000
00000100
00011000
,
01000000
00000000
10010000
00000000
00100000
01000000
00100000
00000000
,
10000000
01000000
10000000
00100000
01000000
00010000
00100000
00000000
,
00010000
00100000
00001000
00010000
00000100
00001000
00000100
00000000
,
00001000
00000100
00000010
00000001
00000100
00000010
00000100
00000000
,
00000001
00000010
00001000
00000010
00000001
00001000
00000001
00000000
,
00001000
00001000
00000001
00000001
00000010
00000001
00000100
00000000
,
00000010
00000010
00001000
00001000
00000100
00010000
00001000
00000000
,
00100000
00010000
01000000
10000000
01000000
00010000
00100000
00000000
,
01000000
10000000
00100000
01000000
00010000
10000000
10010000
00000000
,
00010000
00000000
01000000
00010000
01000000
00000000
00001000
00000000
00010000
00000000
00000100
00000000
00001000
00000000
00000010
00000000
,
00001000
00000000
00000100
00001000
00000100
00000000
00010000
00000000
00001000
00000000
00100000
00000000
00010000
00000000
01000000
00000000
,
00100000
00000000
10000000
00010000
10000000
00000000
00100000
00000000
01000000
00000000
00010000
00000000
00100000
00000000
00002000
00000000
,
00000000
00000000
00023000
00000000
00000000
00000000
00031000
00000000
00010000
00000000
00000000
00010000
00000000
00000000
00000100
00000000
,
00001000
00000000
00000010
00001000
00000010
00000000
00010000
00000000
00001000
00000000
00100000
00000000
00010000
00000000
01000000
00000000
,
00010000
00000000
00100000
00010000
00100000
00000000
00001000
00000000
00010000
00000000
00000100
00000000
00001000
00000000
00000010
00000000
,
00000100
00000000
00000001
00001000
00000001
00000000
00000100
00000000
00000010
00000000
00001000
00000000
00000100
00000000
00020000
00000000
,
00000000
00000000
00032000
00000000
00000000
00000000
00013000
00000000
00001000
00000000
00000000
00001000
00000000
00000000
00100000
00000000
,
00010000
01000000
00000000
00000000
01000000
00010000
00000000
00000000
00000000
10000000
00000000
00000000
01000000
00000000
00000000
00000000
,
10000000
00100000
00000000
00000000
00100000
10000000
00000000
00000000
10000000
01000000
00000000
00000000
01000000
00100000
00000000
00000000
,
00100000
00010000
01000000
00001000
00010000
00000100
00001000
00000000
,
00000010
00000001
00000010
00001000
00000010
00000100
00000001
00000000
,
00000010
00000100
00001000
00000100
00010000
00001000
00100000
00000000
,
00010000
01000000
10000000
01000000
00100000
10000000
01000000
00000000
,
10000000
01000000
00100000
00010000
01000000
00001000
00010000
00000000
,
00001000
00010000
00000100
00001000
00000010
00000001
00000010
00000000
,
00001000
00000100
00001000
00000010
00000100
00000001
00000010
00000001
,
00000100
00001000
00000100
00000001
00000010
00000100
00001000
00000000
,
00001000
00000000
00000010
00001000
00000010
00000000
00001000
00000000
00000100
00000000
00010000
00000000
00001000
00000000
00100000
00000000
,
00010000
00000000
01000000
00010000
01000000
00000000
00010000
00000000
00100000
00000000
00001000
00000000
00010000
00000000
00000100
00000000
,
00001000
00000000
00000010
00000100
00000010
00000000
00001000
00000000
00000100
00000000
00010000
00000000
00001000
00000000
00200000
00000000
,
00000000
00000000
00302000
00000000
00000000
00000000
00013000
00000000
00001000
00000000
00000000
00010000
00000000
00000000
00000100
00000000
,
00001000
00000000
00000100
00001000
00000100
00000000
00001000
00000000
00000010
00000000
00010000
00000000
00001000
00000000
01000000
00000000
,
00010000
00000000
00100000
00010000
00100000
00000000
00010000
00000000
01000000
00000000
00001000
00000000
00010000
00000000
00000010
00000000
,
00001000
00000000
00000100
00000010
00000100
00000000
00001000
00000000
00000010
00000000
00010000
00000000
00001000
00000000
00100000
00000000
,
00010000
01000000
10000000
01000000
00010000
00100000
01000000
10000000
,
00020000
00000000
00000000
00000000
,
00030000
00000000
00000000
00000000
;

//--------------- dance-double - OrangeRight ----------------
#NOTES:
     dance-double:
     OrangeRight:
     Hard:
     11:
     0,0,0,0,0:
00000000
00000000
00000000
00000000
,
00000000
00000000
00000000
00000000
,
00000000
00000000
00000000
00000000
,
00100000
00010000
01010000
00000000
01000000
00001000
00011000
00000000
,
00010000
00000100
00001100
00000000
00000100
00010000
00011000
00001000
,
01000000
00010000
00110000
00000000
00100000
00001000
00011000
00000000
,
00001000
00000000
01000000
00000000
01010000
00000000
00000000
00000000
00010000
01000000
00010000
01000000
00100000
10000000
00100000
00000000
,
10000000
01000000
10000000
00000000
00100000
00000000
01000000
00000000
00010000
00000000
00100000
00001000
00000000
00000000
00010000
00000100
,
00001000
00000000
00000010
00000100
00000001
00000000
00001000
00000001
00001000
00000001
00000100
00000010
00000100
00000000
00001001
00000000
,
00000001
00000010
00000001
00000000
00000100
00000000
00000010
00000000
00001000
00000000
00000100
00010000
00000000
00000000
00001000
00100000
,
00010000
00100000
00001000
01000000
00000000
00010000
01000000
00100000
10000000
00000000
00010000
10000000
00010000
00000000
01100000
00000000
,
00100000
10000000
01000000
00000000
00100000
00000000
00010000
00000000
01000000
00000000
00001000
00010000
00000000
00000000
00010100
00000000
,
00000100
00001000
00000010
00000000
00000100
00000000
00000001
00000010
00000100
00001000
00000001
00001000
00000010
00000000
00000110
00000000
,
00000100
00000001
00000010
00000000
00000100
00000000
00001000
00000000
00000010
00000000
00010000
00001000
00000000
00010000
00001000
00100000
,
00010000
00000000
01000000
00100000
10000000
00010000
00100000
00000000
01100000
00000000
10000000
00010000
01100000
00000000
10010000
00000000
,
01010000
00000000
00010000
00100000
00010000
00000000
01000000
00000000
01001000
00000000
00011000
00000000
00010100
00000000
00001200
00000000
,
00000010
00000000
00001300
00000100
00001000
00000000
00000100
00000000
00010100
00000000
00011000
00000000
00101000
00000000
00210000
00000000
,
01000000
00000000
00310000
01000000
00010000
00000000
01000000
00000000
00100000
00000000
10100000
00000000
11000000
00000000
01100000
00000000
,
00100000
00000000
00110000
00000000
00010000
00000000
01010000
00000000
01001000
00000000
00000000
00011000
00000000
00000000
00010100
00000000
,
00001100
00000000
00001000
00000010
00001000
00000000
00000100
00000000
00010100
00000000
00011000
00000000
01001000
00000000
02010000
00000000
,
00100000
00000000
03010000
01000000
00010000
00000000
01000000
00000000
01001000
00000000
00011000
00000000
00010010
00000000
00001020
00000000
,
00000100
00000000
00001030
00000100
00001000
00000000
00000100
00000000
00000010
00000000
00000011
00000000
00001010
00000000
00000011
00000000
,
00000001
00000000
00000101
00000000
00000100
00000000
00000110
00000000
00001010
00000000
00000000
00010010
00000000
00000000
00011000
00000000
,
00100000
00001000
00000000
00000000
00010000
00000100
00000000
00000000
00000000
01000000
00001000
00000000
00010000
00000010
00000000
00000000
,
00001000
00000100
00000000
00000000
00000010
00000001
00000000
00000000
00001000
00000010
00000100
00000001
00000010
00000100
00001000
00000000
,
00000001
00000100
00000010
00000000
00001000
00000000
00000100
00000000
00010000
00000000
00001000
00010000
00000000
00000000
00011000
00000000
,
00101000
00000000
00100000
00010000
01000000
00000000
01000000
00010000
00100000
01000000
10000000
00000000
10010000
00000000
01100000
00000000
,
10000000
00100000
01000000
00000000
00010000
00000000
00100000
00000000
00001000
00000000
00010000
00000100
00000000
00000000
00001000
00000010
,
00000100
00000000
00000001
00000010
00000100
00000000
00001000
00000001
00001000
00000000
00000010
00000100
00000000
00000000
00000110
00000000
,
00000100
00000001
00000010
00000000
00000100
00000000
00001000
00000000
00000100
00010000
00001000
00000000
00011000
00000000
00010000
00001000
,
00100000
00010000
00100000
00010000
00000000
01000000
00100000
01000000
00000000
00010000
10000000
00010000
01000000
00000000
01100000
00000000
,
00100000
10000000
01000000
00000000
00100000
00000000
00010000
00000000
01000000
00010000
00100000
00000000
00001000
00000000
00010000
00000000
,
00000100
00001000
00000010
00000100
00000000
00000001
00001000
00000001
00000010
00000100
00001000
00000001
00000100
00000000
00000110
00000000
,
00001010
00000000
00001000
00000100
00001000
00000000
00000010
00000000
00010010
00000000
00011000
00000000
00101000
00000000
00210000
00000000
,
01000000
00000000
00310000
00100000
00010000
00000000
00100000
00000000
00101000
00000000
00011000
00000000
00010100
00000000
00001200
00000000
,
00000010
00000000
00001300
00000010
00001000
00000000
00000010
00000000
00000100
00000000
00000101
00000000
00000011
00000000
00000110
00000000
,
00000100
00000000
00001100
00000000
00001000
00000000
00001010
00000000
00010010
00000000
00000000
00011000
00000000
00000000
00101000
00000000
,
00110000
00000000
00010000
01000000
00010000
00000000
00100000
00000000
00101000
00000000
00011000
00000000
00010010
00000000
00001020
00000000
,
00000100
00000000
00001030
00000010
00001000
00000000
00000010
00000000
00010010
00000000
00011000
00000000
01001000
00000000
02010000
00000000
,
00100000
00000000
03010000
00100000
00010000
00000000
00100000
00000000
01000000
00000000
11000000
00000000
01010000
00000000
11000000
00000000
,
10000000
00000000
10100000
00000000
00100000
00000000
01100000
00000000
01000000
00100000
01000000
00010000
00100000
00001000
00010000
00000000
,
00002000
00020000
00030000
00020000
00030000
00020000
00000000
00033000
;
