#TITLE:Nothing On Me;
#SUBTITLE:;
#ARTIST:Jacob Latimore;
#TITLETRANSLIT:;
#SUBTITLETRANSLIT:;
#ARTISTTRANSLIT:;
#GENRE:;
#CREDIT:;
#MUSIC:Nothing On Me.mp3;
#BANNER:;
#BACKGROUND:;
#CDTITLE:;
#SAMPLESTART:0.000;
#SAMPLELENGTH:0.000;
#SELECTABLE:YES;
#OFFSET:-0.084;
#BPMS:0.000=121.000;
#STOPS:;
#BGCHANGES:-0.170=Nothing On Me.avi=1.000=1=0=0=StretchNoLoop==CrossFade==,
99999.000=-nosongbg-=1.000=0=0=0=StretchNoLoop====
;
#FGCHANGES:;

//--------------- dance-single - blank ----------------
#NOTES:
     dance-single:
     blank:
     Beginner:
     1:
     0,0,0,0,0:
0000
0000
0000
0000
,
0000
0000
0000
0000
,
0000
0000
0000
0000
,
0000
0000
0000
0000
,
1000
0000
0000
0000
,
0001
0000
0000
0000
,
0000
0010
0000
0000
,
0100
0000
0000
0000
,
1000
0000
0000
0000
,
0001
0000
0000
0000
,
0100
0000
0000
0000
,
0010
0000
0000
0000
,
1000
0000
0000
0000
,
0000
0000
0000
0000
,
0000
0001
0000
0001
,
0000
0001
0000
0000
,
0010
0000
0000
0000
,
0000
0000
0000
0000
,
0100
0000
0000
0000
,
1000
0000
0000
0000
,
0001
0000
0000
0000
,
1000
0000
0000
0000
,
0001
0000
0000
0000
,
1000
0000
0000
0000
,
0010
0000
0000
0000
,
0100
0000
0000
0000
,
0010
0000
0000
0000
,
0100
0000
0000
0000
,
0001
0000
0000
0000
,
0000
0000
0000
0000
,
0001
0000
0000
0000
,
1000
0000
0000
0000
,
0010
0000
0000
0000
,
1000
0000
0000
0000
,
0001
0000
0000
0000
,
0100
0000
0000
0000
,
0100
0000
0000
0000
,
0010
0000
0000
0000
,
1000
0000
0000
0000
,
0001
0000
0000
0000
,
1000
0000
0000
0000
,
0000
0000
0000
0000
,
0000
0010
0000
0010
,
0000
0100
0000
0000
,
0001
0000
0000
0000
,
1000
0000
0000
0000
,
0001
0000
0000
0000
,
0010
0000
0000
0000
,
0100
0000
0000
0000
,
1000
0000
0000
0000
,
0010
0000
0000
0000
,
0001
0000
0000
0000
,
0100
0000
0000
0000
,
1000
0000
0000
0000
,
0010
0000
0000
0000
,
0001
0000
0000
0000
,
1001
0000
0000
0000
;

//--------------- dance-single - blank ----------------
#NOTES:
     dance-single:
     blank:
     Easy:
     6:
     0,0,0,0,0:
0000
0000
0000
0000
,
0000
0000
0000
0000
,
1000
1000
0100
0100
,
0010
0010
0001
0001
,
1000
0010
0000
0010
,
0001
0010
0000
0010
,
1000
0100
0000
0100
,
0010
0001
1001
0000
,
0001
1000
0010
0010
,
1000
0001
0100
0100
,
0001
0010
0100
0100
,
1000
0010
0100
1001
,
0010
0010
0010
0010
,
0100
0100
0100
0100
,
1000
0001
0100
0001
,
0010
0100
1000
1001
,
1001
0001
0100
0010
,
1000
0100
0010
0001
,
1000
1000
0001
0001
,
0200
0000
0300
0000
,
1001
0001
0010
0100
,
1001
1000
0010
0100
,
1001
0001
0010
0100
,
1001
1000
0100
0010
,
0001
0001
1000
0100
,
0001
0001
1000
0010
,
0001
0001
1000
0100
,
0001
0001
1000
0010
,
1001
0000
0000
0000
,
0110
0000
0000
0000
,
1001
0000
0000
0000
0000
0000
0000
0001
,
1000
0000
0010
0010
,
1000
0100
0010
0001
,
0100
0010
1000
0001
,
0010
0001
0100
0100
,
0001
0010
0100
1001
,
1000
0010
0100
0100
,
0001
0100
0010
0010
,
1000
1001
0010
0010
,
0001
0010
0100
1000
,
0101
0001
0001
0001
,
1000
1000
0000
1000
,
0010
0110
0001
1000
,
0100
0110
0001
0001
,
0001
0010
0100
1000
,
1000
0100
0010
0001
,
0001
0100
0010
1000
,
0001
0000
0100
0110
,
1001
0001
0010
0100
,
1001
1000
0010
0100
,
1001
0001
0010
0100
,
1001
1000
0100
0010
,
0011
0001
0010
0100
,
1010
0001
0100
0010
,
1001
1000
0100
0010
,
1001
0000
0000
0001
1000
0001
1000
0010
,
0100
0000
0000
0000
;

//--------------- dance-single - blank ----------------
#NOTES:
     dance-single:
     blank:
     Medium:
     9:
     0,0,0,0,0:
0000
0000
0000
0000
,
0000
0000
0000
0000
,
1000
0000
1000
0000
0100
0010
0100
0000
,
0001
0000
0001
0000
0100
0010
0100
0000
,
1001
0000
0001
0000
0010
0001
0100
0000
,
1001
0000
1000
0000
0010
1000
0100
0000
,
0100
0000
0010
0001
0010
0100
1000
0000
,
1000
0000
0010
0100
1001
0000
0000
0000
,
0001
0000
0001
0010
0100
0010
0100
0000
,
1000
0000
1000
0010
0100
0010
0100
0000
,
0001
0000
0001
1000
0100
0010
0001
0000
,
1000
0100
0001
0000
0001
0100
0010
0000
,
1001
0000
0001
0000
0010
0001
0100
0010
,
1000
0000
1000
0000
1000
0000
0100
0010
,
1001
0000
0010
0001
0100
1000
0100
0000
,
1001
0000
1000
0100
0002
0000
0203
0000
,
0310
0000
0001
0000
1000
0010
0100
0001
,
0010
0000
0001
0000
1000
0100
0010
0001
,
0100
0000
0100
0001
1000
0001
0010
0100
,
1000
0000
0010
0010
0100
0001
1000
0001
,
0100
0000
0010
0000
0100
0001
1000
0001
,
0100
0000
0010
0000
1000
0100
0010
0100
,
1000
0000
0001
0000
1000
0010
0100
0010
,
1000
0000
0001
0000
0100
0010
1000
0000
,
1001
0000
0001
0000
0010
0100
0010
0001
,
0010
0000
0100
0000
0001
0100
0010
0100
,
0001
0000
1000
0000
0010
1000
0100
0010
,
0001
0000
0100
0000
0010
0100
0001
1000
,
0100
0100
1000
1000
,
0010
0010
0001
0001
,
0100
0100
0001
0001
,
1001
0000
0000
0000
0010
0100
0010
0000
,
0001
0000
0001
0010
0100
1000
0010
0000
,
1000
0000
1000
0100
0010
0001
0100
0000
,
0001
0000
0001
1000
0010
0100
0001
0000
,
1000
0000
0001
0010
0100
0000
1001
0000
,
1000
0000
0010
0100
0001
0010
0001
0000
,
0001
0000
0010
0100
1000
0010
1000
0000
,
0001
0000
0100
0010
1000
0000
1001
0000
,
1000
0100
0010
0001
0100
0010
1000
0000
,
0011
0000
0010
0000
0010
0100
0010
0001
,
0100
0000
0100
0000
0100
0000
0001
1000
,
0010
0000
0110
0000
0010
1000
0001
0010
,
0100
0000
1001
0000
0001
1000
0001
1000
,
0001
0000
0100
0000
1000
0000
0010
1000
,
0100
0000
1000
0000
0001
0000
0100
0001
,
0010
0000
0001
0000
1000
0000
0010
0100
,
0001
0000
0010
0100
0010
0001
0100
0010
,
1000
0000
1000
0000
0100
1000
0010
0100
,
0001
0000
0001
0100
0001
0010
0100
1000
,
0010
0000
0010
0000
1000
0100
0010
0001
,
0100
0000
0100
0000
0001
1000
0001
0100
,
0110
0000
0010
0000
1000
0001
1000
0100
,
0110
0000
0010
0000
0001
0010
0100
0010
,
0011
0000
0010
0000
0100
1000
0010
1000
,
1010
0000
0010
0000
0100
0001
1000
0000
,
1001
0000
0000
0000
;

//--------------- dance-single - blank ----------------
#NOTES:
     dance-single:
     blank:
     Hard:
     12:
     0,0,0,0,0:
0000
0000
0000
0000
,
0000
0000
0000
0000
,
0000
0000
0000
0000
,
0000
0000
0000
0000
0000
0000
0000
0000
0000
0000
0001
1000
0001
0000
0100
0000
,
0010
0000
0000
0000
0010
0000
0000
0000
1000
0000
0100
0000
0010
0001
0000
0000
,
0100
0000
0000
0000
0100
0000
0000
0000
0010
0000
1000
0000
0001
0100
0000
0000
,
0000
0000
0000
0000
0001
0010
0001
0000
1000
0000
0010
0000
1000
0000
0000
1000
,
0000
0001
0100
0010
1000
0000
0000
0000
,
0100
0000
0010
0001
0100
0100
0100
0001
,
1000
0010
0100
0010
1000
1000
1000
0001
,
0010
0100
1000
0100
0010
0010
0010
0001
,
1000
0010
0100
0001
1000
0100
0010
0000
,
1001
0000
0001
1000
0001
0100
0010
1000
,
0200
0000
0010
0000
0010
0000
0310
0001
,
0101
0000
0000
0000
0010
0000
0001
1000
0001
0000
0100
0000
0010
0000
1000
0000
,
0002
0000
0000
0100
0100
0103
0001
0010
,
0100
0000
0100
1000
0010
1000
0100
0010
,
0002
0000
1000
0000
1000
0000
1003
0001
,
0010
0000
0010
0100
1000
0100
0010
0001
,
0100
0020
0000
0000
1030
1000
0001
0001
,
0110
0000
0000
1000
0010
0010
0100
0100
,
1001
0000
0001
0001
0010
0010
0100
0100
,
1010
0000
0000
1000
0100
0100
0010
0010
,
0101
0000
0000
0001
1000
1000
0010
0010
,
1100
0000
0000
0001
1000
1000
0100
0100
,
1010
0000
0000
1000
0001
0001
0100
0100
,
0011
0000
0000
1000
0001
0001
0010
0010
,
0101
0000
0000
0000
0000
0000
1000
0000
0001
0100
0001
0000
1000
0010
1000
0000
,
0002
0000
0000
0000
,
0003
0000
0000
1000
0001
0100
0010
0010
,
2000
0000
0000
0000
0000
0000
3000
0100
,
0010
0000
0000
0000
0000
0000
0001
0000
1000
0010
1000
0000
0001
0100
0001
0000
,
0000
0000
0000
0000
1000
0000
0100
0000
0010
0000
0001
0000
0100
0001
0000
0000
,
0000
0000
0000
1000
0010
0000
0010
0000
0100
0000
0001
0000
0010
0001
0000
0000
,
0000
0000
0000
0010
0000
0010
0000
0000
0100
0000
1000
0000
0010
0100
0000
0000
,
0000
0000
0000
0001
1000
0001
1000
0000
0010
0000
0000
0000
0100
0001
0000
0000
,
0000
0000
0010
0100
1000
1000
1000
0010
,
0100
0010
1000
0100
0010
0010
0010
0001
,
1000
0001
0100
0020
0000
0030
1001
1000
,
0010
0010
0001
1000
0100
0100
0002
0000
,
0013
0000
0011
0000
0001
0010
0100
0010
,
0002
0000
1000
0000
1000
0000
1003
0100
,
0110
0000
0000
0000
0001
0000
1000
0100
1000
0000
0001
0000
1000
0000
0010
0000
,
0200
0000
1000
0010
0010
0010
0001
0301
,
1000
0000
1000
0100
0010
0001
0100
0010
,
2000
0000
0001
0000
0001
0000
3010
0100
,
0001
0000
1000
0001
0100
0010
1000
0001
,
2000
0000
0100
3100
0010
0010
0001
0001
,
1100
0000
0000
1000
0010
0010
1000
1000
,
0101
0000
0001
0001
0010
0010
0001
0001
,
1010
0000
0000
1000
0100
0100
1000
1000
,
0101
0000
0000
0001
1000
1000
0010
0010
,
0011
0000
0000
0001
1000
1000
0100
0100
,
0101
0000
0000
0001
0010
0010
1000
1000
,
1010
0000
0000
0001
0100
0100
1000
1000
,
1100
0000
0000
0000
0000
0000
0001
0000
1000
0100
0010
0000
0001
0100
0010
0000
,
1001
0000
0000
0000
;

//--------------- dance-single - blank (lightskin mode) ----------------
#NOTES:
     dance-single:
     blank (lightskin mode):
     Challenge:
     14:
     0,0,0,0,0:
0000
0000
0000
0000
,
0000
0000
0000
0000
,
1000
0000
0000
1000
0000
0000
0010
0000
0100
0000
0001
0000
0010
0000
0001
0000
,
1000
0000
0000
1000
0010
0000
0100
0000
0100
0000
0001
0010
0001
0010
0001
0010
,
0001
0000
1000
0001
1000
0000
0010
0000
0100
0000
0100
0000
1000
0200
0000
0000
,
0301
0000
0010
0001
0010
0000
0100
0000
0100
0000
1000
0010
1000
0020
0000
0000
,
0130
0000
0000
0000
0010
1000
0001
0000
0100
0000
0001
0010
0001
0100
0000
0010
,
0000
0010
1000
0000
0100
0000
0010
0000
2020
0000
3030
0001
0100
0001
0000
0000
,
0011
0000
0000
0010
0001
0100
1000
0100
0001
0000
0101
0000
1010
0000
0001
1000
,
0010
0000
0010
1000
0100
0001
0100
1000
0100
0000
1100
0000
0011
0000
2000
0000
,
3020
0000
0031
0010
1000
0100
0010
0000
0021
0000
1000
0000
0031
0000
0001
1000
,
0001
0100
0010
0100
0001
0000
0010
0000
0100
1000
0010
0000
0202
0000
0303
0000
,
0001
0000
0000
0001
0010
0000
0100
0000
1000
0000
0100
0000
0001
0000
0100
0000
,
2000
0000
0001
0000
0001
0000
3001
0100
,
1020
0000
0030
0001
1000
0000
0100
0001
0010
0000
0100
0000
0100
0000
1000
0000
,
0021
0000
0030
1000
0001
0000
0100
0010
0001
1000
0010
0000
0101
0000
0010
0000
,
1010
0000
0000
1000
0001
0000
0010
0000
0010
0000
1000
0000
1000
0000
0001
0000
,
0200
0000
1000
0000
0310
0010
0001
0001
,
1000
0000
0000
0100
0010
0000
0001
0000
0100
0000
0100
0000
0010
0000
0010
0000
,
2000
0000
0000
0000
3001
0000
1001
0000
1000
0010
0100
0000
0001
0010
0001
0000
,
1001
0000
0000
1000
0100
0000
0010
0000
0001
0100
0010
0000
1000
0100
1000
0000
,
1001
0000
0000
0001
1000
0000
1000
0000
0001
0010
0100
0000
1000
0001
1000
0000
,
1001
0000
0000
0001
0100
0000
0010
0000
1000
0100
0010
0000
0001
1000
0010
0000
,
0011
0000
0000
0001
0010
0000
0010
1000
0001
0000
0100
0000
0010
1000
0001
0100
,
0002
0000
0003
1000
0100
0000
0001
0100
0010
0000
0010
0001
1000
0001
0100
0000
,
2000
0000
3000
0100
0001
0000
0010
0001
1000
0000
0101
0000
0001
0000
1100
0000
,
0002
0000
0003
0010
0100
0000
1000
0010
0100
0001
0100
0000
0001
0010
0001
0000
,
2000
0000
3000
0001
0010
0000
0110
0000
1000
0100
0010
0000
0001
0010
0100
0000
,
2001
3100
0002
0103
2000
3100
0002
0103
,
1000
0000
0000
0001
1000
0000
0100
0000
0100
0010
0100
0000
0010
0100
0010
0000
,
1002
0013
2000
3010
0002
0013
2000
0010
,
0002
0000
3000
0100
0000
0000
0103
0000
0100
0010
0100
0000
0001
1000
0001
0000
,
1100
0000
0000
0100
0010
0000
0021
0000
1000
0000
0031
0000
0100
0020
0000
0030
,
1100
0000
0000
0001
0010
0100
1000
0000
0001
0100
0010
0000
1000
0020
0000
0030
,
0101
0000
0000
0001
0010
0001
0000
0001
0100
0000
1000
0100
0010
0200
0000
0300
,
0001
0000
1000
0010
1000
0010
0100
0000
0002
0000
0000
0000
0010
1003
0000
0000
,
1001
0000
0000
0001
0100
0010
0100
1000
0100
0000
0101
0000
1100
0000
1000
0100
,
0001
0000
1000
0010
0100
0010
0001
0100
0010
0000
1010
0000
0011
0000
0002
0000
,
0203
0000
1300
0100
0010
0100
0002
0000
0010
0000
0013
0000
0011
0000
0010
0100
,
1000
0100
0001
0100
0010
0000
0001
0000
1000
0010
0100
0000
0022
0000
0033
0000
,
1000
0000
0000
1000
0010
0000
0100
0000
0001
0000
0010
0000
1000
0000
0010
0000
,
0002
0000
0100
0000
0103
0010
0010
1000
,
0101
0000
0000
0001
0010
0000
0100
1000
0001
0000
0110
0000
1000
0000
0110
0000
,
0002
0000
0000
0103
1000
0000
0001
0010
0100
0010
1000
0000
1100
0000
0010
0000
,
0011
0000
0000
0001
1000
0000
0100
0010
0100
0000
1000
0000
0010
0000
0100
0000
,
0002
0000
1000
0000
1003
0010
0100
0010
,
1000
0000
0000
0100
0010
0000
0001
1000
0001
0000
0100
0000
0010
0000
1000
0000
,
0002
0000
0000
0000
0010
0000
0013
0000
0100
1000
0010
0000
0010
0100
0001
0000
,
1001
0000
0000
1000
0100
0000
0010
0000
0001
0010
0100
0000
1000
0001
1000
0000
,
1001
0000
0000
0001
1000
0000
0010
0000
0100
0001
0010
0000
0010
0100
1000
0000
,
1001
0000
0000
0001
0100
0000
0010
0000
1000
0100
1000
0000
0010
0100
0001
0000
,
0011
0000
0000
0010
0100
0000
1000
0100
0010
0000
0001
0000
0100
0001
1000
0010
,
2000
0000
0000
3001
0010
0000
0100
1000
0010
0000
0010
0100
0001
0010
0001
0000
,
2000
0000
0000
3100
0010
0000
0001
1000
0100
0000
0011
0000
0001
0000
1010
0000
,
2000
0000
0000
3100
0010
0000
0001
0100
0010
0100
0001
0000
0010
0100
0010
0000
,
2100
0000
0000
0000
3000
0000
0010
0000
0100
0001
0100
0000
0010
1000
0010
0000
,
1001
0000
0000
0000
;
