#TITLE:Not The One;
#SUBTITLE:;
#ARTIST:Smashtrax;
#TITLETRANSLIT:;
#SUBTITLETRANSLIT:;
#ARTISTTRANSLIT:;
#GENRE:;
#CREDIT:;
#MUSIC:33. Not The One.mp3;
#BANNER:;
#BACKGROUND:;
#CDTITLE:;
#SAMPLESTART:30.582;
#SAMPLELENGTH:15.000;
#SELECTABLE:YES;
#OFFSET:2.111;
#BPMS:0.000=110.000;
#STOPS:;
#BGCHANGES:;
#FGCHANGES:;

//--------------- dance-single - forcednature ----------------
#NOTES:
     dance-single:
     forcednature:
     Beginner:
     2:
     0,0,0,0,0:
0000
0000
0000
0000
,
0000
0000
0000
0000
,
0000
0000
0000
0000
,
0000
0000
0000
0000
,
0000
0000
0000
0000
,
1000
0000
0001
0000
,
0100
0000
0010
0000
,
1000
0000
0000
0000
,
0001
0000
0000
0000
,
0010
0000
0100
0000
,
0010
0000
0001
0000
,
1000
0000
0000
0000
,
0010
0000
0000
0000
,
0100
0000
0100
0000
,
0001
0000
0001
0000
,
1000
0000
1000
0000
,
0100
0000
0100
0000
,
0010
0000
0010
0000
,
0001
0000
0001
0000
,
1000
1000
0010
0100
,
0000
0000
0001
1000
,
0001
0000
0010
0000
,
0100
0000
0010
0000
,
0001
0000
1000
0000
,
0100
0100
0100
0000
,
0000
0010
0010
0000
,
0001
1000
0001
1000
,
0010
0000
0000
0000
,
0100
0000
0000
0000
,
0001
0000
1000
0000
,
0001
0000
1000
0000
,
0100
0000
0000
0000
,
0010
0000
0000
0000
,
0001
0000
0001
0000
,
1000
0000
1000
0000
,
0010
0000
0010
0000
,
0100
0000
0100
0000
,
0001
0000
0001
0000
,
1000
0000
1000
0000
,
0100
0100
0010
0001
,
0000
0000
0100
0000
,
0010
0010
0000
0010
,
0000
0010
0000
0010
,
0000
0100
0000
0100
,
0000
0100
0000
1001
;

//--------------- dance-single - forcednature ----------------
#NOTES:
     dance-single:
     forcednature:
     Easy:
     7:
     0,0,0,0,0:
0000
0000
0000
0000
,
0000
0000
0000
0000
,
0000
0000
0000
0000
,
0000
0000
0000
0000
,
0000
0000
0000
0000
,
0001
0100
0001
0000
1000
0100
1000
0000
,
0010
0100
0010
0000
1000
0000
0001
0000
,
0010
0100
1000
0100
,
0010
0001
1000
0001
,
0100
0001
0100
0000
0010
1000
0010
0000
,
1000
0100
1000
0000
0001
0000
0010
0000
,
0001
0100
0010
1000
,
0010
0100
0001
1000
,
0110
0000
0110
0000
0010
0001
0010
0000
,
0110
0000
0110
0000
0100
1000
0100
0000
,
1010
0000
1010
0000
0001
0100
0001
0000
,
0011
0000
0011
0000
1000
0100
1000
0000
,
1010
0000
0101
0000
0001
1000
0001
0000
,
0011
0000
1100
0000
1000
0001
1000
0000
,
1001
0000
0110
0000
0001
0100
0010
1000
,
0000
0000
0000
0000
1000
0100
0010
0001
,
0100
0000
0100
0000
1000
0100
0001
0000
,
0100
0000
0100
0000
0001
0100
1000
0000
,
0100
0000
0100
0000
1000
0100
0001
0000
,
0110
0110
0110
2002
,
3003
1000
1000
0001
0001
0000
0000
0100
,
0010
0000
1000
0000
0010
0000
0000
0100
0000
0100
0000
0100
0000
0000
0000
0000
,
0001
0000
0011
0000
0010
0100
1000
0000
,
0010
0000
0101
0000
1000
0100
0010
0000
,
0001
1000
0001
1000
0010
0000
0100
0001
,
0010
0000
0100
1000
0001
0000
0100
0000
,
0010
0000
1000
0000
0100
0010
0001
1000
,
0000
0010
0000
0000
0100
0000
0000
0001
0000
0000
1000
0000
0000
0000
0000
0000
,
0110
0000
0110
0000
1000
0001
1000
0000
,
0110
0000
0110
0000
0001
1000
0001
0000
,
1001
0000
1001
0000
0100
0010
0100
0000
,
1001
0000
1001
0000
0010
0100
0010
0000
,
1100
0000
1100
0000
0001
0010
0001
0000
,
0101
0000
0101
0000
1000
0010
1000
0000
,
1001
0000
0110
0000
1000
0001
1000
0001
,
0000
0000
0000
0000
0100
0010
0100
0010
,
0100
0000
0001
0010
0100
1000
0001
0000
,
0100
0000
0010
1000
0010
0100
0001
0000
,
1000
0000
0100
0010
0001
0100
0010
0000
,
1000
0000
0001
0010
0001
1000
0010
0000
;

//--------------- dance-single - forcednature ----------------
#NOTES:
     dance-single:
     forcednature:
     Medium:
     10:
     0,0,0,0,0:
0000
0000
0000
0000
,
0000
0000
0000
0000
,
0000
0000
0000
0000
,
0000
0000
0000
0000
,
0000
0000
0000
0000
,
1000
0000
0000
0100
0000
0000
0010
0000
0001
0000
0000
0100
0000
0000
0010
0000
,
1000
0000
0000
0001
0000
0000
0010
0000
0100
0000
1000
0000
0001
0000
0100
0000
,
0010
0000
1000
0010
0100
0001
1000
0000
,
0100
0000
0010
0001
0010
0100
1000
0000
,
0001
0000
0000
0100
0000
0000
0010
0000
1000
0000
0000
0100
0000
0000
0010
0000
,
0001
0000
0000
1000
0000
0000
0010
0000
0100
0000
0001
0000
1000
0000
0100
0000
,
0010
0000
0001
1000
0010
0100
0001
0000
,
1000
0000
0100
0010
0001
0100
0010
0000
,
1000
0100
0010
0001
0010
0100
1000
0000
,
0001
0100
0010
1000
0010
0100
0001
0000
,
1000
0100
0001
0100
1000
0100
0010
0000
,
0001
0100
1000
0100
0001
0100
0010
0000
,
1000
0100
0001
0010
1000
0100
0001
0000
,
0001
0100
1000
0010
0001
0100
1000
0000
,
1001
0000
0110
0000
0001
0100
1000
0200
,
0000
0300
0000
0010
1000
0001
1000
0100
,
0010
0000
0000
0000
0010
0000
0001
0000
0100
0010
0100
0000
0002
0000
0003
0000
,
1000
0000
0000
0000
0001
0000
0010
0000
0100
1000
0100
0000
0020
0000
0030
0000
,
0001
0000
0000
0000
1000
0000
0010
0000
0100
0001
0100
0000
0020
0000
0030
0000
,
1001
0110
1001
0110
,
0000
0000
0001
0000
0001
0000
1000
0000
2000
0000
0000
0000
3000
0000
0001
0100
,
0001
0000
1000
0100
1000
0000
0010
0100
0000
0100
0000
0100
0000
0001
1000
0000
,
1001
0000
0000
0000
0001
0000
0010
0000
0100
1000
0100
0000
0010
0000
0000
0000
,
0001
0000
0000
0000
1000
0000
0010
0000
0100
0001
0100
0000
0010
0000
0000
0000
,
0000
0000
1000
0000
1000
0000
0001
0000
0010
0000
0100
1000
0000
0000
0100
0000
,
0010
0000
0001
1000
0000
0000
0010
0000
0100
0000
0001
0000
1000
0000
0100
0000
,
0010
0000
0000
0000
0001
0000
1000
0000
0001
0100
0001
0000
0010
0000
0100
0000
,
0000
1100
0000
0000
0110
0000
0000
0011
0000
0000
2002
0000
0000
0000
3003
0000
,
0001
0100
1000
0001
0010
1000
0001
0000
,
1000
0100
0001
1000
0010
0001
1000
0000
,
0001
0100
0010
0001
1000
0100
0010
0000
,
1000
0100
0010
1000
0001
0100
0010
0000
,
0001
0100
1000
0010
1000
0100
0001
0000
,
1000
0100
0001
0010
0001
0100
1000
0000
,
1001
0000
0110
0000
0001
0100
0010
2000
,
0000
3000
0000
0100
0010
0001
0100
0010
,
1000
0000
0001
0000
0010
0000
0100
1000
0100
1000
0100
0000
0020
0000
0030
0000
,
0001
0000
1000
0000
0010
0000
0100
0001
0100
0001
0100
0000
0020
0000
0030
0000
,
1000
0000
0001
0000
0010
0000
0100
1000
0100
1000
0100
0000
0020
0000
0030
0000
,
0001
0000
1000
0000
0010
0000
0100
0001
0100
0001
0100
0000
0020
0000
0000
0000
,
0030
0000
0000
0000
;

//--------------- dance-single - forcednature ----------------
#NOTES:
     dance-single:
     forcednature:
     Hard:
     14:
     0,0,0,0,0:
0000
0000
0000
0000
,
0000
0000
0000
0000
,
0000
0000
0000
0000
,
0000
0000
0000
0000
,
0000
0000
0000
0000
,
1000
0000
0100
0010
0000
0001
0010
0000
0100
0000
1000
0001
0000
0100
0001
1000
,
0010
0000
1000
0100
0000
0010
0001
0100
0001
0010
0100
0000
1100
0000
1001
0000
,
0101
0000
0000
0000
0001
0000
1000
0000
0010
0100
0001
0000
1000
0000
0100
0000
,
0010
0000
0001
0000
0100
0000
1000
0000
0100
0001
0100
0000
0010
1000
0001
1000
,
0100
0000
0010
0100
0000
1000
0001
0100
0010
0000
1000
0001
0000
0010
0001
1000
,
0010
0000
0100
0001
0000
1000
0100
0010
0001
0100
0001
0000
1001
0000
1100
0000
,
0110
0000
0000
0000
0100
0000
1000
0000
0001
0010
1000
0000
0010
0000
0100
0000
,
1000
0000
0000
1000
0010
0000
0000
0010
0100
0001
1000
0000
0100
0010
0001
0010
,
0100
0000
0001
0000
1000
0000
0010
0000
0001
1000
0010
0000
0200
0000
0000
0000
,
1300
0000
0001
0000
0010
0000
1000
0000
0001
0010
0100
0000
2000
0000
0000
0000
,
3010
0000
1000
0001
0010
0000
0100
1000
0100
0010
0001
0000
0200
0000
0000
0000
,
0310
0000
0001
0000
1000
0000
0100
0000
0001
1000
0100
0000
0020
0000
0000
0000
,
1030
0000
0001
0000
0100
0000
1000
0000
0001
0100
0010
0000
2000
0000
0000
0000
,
3100
0000
0001
0000
1000
0000
0010
0000
0001
1000
0010
0000
0200
0000
0000
0000
,
1300
0100
0101
0000
1010
0011
1100
0202
,
0000
0303
0000
1100
0110
0011
1001
0101
,
0100
0000
1000
0100
0001
0000
1000
0100
0010
0001
0100
0000
0020
0000
1030
0000
,
0001
0000
0010
1000
0010
0000
0100
1000
0001
0100
0010
0000
2000
0000
3001
0000
,
0100
0000
1000
0100
0001
0000
1000
0100
0010
0001
0100
0000
0020
0000
1030
0000
,
0001
0000
1000
0100
0001
0000
0100
0010
0001
0000
1000
0001
0200
0000
0300
0000
,
0000
0000
0010
1000
0001
1000
0100
0010
0002
0000
0000
0000
0003
0000
0100
0001
,
1000
0000
0100
0010
0001
0000
0100
1000
0000
1100
0000
0110
0000
1000
0001
0000
,
0010
0000
0100
0000
1000
0000
0010
0000
0100
0001
1000
0000
0100
0000
0010
0000
,
0001
0000
0100
0000
1000
0000
0001
0000
0010
1000
0001
0000
1000
0000
0100
0000
,
0010
0001
0010
0001
1000
0010
1000
0010
0100
0000
0001
0010
0000
0100
1000
0001
,
0100
0000
0010
1000
0000
0100
0010
0001
0100
0010
1000
0000
0100
0010
0001
0000
,
0100
0000
1000
0000
0001
0000
0010
0000
1000
0001
0010
0000
0100
0000
1100
0000
,
0000
0011
0000
0000
1010
0000
1000
0000
0100
0010
0001
0000
0100
0010
1000
0010
,
0100
0000
1000
0000
0001
0000
0010
0000
1000
0100
0001
0000
1000
0000
0010
0000
,
0001
0000
1000
0000
0010
0000
0100
0000
1000
0001
0010
0000
0100
0000
0001
0000
,
1000
0000
0100
0001
0100
0000
0010
0001
0100
0010
1000
0000
0100
0010
0001
0010
,
0100
0000
1000
0000
0001
0000
0100
0000
1000
0001
0010
0000
1000
0000
0100
0010
,
0001
0000
0100
0010
1000
0000
0001
0010
1000
0010
0001
0000
0100
0000
0010
0000
,
0001
0000
1000
0000
0100
0000
0001
0000
1000
0100
0010
0000
0001
0000
0000
0000
,
0101
0110
1010
0000
1100
0110
0011
1001
,
1000
0000
0010
0000
0101
0000
0001
0010
0100
1000
0100
0010
0001
0000
0100
0000
,
0001
0000
0010
0000
0011
0000
0001
0100
1000
0100
0001
0000
2020
0000
3030
0000
,
1000
0000
0010
0000
1010
0000
1000
0100
0001
0100
1000
0000
0022
0000
0033
0000
,
0001
0000
0100
0000
0101
0000
0001
0010
1000
0010
0001
0000
2200
0000
3300
0000
,
1000
0000
0100
0000
1100
0000
1000
0010
0001
0010
1000
0000
0202
0000
0000
0000
,
0303
0000
0000
0000
;

//--------------- dance-single - not the forcednature ----------------
#NOTES:
     dance-single:
     not the forcednature:
     Challenge:
     12:
     0,0,0,0,0:
0000
0000
0000
0000
,
0000
0000
0000
0000
,
0000
0000
0000
0000
,
0000
0000
0000
0000
,
0000
0000
0000
0000
,
1000
0000
0100
1000
0000
0100
1000
0000
0001
0000
0100
0001
0000
0100
0001
0000
,
1000
0000
0010
1000
0000
0010
1000
0000
0001
0000
0010
0000
0100
0000
1000
0000
,
0001
0000
0000
0000
0100
0000
1000
0000
0100
0010
0100
0000
0001
0000
1000
0000
,
0100
0000
0000
0000
0010
0000
0001
0000
1000
0010
1000
0000
0100
0000
0010
0000
,
0001
0000
0100
0001
0000
1000
0010
0000
1000
0000
0100
1000
0000
0001
0010
0000
,
0001
0000
0100
0010
0000
1000
0001
0000
0010
0000
0100
0000
1000
0000
0001
0000
,
0100
0000
0000
0000
0010
0000
1000
0000
0001
0010
0001
0000
1000
0000
0010
0000
,
0100
0000
0000
0000
0001
0000
1000
0000
0100
0010
0100
0000
0001
0000
0100
0000
,
1100
0100
0110
0010
0011
1001
0101
MMMM
,
1010
1000
1100
0100
0011
1001
0110
MMMM
,
0101
1000
1100
0001
1010
0011
1001
MMMM
,
0110
0001
1100
0010
0101
1100
0110
MMMM
,
1010
0001
1100
0010
0101
1100
0011
MMMM
,
0110
0001
1010
0100
0011
1001
0101
MMMM
,
1100
0000
0011
0000
0101
1001
0110
2020
,
0000
3030
0000
1000
0100
0001
0010
1000
,
0100
0000
0100
0000
0010
0000
0001
0000
0100
0010
0100
0000
0002
0000
0003
0000
,
1000
0000
0010
0000
1000
0000
0100
0000
0010
0001
0010
0000
0200
0000
0300
0000
,
1000
0000
0001
0000
0100
0000
0010
0000
1000
0100
1000
0000
0020
0000
0030
0000
,
0101
0010
1100
0010
1001
0100
2002
3003
,
0000
0001
0100
0010
2020
0000
3030
1000
,
0100
0000
0010
0000
0001
0000
0100
0010
0000
1000
0000
0001
0000
0010
0100
0000
,
1000
0000
0000
0000
0001
0000
0100
0000
0010
1000
0010
0000
0100
0000
0001
0000
,
1000
0000
0000
0000
0100
0000
0010
0000
0001
0100
0001
0000
1000
0000
0010
0000
,
0000
0000
1000
0000
1000
0000
0100
0000
0100
0000
0010
0001
0000
0001
0100
0000
,
0010
0000
1000
0001
0000
0001
0010
0000
0100
0000
1000
0000
0001
0100
0001
0000
,
0010
0000
0100
0000
1000
0000
0010
0000
0100
0001
0100
0000
0010
0000
2000
0000
,
0000
3200
0000
0000
0310
0000
0001
0000
0100
0010
0100
0000
0001
0000
0000
0000
,
1100
0110
0011
0110
1001
0110
1001
MMMM
,
1010
0101
0011
1100
1001
0110
1001
MMMM
,
0011
1100
1010
0101
0110
1001
0110
MMMM
,
1100
0101
0011
1010
0011
0101
1100
MMMM
,
1001
0110
1100
0101
1010
0011
1001
MMMM
,
0011
0101
1010
1100
1010
0101
0011
MMMM
,
1100
0000
0101
0000
1010
0011
0101
2200
,
0000
0000
3300
0000
0000
0000
0001
0000
0010
0100
1000
0000
0001
0000
0100
0000
,
0010
0000
1000
0000
0100
0000
0010
0000
0001
1000
0001
0000
0200
0000
0300
0000
,
0010
0000
1000
0000
0001
0000
0010
0000
0100
1000
0100
0000
0020
0000
0030
0000
,
0001
0000
1000
0000
0010
0000
0100
0000
0001
1000
0001
0000
0020
0000
0030
0000
,
0100
0000
1000
0000
0001
0000
0100
0000
0010
1000
0010
0000
0200
0000
0000
0000
,
0300
0000
0000
0000
;
