#TITLE:Not Takin' You Back;
#SUBTITLE:;
#ARTIST:Smashtrax;
#TITLETRANSLIT:;
#SUBTITLETRANSLIT:;
#ARTISTTRANSLIT:;
#GENRE:;
#CREDIT:;
#MUSIC:44. Not Takin' You Back.mp3;
#BANNER:;
#BACKGROUND:;
#CDTITLE:;
#SAMPLESTART:25.660;
#SAMPLELENGTH:16.000;
#SELECTABLE:YES;
#OFFSET:-0.060;
#BPMS:0.000=150.000;
#STOPS:99.500=1.600
,215.500=1.600
;
#BGCHANGES:;
#FGCHANGES:;

//--------------- dance-single - eataninja ----------------
#NOTES:
     dance-single:
     eataninja:
     Beginner:
     3:
     0,0,0,0,0:
0000
0000
0000
0000
,
0000
0000
0000
0000
,
1000
0000
0010
0000
,
0100
0000
0010
0000
,
1000
0000
0000
0000
,
0000
0000
0000
0000
,
0001
0000
0010
0000
,
0100
0000
0010
0000
,
0001
0000
0000
0000
,
0000
0000
0000
0000
,
1000
0000
0010
0000
,
1000
0000
0001
0000
,
0010
0000
0000
0000
,
0000
0000
0110
0000
,
1000
1000
1000
0000
,
2002
0000
3003
0000
,
0001
0000
0100
0000
,
1000
0000
0100
0000
,
0010
0010
0010
0000
,
1000
0000
0000
0000
,
0001
0000
0010
0000
,
1000
0000
0010
0000
,
0100
0100
0100
0000
,
1000
0000
0000
0000
,
2002
0000
0000
0000
0000
0000
0000
3003
,
0000
1000
1000
0000
,
0000
0010
0010
0000
,
0000
0100
0100
0000
,
2002
0000
3003
0000
,
0000
0000
0000
0000
,
0000
0000
0000
0000
,
0001
0000
0010
0000
,
0100
0000
1000
0000
,
0010
0000
0000
0000
,
0000
0000
0000
0000
,
0100
0000
0010
0000
,
1000
0000
0001
0000
,
0010
0000
0000
0000
,
0000
0000
0000
0000
,
0100
0000
0001
0000
,
0100
0000
1000
0000
,
0001
0000
0000
0000
,
0000
0000
1001
0000
,
0100
0100
0100
0000
,
0220
0000
0330
0000
,
1000
1000
1000
0000
,
0001
0001
0001
0000
,
0010
0010
0010
0000
,
0100
0000
0000
0000
,
1000
1000
1000
0000
,
0001
0001
0001
0000
,
0100
0100
0100
0000
,
0010
0000
0000
0000
,
2002
0000
0000
0000
0000
0000
0000
3003
,
0000
1000
0001
0000
,
0000
0001
1000
0000
,
0000
1000
0100
0000
,
0100
0000
0110
0000
,
0000
0001
1000
0000
,
0000
1000
0001
0000
,
0000
0001
0100
0000
,
0100
0000
0000
0000
,
0000
0000
0010
0000
0010
0000
0000
0010
;

//--------------- dance-single - eataninja ----------------
#NOTES:
     dance-single:
     eataninja:
     Easy:
     6:
     0,0,0,0,0:
0000
0000
0000
0000
,
0000
0000
0000
0000
,
1000
0010
0100
0100
,
0001
0010
0100
0100
,
1000
0000
0001
0000
,
0100
0000
0010
0000
,
1000
0001
0010
0010
,
0001
1000
0010
0010
,
0100
0000
1000
0000
,
0100
0000
0001
0000
,
1000
0100
0010
0010
,
0001
0100
0010
0010
,
1000
0000
0001
0000
,
0010
0100
1000
0000
,
0001
0100
1000
0100
,
0220
0000
0330
0000
,
1000
1001
0010
0100
,
0001
1001
0010
0100
,
1000
0010
0001
0010
,
0200
0001
0301
0000
,
1000
1010
0001
0001
,
0010
0110
1000
0001
,
0100
1000
0100
0001
,
2000
0010
3010
0000
,
1000
0000
0100
0000
0010
0000
0000
0010
,
0000
1001
0001
0000
,
0100
0110
0010
0000
,
1000
1001
0001
0000
,
0010
0010
0010
0000
,
0100
0000
0001
0000
,
0100
0000
1000
0000
,
0001
0100
0010
0010
,
1000
0001
0010
0010
,
0100
0000
1000
0000
,
0010
0000
0001
0000
,
0010
0100
0001
0001
,
1000
0100
0010
0010
,
0001
0000
0100
0000
,
1000
0000
0100
0000
,
0010
1000
0001
0001
,
0010
0001
1000
1000
,
0010
0000
0100
0000
,
0001
1000
0100
0010
,
0001
0000
0100
0010
,
2002
0000
3003
0000
,
1000
1100
0001
0010
,
0001
0101
1000
0010
,
0001
0010
0100
0001
,
2000
0001
3001
0000
,
0010
0110
0001
0001
,
1000
1010
0100
0001
,
0010
1000
0010
0001
,
2000
0010
3010
0000
,
1000
0000
0010
0000
0100
0000
0000
0100
,
0000
0000
0110
0000
0110
0000
0000
0100
,
0000
0000
1001
0000
1001
0000
0000
0001
,
0000
0000
0110
0000
0110
0000
0000
0010
,
0000
0000
0000
0000
1001
0000
0000
1000
,
0000
0000
1010
0000
1010
0000
0000
0001
,
0000
0000
0011
0000
0011
0000
0000
1000
,
0000
0000
1100
0000
1100
0000
0000
0020
,
0000
0001
0031
0000
,
0000
0000
1000
0000
0010
0000
0000
0001
;

//--------------- dance-single - eataninja ----------------
#NOTES:
     dance-single:
     eataninja:
     Medium:
     8:
     0,0,0,0,0:
0000
0000
0000
0000
,
0000
0000
0000
0000
,
1000
0000
0100
0000
0001
0100
1000
0000
,
0001
0000
0100
0000
1000
0100
0001
0000
,
2000
0000
0010
0000
,
0001
0000
3010
0000
,
0100
0000
0010
0000
1000
0001
0010
0000
,
0100
0000
0010
0000
0001
1000
0010
0000
,
0200
0000
1000
0000
,
0010
0000
0301
0000
,
0001
0000
0010
0000
1000
0010
0001
0000
,
1000
0000
0010
0000
0001
0010
1000
0000
,
0002
0000
1000
0000
,
0100
0000
0000
0000
0013
1000
0000
0100
,
0010
0000
0011
0000
1000
0001
1000
0000
,
0010
0000
0100
0000
0001
0001
0001
0000
,
1000
0000
0100
0000
0010
0001
0100
0000
,
0001
0000
0100
0000
0010
1000
0100
0000
,
0002
0000
0203
0000
2300
0000
3010
0100
,
0002
1000
0103
0000
,
0001
0000
1000
0000
0100
0010
0001
0000
,
1000
0000
0010
0000
0001
0010
1000
0000
,
0002
0000
2003
0000
3200
0000
0310
0001
,
2000
0010
3001
0000
,
0100
0000
0010
0000
1000
0001
0000
0011
,
1100
0000
1001
0000
0001
0100
0010
0000
,
0101
0000
1001
0000
1000
0100
0010
0000
,
0110
0000
1001
0000
1000
0010
0100
0000
,
0001
1000
0001
1000
0001
0000
0000
0000
,
2000
0100
0100
0000
,
0001
0100
3100
0000
,
1000
0000
0100
0000
0010
0001
1000
0000
,
0010
0100
0010
2000
0000
0001
3001
0000
,
0020
0100
0100
0000
,
0001
0100
0031
0000
,
1000
0000
0010
0000
0100
0010
1000
0000
,
0001
0010
0001
2000
0000
0100
3100
0000
,
0020
1000
0100
0000
,
0001
0100
0031
0000
,
1000
0000
0010
0000
0001
0010
1000
0000
,
0001
0000
0010
0000
1000
0010
0001
0000
,
2000
0010
0010
0000
,
0001
0000
0100
0000
3100
0010
0000
0001
,
1000
0000
1010
0000
0001
1000
0100
0000
,
0010
0000
0100
0000
1000
1000
1000
0000
,
0001
0100
0001
0000
1000
0010
0100
0000
,
0001
0010
0001
0000
1000
0100
0010
0000
,
0001
0100
1000
0000
0100
0000
0010
1000
,
0002
0010
1003
0000
,
1000
0100
1000
0000
0001
0010
0100
0000
,
1000
0001
1000
0000
0010
0100
0001
0000
,
1000
0010
0001
0000
0010
0000
0100
0001
,
2000
0100
3100
0000
,
0001
0000
1000
0000
0010
0100
0000
0101
,
1000
0000
1001
0000
0001
0010
0001
1000
,
0000
0000
1001
0000
1000
0010
0100
0010
,
0000
0000
1010
0000
0001
1000
0100
0010
,
0000
0000
0001
0000
0100
1000
0000
0100
,
0001
0000
1001
0000
1000
0100
0010
0001
,
0000
0000
1001
0000
0001
0100
0010
0100
,
0000
0000
0101
0000
1000
0001
0010
0100
,
0000
1000
0001
0000
0100
0010
0100
0000
,
0000
0001
0100
0000
0001
1000
0100
0001
;

//--------------- dance-single - eataninja ----------------
#NOTES:
     dance-single:
     eataninja:
     Hard:
     12:
     0,0,0,0,0:
0000
0000
0000
0000
,
0000
0000
0000
0000
,
0001
0000
0000
0000
0011
0000
0000
0000
1000
0000
0001
0000
0100
0000
0010
0100
,
0010
0000
1001
0000
1000
0001
0010
0100
,
1000
0001
0100
0100
0010
1000
0000
1200
,
0000
0310
0001
1000
0010
0100
0000
0001
,
1000
0000
0000
0000
1100
0000
0000
0000
0001
0000
1000
0000
0010
0000
0100
0010
,
0100
0000
1001
0000
0001
1000
0100
0010
,
0001
0000
0100
2000
0000
3000
0100
0002
,
0000
0003
0010
0200
0000
0300
1000
0001
,
0100
0000
0000
0000
0101
0000
0000
0000
1000
0000
0001
0000
0010
0000
0001
1000
,
0001
0000
0011
0000
0010
0100
1000
0001
,
0100
0001
0010
0010
0100
0000
1000
0001
,
0100
1000
0000
0100
0010
2000
0000
3001
,
0010
0000
0100
1000
0001
0100
0110
0000
,
1000
0000
1001
0000
0001
0100
1000
0100
,
0010
0000
0000
0000
0110
0000
0000
0100
0001
0000
1000
0000
0100
0000
0010
0000
,
0001
0000
0000
0000
0011
0000
0000
0001
1000
0000
0010
0000
0100
0000
0010
0000
,
0002
0000
0023
0000
2030
0000
3001
0010
,
0100
1000
0001
0000
0100
0010
0100
0001
,
1000
0000
0100
0000
1100
0000
0000
0100
0010
0000
0001
0000
1000
0000
0010
0000
,
0100
0000
0001
0000
1001
0000
0000
1000
0100
0000
0010
0000
0100
0000
0002
0000
,
0000
0103
0110
0000
0011
0000
1000
0010
,
0100
0001
0010
0000
0100
0001
0100
1000
,
0001
0000
0100
0000
0010
0000
0000
0000
1000
0000
0001
0000
0010
0000
0200
0300
,
1100
0000
1001
0000
0001
0100
1000
0100
,
0010
0000
0110
0000
1000
0001
0010
0100
,
0010
0000
0011
0000
1000
0010
0001
0010
,
0100
0100
0100
0200
0000
0300
0000
0000
,
0001
1000
0100
0000
0110
0000
0010
0001
,
0000
0000
1000
0000
0010
0100
0000
0010
,
1000
0000
0000
0000
1001
0000
0000
0000
0001
0000
0010
0000
0100
0000
1000
0001
,
1000
0010
0100
0000
0010
0100
0001
1000
,
0100
0000
0010
0000
0010
0001
0000
2001
,
0000
0000
3010
0000
0100
0001
0001
1000
,
0100
0000
0000
0000
1100
0000
0000
0000
1000
0000
0001
0000
0100
0000
0010
0100
,
0010
1000
0001
0000
1000
0100
0010
0001
,
1000
0000
0010
0210
0000
0000
0301
2001
,
0000
0000
3100
0120
0000
0000
0031
1000
,
0010
0000
0000
0000
0110
0000
0000
0000
0100
0000
0001
0000
1000
0000
0001
0010
,
0001
1000
0010
0000
0100
0001
0010
0100
,
1000
0000
1010
0000
0010
0010
0000
0110
,
0000
0101
0000
0001
1000
0100
0000
0100
,
0010
0000
0000
0000
0001
0000
1000
0000
0010
0000
0001
0000
0010
0000
0100
0010
,
0100
0000
0001
1000
0100
0010
0001
1000
,
0010
0000
0000
0010
0100
0000
0000
0100
0001
0000
1000
0000
0100
0000
0002
0000
,
0000
0000
0103
0000
0010
0000
0000
0010
0001
0000
1000
0000
0010
0000
0002
0000
,
0000
0000
0013
0000
0100
0000
0000
0100
0001
0000
1000
0000
0100
0000
0010
0000
,
0001
1000
0010
0100
0010
1000
1000
0001
,
0010
0000
0000
0010
0100
0000
0000
0100
1000
0000
0001
0000
0100
0000
2000
0000
,
0000
0000
3100
0000
0010
0000
0000
0010
1000
0000
0001
0000
0010
0000
2000
0000
,
0000
3010
0200
0000
2300
0000
3001
1000
,
0010
0100
0101
0000
1000
0001
0100
0010
,
1000
0000
0100
0000
0001
0000
0000
0000
0100
0000
0010
0000
0001
0000
2000
3000
,
1000
0001
0011
0000
0010
0100
1000
0001
,
0100
0010
1010
0000
0001
1000
0100
0001
,
0100
0000
0010
0000
0011
0000
0000
0000
1000
0000
0010
0000
0100
0000
0001
1000
,
0001
0010
0200
0000
1300
0010
0001
1000
,
0100
0010
1010
0000
0001
1000
0001
0010
,
0100
0010
0011
0000
1000
0010
0100
1000
,
0100
0000
0010
0000
1010
0000
0000
0000
0001
0000
1000
0000
0100
0000
0010
0100
,
0010
0001
2000
0000
3010
0100
0101
0000
,
1000
0001
0001
0000
1000
0100
0001
0010
;
